osu file format v9

[General]
AudioFilename: ELISA - Wonder Wind.mp3
AudioLeadIn: 0
PreviewTime: 58583
Countdown: 0
SampleSet: Soft
StackLeniency: 0.7
Mode: 0
LetterboxInBreaks: 1

[Editor]
Bookmarks: 13667,87287,99066,154833,166244,181152,196244,201950,238575
DistanceSpacing: 1
BeatDivisor: 4
GridSize: 8

[Metadata]
Title:Wonder Wind
Artist:ELISA
Creator:0OoMickeyoO0
Version:Collab
Source:Hayate no Gotoku!!
Tags:termerys Netsukawa KinomiCandy

[Difficulty]
HPDrainRate:6
CircleSize:4
OverallDifficulty:7
ApproachRate:8
SliderMultiplier:1.6
SliderTickRate:1

[Events]
//Background and Video events
0,0,"BG.jpg"
//Break Periods
2,87494,98323
2,155040,165501
2,196244,201207
//Storyboard Layer 0 (Background)
//Storyboard Layer 1 (Fail)
//Storyboard Layer 2 (Pass)
//Storyboard Layer 3 (Foreground)
Sprite,Foreground,Centre,"Font\0OoMickeyoO0.png",320,240 M,0,17901,,458,428 F,0,17901,18085,0,1 F,0,18085,87195,1 F,0,87195,87287,1,0 F,0,181336,181520,0,1 F,0,181520,196060,1 F,0,196060,196244,1,0
Sprite,Foreground,Centre,"Font\0OoMickeyoO0.png",320,240 M,0,18085,,457,428 F,0,18085,18821,1,0 S,0,18085,18821,0.9999997,1.624
Sprite,Foreground,Centre,"Font\Netsukawa.png",320,240 M,0,98882,,497,424 F,0,98882,99066,0,1 F,0,99066,154649,1 F,0,154649,,1 F,0,154649,154741,1,0 F,0,224036,224220,0,1 F,0,224220,238575,1 F,0,238575,238667,1,0
Sprite,Foreground,Centre,"Font\Netsukawa.png",320,240 M,0,224220,,496,424 F,0,224220,224956,1,0 S,0,224220,224956,1,1.84
Sprite,Foreground,Centre,"Font\termerys.png",320,240 M,0,166612,,518,430 F,0,166612,166796,0,1 F,0,166796,181152,1 F,0,181152,181244,1,0 F,0,201950,202134,0,1 F,0,202134,223852,1 F,0,223852,,1 F,0,223852,223944,1,0
//Storyboard Sound Samples
//Background Colour Transformations
3,100,163,162,255

[TimingPoints]
1896,368.098159509202,4,2,1,40,1,0
15239,-100,4,1,0,60,0,0
18184,-100,4,2,1,70,0,0
20944,-100,4,1,0,60,0,0
21128,-100,4,2,1,70,0,0
23889,-100,4,1,0,60,0,0
24073,-100,4,2,1,70,0,0
26834,-100,4,1,0,60,0,0
27018,-100,4,2,1,70,0,0
29411,-100,4,1,0,60,0,0
29595,-100,4,2,1,70,0,0
44595,-133.333333333333,4,2,1,60,0,0
53245,-100,4,2,1,70,0,0
58859,-100,4,1,0,60,0,0
59319,-100,4,2,1,70,0,1
70730,-100,4,2,1,70,0,0
70914,-100,4,2,1,70,0,1
84165,-100,4,2,1,70,0,0
84625,-100,4,1,0,60,0,0
84809,-100,4,2,1,70,0,0
87202,-100,4,1,0,60,0,0
87386,-100,4,2,1,70,0,0
103490,-200,4,2,1,70,0,0
103859,-100,4,2,1,70,0,0
104595,-200,4,2,1,70,0,0
105331,-100,4,2,1,70,0,0
114349,-133.333333333333,4,2,1,70,0,0
121895,-100,4,2,1,70,0,0
128061,-100,4,1,0,70,0,0
128521,-100,4,2,1,70,0,1
139932,-100,4,2,1,70,0,0
140116,-100,4,2,1,70,0,1
153368,-100,4,2,1,70,0,0
171036,-100,4,2,1,80,0,0
172601,-100,4,2,1,70,0,0
178951,-100,4,2,1,50,0,0
179043,-100,4,2,1,40,0,0
179135,-100,4,2,1,30,0,0
179319,-100,4,2,1,50,0,0
179411,-100,4,2,1,40,0,0
179503,-100,4,2,1,30,0,0
179687,-100,4,2,1,50,0,0
179779,-100,4,2,1,40,0,0
179871,-100,4,2,1,70,0,0
181527,-133.333333333333,4,2,1,60,0,0
189809,-100,4,2,1,60,0,0
201957,-200,4,1,1,50,0,0
205362,-100,4,2,1,70,0,0
205454,-100,4,2,1,50,0,0
205822,-100,4,2,1,60,0,0
206190,-100,4,2,1,70,0,0
207846,-100,4,2,1,70,0,1
221098,-100,4,2,1,70,0,0
221650,-100,4,1,1,50,0,0
221742,-100,4,2,1,70,0,0
223122,-100,4,2,1,60,0,0
223306,-100,4,2,1,65,0,0
223490,-100,4,2,1,50,0,0
223674,-100,4,2,1,55,0,0
223859,-100,4,2,1,70,0,0
234349,-133.333333333333,4,2,1,70,0,0
234901,-100,4,2,1,70,0,0
236006,-100,4,2,1,50,0,0
236558,-100,4,2,1,40,0,0
237110,-100,4,2,1,30,0,0
237662,-100,4,2,1,20,0,0
238214,-100,4,2,1,10,0,0
238674,-100,4,2,1,5,0,0

[Colours]
Combo1 : 255,255,128
Combo2 : 179,255,102
Combo3 : 0,128,255
Combo4 : 255,128,128

[HitObjects]
256,192,13675,12,0,14963
208,128,15331,5,2
256,264,15515,1,2
392,224,15699,1,0
344,88,15883,1,2
208,128,16067,2,0,B|168:144|128:128|128:128|88:112|48:128,1,160,2|2
256,192,16527,12,8,17724
192,264,18092,6,0,B|112:232|96:136,1,160,4|8
40,88,18644,1,0
40,88,18736,1,0
40,88,18828,2,0,B|72:56|120:68,1,80,2|2
176,120,19196,1,8
176,120,19380,2,0,B|272:144|336:72,1,160,0|0
160,200,19932,2,0,B|88:256|88:352,2,160,10|2|10
392,240,21037,6,0,B|320:192|240:216,1,160,0|8
172,264,21589,1,0
148,296,21681,1,0
108,312,21773,2,0,B|64:316|36:280,1,80,2|2
108,128,22141,1,8
168,184,22325,2,0,B|208:184|240:216|240:216|256:176|304:160,1,160,4|0
352,104,22877,2,0,B|392:88|432:100|432:100|472:88|512:104,2,160,10|2|10
376,232,23797,1,0
352,104,23981,6,0,B|280:56|184:88,1,160,4|10
120,96,24534,1,0
120,96,24626,1,0
120,96,24718,1,2
32,224,24902,2,0,B|72:204|76:156,1,80,2|8
198,83,25270,2,0,B|224:168|168:240,1,160,4|0
100,268,25822,1,10
280,256,26190,5,2
280,256,26282,1,8
280,256,26374,1,0
392,232,26558,1,10
356,336,26742,1,0
480,224,26926,6,0,B|472:160|408:144|408:144|424:96,1,160,4|8
480,48,27478,1,0
448,24,27570,1,0
408,24,27662,1,2
236,32,27846,2,0,B|268:64|320:56,1,80,2|8
384,144,28215,6,0,B|336:188|336:188|360:228|336:280,1,160,4|0
256,232,28767,1,8
176,280,28951,2,0,B|152:228|176:188|176:188|128:144,1,160,4|0
256,72,29503,2,0,B|256:240,1,160,8|4
432,344,30239,5,8
472,272,30423,1,0
448,192,30607,1,0
448,192,30699,1,8
448,192,30791,1,0
368,176,30975,2,0,B|328:192|280:168,1,80,8|0
424,112,31343,5,0
336,256,31711,2,0,B|301:284|253:276,1,80,8|0
192,256,32080,1,0
192,256,32172,1,8
192,256,32264,1,0
64,256,32448,1,8
0,152,32632,1,0
128,152,32816,5,0
128,152,33184,1,8
296,64,33368,2,0,B|304:112|272:144,1,80
248,168,33644,1,8
208,176,33736,1,0
272,248,33920,2,0,B|272:296|240:320,2,80,8|0|0
48,192,34656,6,0,B|16:104|88:40,1,160,12|0
160,144,35208,1,0
48,192,35392,2,0,B|80:280|8:344,1,160,12|4
88,32,36129,6,0,B|120:64|104:112,1,80,8|0
72,184,36497,1,0
72,184,36589,1,8
72,184,36681,1,0
128,248,36865,2,0,B|160:272|208:256,1,80,8|0
280,232,37233,6,0,B|264:184|212:176|212:176|192:112,1,160,0|8
240,48,37785,1,0
320,32,37969,1,0
320,32,38061,1,8
320,32,38153,2,0,B|352:56|400:48,2,80,0|8|0
296,108,38705,6,0,B|320:192|416:208,1,160,0|8
480,160,39257,1,0
472,80,39442,1,0
472,80,39534,1,8
472,80,39626,1,0
480,160,39810,2,0,B|476:208|512:244,1,80,8|4
400,360,40362,6,0,B|404:312|368:276,2,80,0|8|4
320,344,40914,1,0
320,344,41006,1,8
320,344,41098,1,0
296,264,41282,2,0,B|252:280|240:320|240:320|196:336|156:316,1,160,8|4
8,64,42018,6,0,B|96:40|160:112,1,160,8|0
153,105,42478,1,8
153,105,42570,1,0
216,160,42754,2,0,B|264:176|312:152,1,80,8|4
440,96,43307,5,0
440,96,43491,2,0,B|392:80|344:104,1,80,8|4
400,168,43859,1,0
408,208,43951,1,8
392,248,44043,1,0
352,256,44135,1,0
312,240,44227,2,0,B|224:224|168:288,1,160,8|4
256,48,45147,6,0,B|232:64|200:64,1,59.9999982118607,0|8
336,104,45699,1,0
352,176,45883,2,0,B|416:184|464:216,2,119.999996423721
304,232,46803,2,0,B|256:280|192:288,1,119.999996423721,8|0
128,288,47356,2,0,B|96:288|64:304,1,59.9999982118607
200,128,47908,5,0
200,128,48092,2,0,B|232:128|264:112,1,59.9999982118607,0|8
308,276,48644,2,0,B|328:296|360:304,1,59.9999982118607
360,304,49196,1,0
360,304,49564,1,0
424,344,49748,1,8
472,288,49932,2,0,B|500:312|500:356,2,59.9999982118607
416,240,50484,6,0,B|368:200|368:120,2,119.999996423721,4|0|8
288,304,51589,2,0,B|256:312|232:336,1,59.9999982118607
176,200,52141,2,0,B|120:232|56:200,1,119.999996423721
8,152,52693,1,8
112,56,53061,1,8
184,88,53245,6,0,B|224:128|288:128|328:88,1,160,4|0
400,56,53797,1,8
424,216,54165,1,0
376,280,54349,1,0
456,288,54534,1,8
368,160,54718,6,0,B|280:168|240:256,1,160,4|0
232,328,55270,1,8
88,264,55638,1,0
32,208,55822,1,0
8,288,56006,1,8
112,184,56190,6,0,B|176:128|168:40,1,160,4|0
256,136,56742,1,8
344,40,56926,2,0,B|336:128|400:184,2,160,4|8|12
256,232,58030,2,0,B|256:320,2,80,12|12|12
256,72,58767,1,0
256,72,58951,1,8
256,232,59319,6,0,B|192:184|104:208,1,160,4|8
248,336,60055,2,0,B|292:344|328:312,2,80,0|0|8
168,280,60607,1,0
72,112,60975,1,0
92,204,61159,1,10
184,184,61343,2,0,B|224:224|288:224|328:184,1,160,2|0
440,112,61896,1,8
420,204,62080,1,0
256,304,62448,5,0
256,304,62632,2,0,B|312:360|408:344,2,160,8|0|8
160,304,63552,1,2
328,216,63920,1,2
232,216,64104,2,0,B|168:160|72:184,1,160,10|2
24,256,64656,1,2
24,256,64840,1,8
96,88,65024,6,0,B|144:48|144:48|192:72|240:48,1,160,4|0
336,56,65576,2,0,B|424:32|496:96,1,160,8|0
456,176,66129,2,0,B|480:216|472:272,2,80,0|8|0
280,256,66865,2,0,B|328:192,1,80,0|10
268,352,67233,2,0,B|216:344|196:300|196:300|124:300,1,160,2|0
32,300,67785,1,8
80,160,67969,6,0,B|120:120|188:128|216:180,1,160
280,256,68521,2,0,B|336:224|336:152|288:116,1,160,8|0
224,56,69073,1,0
224,56,69257,1,8
240,184,69442,6,0,B|288:224|288:224|288:280|348:304,1,160,4|0
376,216,69994,1,8
240,184,70178,2,0,B|192:144|192:144|192:88|132:64,1,160,4|0
104,152,70730,1,8
272,96,70914,6,0,B|320:168|424:144,1,160,4|0
496,104,71466,1,8
384,264,71834,2,0,B|352:292|308:280,2,80,0|0|8
232,256,72386,2,0,B|216:320|276:356|276:356|340:356,1,160
440,320,72938,1,10
440,320,73122,1,2
416,192,73307,1,0
416,192,73399,1,8
416,192,73491,1,0
304,128,73675,5,8
304,128,73859,2,0,B|220:88|132:136,1,160
208,256,74411,2,0,B|292:296|380:248,2,160,8|0|8
128,208,75331,1,2
224,40,75699,2,0,B|268:32|304:56,1,80,2|10
40,104,76251,2,0,B|84:112|120:88,2,80,2|2|8
224,40,76803,6,0,B|296:80|384:48,1,160,4|0
472,72,77356,1,8
496,168,77540,1,0
448,256,77724,2,0,B|448:296|480:328,2,80,0|0|8
400,168,78276,2,0,B|312:144|248:200,1,160
312,272,78828,1,10
236,328,79012,1,2
172,256,79196,2,0,B|124:264|100:304,2,80,0|0|8
24,256,79748,6,0,B|104:216|104:112,1,160
104,32,80300,1,8
256,144,80669,2,0,B|272:104|256:64,2,80,0|0|8
168,104,81221,2,0,B|144:168|192:216|192:216|192:256,1,160,4|0
256,144,81773,1,8
320,256,81957,2,0,B|320:216|320:216|368:168|344:104,1,160,4|0
256,144,82509,1,8
168,104,82693,6,0,B|80:72|8:136,1,160,4|0
88,192,83245,1,8
16,248,83429,1,0
20,296,83521,1,8
44,336,83613,1,0
84,360,83705,1,8
128,368,83797,5,2
200,240,83981,1,10
344,256,84165,2,0,B|432:256|488:184,1,160,6|0
312,24,84718,2,0,B|320:112|400:152,1,160,8|0
440,32,85270,1,4
440,32,85638,1,4
256,192,85822,12,4,87294
240,296,99073,5,4
240,296,99626,1,0
352,312,99810,2,0,B|400:320|448:296,1,80,2|0
416,152,100178,2,0,B|368:144|320:168,1,80
200,216,100546,6,4,B|136:248|64:224,2,120,6|4|4
256,160,101282,1,2
336,72,101466,1,0
304,224,101650,1,0
256,80,101834,1,0
368,176,102018,1,6
368,176,102570,5,0
416,240,102754,2,0,B|448:280|456:344,1,80,2|0
304,368,103122,2,0,B|280:328|272:280,1,80
274,293,103491,6,0,B|304:208,1,80,2|4
344,64,104227,1,2
392,176,104411,1,0
240,168,104595,2,0,B|208:256,1,80,2|4
72,320,105331,5,8
112,248,105515,2,0,B|128:200|112:152,1,80,0|2
48,72,105883,2,0,B|32:120|48:176,1,80,0|8
192,152,106251,2,0,B|200:104|184:64,2,80,0|2|0
192,232,106803,1,8
264,272,106988,6,0,B|304:288|352:280,1,80,0|2
364,276,107264,1,8
384,280,107356,2,0,B|460:368,2,80,0|8|0
308,188,107908,2,0,B|192:44,1,160,2|8
132,88,108460,1,0
180,152,108644,1,2
192,168,108736,1,8
204,184,108828,2,0,B|228:220|228:264,1,80,0|8
136,340,109196,6,0,B|80:320|52:248|76:192,1,160,4|2
96,132,109748,1,8
172,264,109932,2,0,B|236:280|296:236|292:160,1,160,4|2
312,68,110484,2,0,B|256:48|192:80|176:144,1,160,8|4
220,200,111037,1,2
100,180,111221,2,0,B|76:232|100:300|172:308,1,160,8|2
180,300,111681,2,0,B|236:280,1,40,8|0
328,244,111957,1,8
392,344,112141,6,0,B|456:276|424:168,1,160,4|2
384,132,112693,1,8
436,72,112877,2,0,B|464:36,2,40,0|0|2
304,148,113245,2,0,B|248:156,2,40,0|2|0
356,212,113613,6,0,B|356:256|320:296,1,80,0|4
88,148,113981,2,0,B|104:104|144:88,1,80,2|0
276,220,114349,2,0,B|152:156,1,119.999996423721,2|0
112,236,114902,1,0
200,260,115086,2,0,B|320:320,2,119.999996423721,2|2|2
132,316,116006,2,0,B|104:344|52:344,2,59.9999982118607,8|0|0
144,204,116558,1,0
236,136,116742,6,0,B|296:100|368:128,1,119.999996423721,2|0
372,300,117478,2,0,B|316:336|236:308,1,119.999996423721,8|2
172,288,118030,2,0,B|103:269|47:301,2,119.999996423721,0|2|0
256,316,118951,1,8
340,280,119135,5,0
368,196,119319,1,2
340,112,119503,2,0,B|348:80|376:44,1,59.9999982118607,0|4
260,104,119871,2,0,B|232:160|152:184,1,119.999996423721,2|0
88,144,120423,2,0,B|32:120,1,59.9999982118607,8|2
44,208,120791,1,0
120,256,120975,2,0,B|176:292|244:272,2,119.999996423721,2|2|2
48,288,121895,6,0,B|8:364,2,80,8|0|0
184,200,122448,2,0,B|212:112|176:40,1,160,4|2
100,184,123000,2,0,B|104:236|136:276,1,80,8|0
176,320,123368,5,2
264,196,123552,1,0
264,316,123736,1,8
344,188,123920,2,0,B|444:52,1,160,4|2
456,180,124472,6,0,B|344:336,1,160,8|2
362,309,125024,1,0
284,312,125208,1,8
284,312,125392,2,0,B|190:182,1,160,2|2
112,168,125945,5,8
160,276,126129,2,0,B|256:260|296:180,1,160,2|8
408,168,126681,1,2
352,276,126865,2,0,B|256:260|216:180,1,160,8|8
180,80,127417,5,8
332,80,127601,1,8
256,308,127969,2,0,B|256:200,1,80,0|8
116,148,128521,6,0,B|164:172|232:164|268:124,1,160,4|8
332,80,129073,1,0
320,200,129257,2,0,B|296:284|196:316,1,160,2|8
204,232,129810,6,0,B|268:232|312:296|272:364,2,160,2|2|2
124,244,130730,2,0,B|16:264,2,80,2|2|8
264,300,131282,6,0,B|436:268,1,160,2|2
484,132,131834,2,0,B|304:164,1,160,8|2
326,160,132386,1,0
228,232,132570,1,8
116,188,132754,6,2,B|36:140|64:32,1,160
176,88,133307,2,8,B|272:112|268:224,1,160,8|8
220,348,133859,1,8
220,348,134227,6,0,B|332:236,1,160,4|2
388,180,134779,2,0,B|420:144|408:88,1,80,8|0
296,72,135147,2,0,B|272:104|276:152,1,80,2|0
300,224,135515,1,8
220,208,135699,6,2,B|60:176,1,160
63,176,136251,1,8
88,60,136435,1,2
184,132,136619,1,2
236,24,136803,1,2
312,120,136988,1,8
400,40,137172,6,2,B|460:100|436:196,1,160
392,300,137724,2,0,B|348:220|244:208,1,160,8|2
144,220,138276,1,0
248,284,138460,1,8
268,132,138644,6,2,B|180:116|104:160,1,160,4|2
72,268,139196,1,8
24,124,139380,2,2,B|80:60|156:36,1,160,6|2
224,136,139932,1,8
144,220,140116,6,2,B|224:264|240:348,1,160,6|2
160,344,140669,2,0,B|200:280|272:224,1,160,8|0
420,212,141221,1,0
332,296,141405,1,10
272,156,141589,6,0,B|204:140|188:252|96:220,1,160,0|2
136,144,142141,2,0,B|212:148|228:240|304:236,1,160,8|2
420,212,142693,1,0
332,296,142877,1,8
360,148,143061,6,2,B|356:88|416:36|492:72,1,160
440,140,143613,2,0,B|448:200|384:248|320:220,1,160,8|2
256,220,144165,2,0,B|196:216|160:252,1,80,0|8
76,296,144534,2,2,B|116:216|104:132,1,160
48,36,145086,2,0,B|104:92|208:64,1,160,8|10
308,112,145638,5,8
308,112,146006,2,0,B|276:192|312:272,1,160,4|2
404,192,146558,2,0,B|232:192,1,160,8|2
164,192,147110,1,0
48,160,147294,1,8
152,272,147478,6,2,B|236:288|336:264,1,160
392,272,148030,2,0,B|456:344,2,80,8|0|2
404,192,148583,1,0
376,40,148767,1,8
328,148,148951,6,2,B|280:212|184:228,1,160
136,284,149503,1,8
72,236,149687,2,0,B|40:200|36:136,1,80,0|2
136,284,150055,2,0,B|168:320|172:376,1,80,0|8
120,172,150423,6,2,B|268:100,1,160
384,84,150975,1,10
276,192,151159,2,2,B|124:268,1,160
60,232,151711,1,8
160,348,151896,2,2,B|316:268,1,160,6|2
428,188,152448,6,0,B|352:192|304:120,1,120,8|2
304,136,152816,2,0,B|208:176,1,80,8|8
80,148,153184,2,0,B|180:108,1,80,8|12
316,232,153736,5,2
216,312,153920,1,12
192,232,154104,1,0
296,312,154288,1,2
256,176,154472,2,0,B|216:96|296:96|256:16,1,160,8|12
48,72,166251,5,8
72,152,166435,1,8
128,96,166619,2,0,B|200:64|288:64,1,160,4|0
283,64,167172,1,8
264,144,167356,1,0
344,120,167540,6,0,B|384:128|424:160,1,80
352,200,167908,1,8
352,200,168092,2,0,B|296:256|208:272,2,160
392,272,169012,1,0
344,336,169196,2,8,B|264:320,1,80,8|8
184,328,169564,6,2,B|136:256|144:168,1,160,2|2
144,160,170024,1,0
144,144,170116,1,8
192,80,170300,1,0
208,72,170392,1,0
224,72,170484,1,8
216,152,170669,2,0,B|248:184|288:176,1,80,0|8
304,96,171037,6,0,B|376:64|472:64,4,160,4|8|4|8|4
432,192,172877,5,0
384,256,173061,2,0,B|304:288|216:256,1,160,8|0
224,184,173613,1,0
160,232,173797,1,8
160,312,173981,2,0,B|72:328|8:248,1,160
72,200,174534,2,0,B|144:168|192:80,1,160,8|0
104,80,175086,1,8
104,80,175270,1,8
216,40,175454,6,0,B|384:40,1,160,4|0
464,128,176006,1,8
464,128,176190,2,0,B|304:128,1,160
216,216,176742,1,8
216,216,176926,2,0,B|384:216,1,160,4|0
456,304,177478,1,8
456,304,177662,2,0,B|296:304,1,160,4|8
176,304,178215,1,8
56,304,178399,6,0,B|120:256|136:168,1,160,4|0
72,128,178951,1,8
80,112,179043,1,8
88,96,179135,1,8
168,96,179319,1,8
176,80,179411,1,8
184,64,179503,1,8
264,56,179687,1,8
272,40,179779,1,8
280,24,179871,6,8,B|368:40|408:112,1,160,12|8
328,128,180423,1,8
288,200,180607,2,0,B|327:271|415:287,1,160,12|8
488,256,181159,1,8
424,208,181343,1,0
444,132,181527,6,0,B|384:104|328:128,1,119.999996423721,4|0
272,176,182080,1,0
200,160,182264,1,8
168,96,182448,2,0,B|136:80|88:80,1,59.9999982118607
48,112,182816,1,0
120,240,183184,6,0,B|112:272|88:296,1,59.9999982118607,0|2
192,256,183552,2,0,B|200:288|192:320,1,59.9999982118607,0|10
264,240,183920,1,0
328,200,184104,1,2
368,136,184288,1,0
392,64,184472,6,0,B|408:32|408:32|440:64|488:56,2,119.999996423721,2|0|8
504,160,185576,2,0,B|516:192|504:224,1,59.9999982118607
424,192,185945,1,0
392,112,186129,2,0,B|456:104,1,59.9999982118607,0|2
424,192,186497,2,0,B|360:200,1,59.9999982118607,0|10
296,208,186865,1,0
224,216,187049,1,2
152,224,187233,1,0
80,232,187417,6,0,B|92:280|132:292|132:292|112:328,2,119.999996423721,4|0|8
16,104,188521,1,0
88,88,188705,2,0,B|120:72|136:40,1,59.9999982118607
128,152,189073,2,0,B|160:152|192:128,1,59.9999982118607,0|2
152,224,189442,2,0,B|184:240|224:232,1,59.9999982118607,0|10
80,272,189810,5,0
168,312,189994,1,8
264,296,190178,2,0,B|352:288|416:224,1,160,4|0
440,112,190730,2,0,B|352:120|288:184,1,160,8|0
284,192,191190,1,8
276,208,191282,1,0
264,296,191466,1,8
192,184,191650,6,0,B|112:184|56:256,1,160,4|0
16,376,192202,2,0,B|96:376|152:304,1,160,8|0
164,288,192662,1,0
172,272,192754,1,0
172,256,192846,1,0
168,240,192938,1,8
64,168,193122,6,0,B|136:120|232:152,1,160,4|0
304,248,193675,1,8
304,248,193859,2,0,B|376:296|472:264,1,160,4|8
400,120,194595,5,12
400,120,194963,1,12
280,168,195147,1,12
184,80,195331,1,12
184,104,201957,6,0,B|335:150|351:310,1,280
326,104,203429,2,0,B|175:150|159:310,1,280
96,336,204902,6,0,B|96:256,1,80,4|0
96,256,205454,5,8
40,152,205638,1,8
40,152,205822,1,8
96,48,206006,1,8
96,48,206190,1,8
152,152,206374,2,0,B|200:112|264:104,1,120,8|0
280,104,206742,1,8
360,104,206926,1,0
320,176,207110,2,0,B|259:183|211:223,1,120,8|0
200,232,207478,1,8
280,256,207662,5,8
280,256,207754,1,0
280,256,207846,2,0,B|312:280|360:264,1,80,10|0
248,304,208215,2,0,B|224:336|240:384,1,80,0|10
200,264,208583,2,0,B|168:240|120:256,1,80,8|0
123,254,208951,1,0
56,160,209135,5,10
136,176,209319,2,0,B|136:80|24:72,1,160,8|0
36,73,209871,1,10
152,32,210055,1,8
264,72,210239,1,0
192,104,210423,5,0
192,104,210607,1,10
184,184,210791,2,0,B|272:168|328:112,1,160,0|8
336,104,211251,1,0
344,96,211343,1,10
424,120,211527,1,0
432,136,211619,1,0
440,152,211711,1,10
360,176,211896,5,8
360,176,212080,1,10
416,232,212264,2,0,B|376:304|272:304,1,160,8|0
272,224,212816,2,0,B|192:184|96:208,1,160,10|0
116,203,213368,1,8
392,344,213736,6,0,B|424:280|424:176,1,160,4|0
488,136,214288,2,0,B|424:104|320:104,1,160,10|0
332,104,214840,1,0
272,160,215024,2,8,B|248:120|256:72,1,80,10|8
128,184,215576,6,0,B|176:168|216:192,2,80,0|10|8
96,112,216129,2,0,B|64:136|48:176,1,80,0|0
72,248,216497,1,10
104,320,216681,6,0,B|160:256|256:248,1,160
248,328,217233,2,0,B|331:321|387:257,1,160,10|0
440,152,217785,5,10
312,88,217969,1,10
184,152,218153,2,0,B|96:152,1,80,8|0
224,232,218521,5,10
360,184,218705,1,10
336,328,218889,2,0,B|328:288|312:248,1,80,8|0
256,104,219257,5,10
104,48,219442,1,10
40,192,219626,2,8,B|56:272|136:328,3,160,12|8|8|8
127,321,220914,1,10
200,176,221098,1,12
488,40,221466,5,0
488,40,221558,1,0
488,40,221650,2,0,B|456:64|448:120,1,80,8|0
456,192,222018,1,0
360,320,222202,5,2
144,80,222570,1,2
456,192,222938,5,8
432,208,223030,1,8
400,216,223122,1,8
368,208,223215,1,8
344,192,223307,1,8
320,176,223399,1,8
288,160,223491,1,8
256,152,223583,1,8
224,160,223675,1,8
200,176,223767,1,8
184,200,223859,6,0,B|164:252|92:272|40:232,2,160,12|4|8
108,176,224779,2,2,B|96:240|140:288|208:280,1,160
276,280,225331,1,8
348,240,225515,2,2,B|408:228|460:272|464:332,1,160
304,316,226067,6,0,B|256:280|252:196|316:156,1,160,8|2
312,168,226527,1,8
332,164,226619,2,0,B|356:120|336:68,1,80,0|10
192,64,226988,1,0
192,64,227172,2,0,B|152:100|144:168|168:224,1,160,4|8
84,344,227724,2,0,B|108:296|84:236,1,80,2|0
80,248,228000,1,8
68,232,228092,6,0,B|16:168,1,80,2|8
136,188,228460,2,0,B|244:312,1,160,4|2
312,344,229012,2,0,B|368:348|416:296|400:232,1,160,8|2
396,220,229472,1,8
388,200,229564,2,0,B|368:152|396:100,1,80,0|10
448,20,229932,1,0
308,80,230116,6,0,B|276:108|232:104|232:104|188:108|164:141,1,160,4|8
160,292,230669,2,2,B|192:264|236:268|236:268|280:264|303:230,1,160
236,184,231221,1,8
340,296,231405,2,0,B|388:264|400:196|372:144,1,160,4|2
364,136,231865,1,0
348,120,231957,2,0,B|284:144|224:120|188:48,1,160,8|2
188,76,232417,1,8
168,76,232509,6,0,B|84:128,1,80,2|8
24,248,232877,2,0,B|108:196,1,80,0|6
172,188,233245,2,0,B|224:192|256:240,1,80,0|8
364,312,233613,2,0,B|312:308|276:252,1,80,2|0
256,128,233981,1,8
372,104,234165,1,8
228,56,234349,6,0,B|152:48|104:120|136:184,1,179.999994635582,6|12
376,304,235454,5,6
136,304,235822,1,6
256,192,235914,12,0,238675
