osu file format v12

[General]
AudioFilename: ELISA - Suba ni Iru yo TV Size.mp3
AudioLeadIn: 1500
PreviewTime: 51095
Countdown: 0
SampleSet: Soft
StackLeniency: 0.7
Mode: 0
LetterboxInBreaks: 0

[Editor]
DistanceSpacing: 0.8
BeatDivisor: 4
GridSize: 4

[Metadata]
Title:Soba ni Iru yo (TV Size)
TitleUnicode:そばにいるよ (TV Size)
Artist:ELISA
ArtistUnicode:ELISA
Creator:xChippy
Version:Insane
Source:Kakumeiki Valvrave
Tags:The Liberator ending 革命機ヴァルヴレイヴ Sunrise jonathanlfj Oyatsu
BeatmapID:271150
BeatmapSetID:102681

[Difficulty]
HPDrainRate:7
CircleSize:4
OverallDifficulty:7
ApproachRate:8
SliderMultiplier:1.6
SliderTickRate:2

[Events]
//Background and Video events
0,0,"BG.jpg",0,0
Video,500,"video.avi"
//Break Periods
//Storyboard Layer 0 (Background)
//Storyboard Layer 1 (Fail)
//Storyboard Layer 2 (Pass)
//Storyboard Layer 3 (Foreground)
//Storyboard Sound Samples
//Background Colour Transformations
3,100,163,162,255

[TimingPoints]
895,427.213499946598,4,2,0,30,1,0
7730,-100,4,2,0,70,0,0
14565,-100,4,1,0,50,0,0
18197,-100,4,2,0,50,0,0
23216,-200,4,2,0,50,0,0
30693,-200,4,2,4,50,0,0
30906,-200,4,2,0,50,0,0
38489,-133.333333333333,4,2,0,50,0,0
52160,-83.3333333333333,4,2,2,70,0,1
62413,-66.6666666666667,4,2,2,70,0,1
65297,-83.3333333333333,4,2,2,70,0,1
70958,-66.6666666666667,4,2,2,70,0,1
72453,-83.3333333333333,4,2,2,70,0,1
73521,-83.3333333333333,4,2,2,70,0,1
75123,-100,4,2,2,50,0,1
76084,-133.333333333333,4,2,0,50,0,0
82924,-100,4,2,0,50,0,0
86337,-100,4,2,0,40,0,0
86764,-100,4,2,0,30,0,0
87192,-100,4,2,0,20,0,0
87619,-100,4,2,0,10,0,0
88046,-100,4,2,0,5,0,0

[Colours]
Combo1 : 0,64,128
Combo2 : 128,0,0
Combo3 : 128,0,128

[HitObjects]
119,297,895,1,4,0:0:0:0:
64,146,1322,1,0,0:0:0:0:
214,91,1749,1,0,0:0:0:0:
269,242,2176,1,0,0:0:0:0:
146,139,2603,6,0,P|167:182|200:194,1,80,2|0,0:0|0:0,0:0:0:0:
234,200,2924,1,0,0:0:0:0:
272,209,3031,2,0,L|362:220,1,80
430,234,3458,1,0,0:0:0:0:
178,271,3885,1,0,0:0:0:0:
363,218,4312,5,2,0:0:0:0:
225,85,4739,1,0,0:0:0:0:
337,300,5167,1,0,0:0:0:0:
147,273,5594,1,0,0:0:0:0:
174,83,6021,5,2,0:0:0:0:
364,110,6448,1,0,0:0:0:0:
251,223,6875,2,0,L|272:58,1,160
475,49,7516,1,0,0:0:0:0:
467,88,7623,1,0,0:0:0:0:
455,126,7730,6,0,P|399:144|297:124,1,160,2|0,0:0|2:0,0:0:0:0:
139,107,8584,2,0,L|57:135,1,80,0|0,0:0|0:0,0:0:0:0:
212,164,9012,2,0,L|182:239,1,80,0|0,0:0|0:0,0:0:0:0:
163,274,9332,1,0,0:0:0:0:
174,312,9439,6,0,P|218:327|337:303,1,160,2|0,0:0|0:0,0:0:0:0:
304,147,10293,2,0,L|273:221,1,80,0|0,0:0|0:0,0:0:0:0:
359,275,10720,2,0,L|423:226,1,80,0|0,0:0|0:0,0:0:0:0:
450,198,11041,1,0,0:0:0:0:
459,158,11148,6,0,P|480:80|420:33,1,160,2|0,0:0|0:0,0:0:0:0:
269,68,12002,2,0,P|248:146|308:193,1,160,2|0,0:0|0:0,0:0:0:0:
256,192,12856,12,4,14565,0:0:0:0:
57,76,14993,6,0,P|41:121|71:192,1,120
135,239,15420,2,0,P|180:255|260:237,1,120.000004577637,4|4,0:0|0:0,0:0:0:0:
326,150,16061,1,4,0:0:0:0:
160,36,16274,5,4,0:0:0:0:
160,36,16381,2,0,L|168:148,1,80,0|0,0:0|0:0,0:0:0:0:
247,150,16701,2,0,P|293:154|326:150,1,80,0|0,0:0|0:0,0:0:0:0:
392,271,17129,2,0,L|376:349,1,80,4|0,0:0|0:0,0:0:0:0:
288,343,17449,2,0,P|232:359|172:347,1,120,4|4,0:0|0:0,0:0:0:0:
181,211,17983,6,0,L|246:120,1,80
336,36,18410,1,8,0:0:0:0:
336,36,18517,1,0,0:0:0:0:
336,36,18624,1,0,0:0:0:0:
336,36,18731,1,0,0:0:0:0:
336,36,18837,2,0,L|369:120,1,80,2|0,0:0|0:0,0:0:0:0:
287,197,19265,1,8,0:0:0:0:
504,92,19478,1,0,0:0:0:0:
482,173,19692,6,0,P|419:169|380:183,1,80,2|0,0:0|0:0,0:0:0:0:
365,186,20012,1,0,0:0:0:0:
336,214,20119,2,0,P|309:246|271:270,1,80,8|0,0:0|0:0,0:0:0:0:
248,295,20440,1,0,0:0:0:0:
210,307,20546,2,0,L|130:298,1,80,2|2,0:0|0:0,0:0:0:0:
26,325,20974,2,0,P|30:261|50:229,1,80,8|0,0:0|0:0,0:0:0:0:
79,139,21401,5,4,0:0:0:0:
128,293,21614,1,2,0:0:0:0:
152,200,21828,5,0,0:0:0:0:
174,177,21935,1,0,0:0:0:0:
204,166,22042,1,0,0:0:0:0:
236,166,22148,1,0,0:0:0:0:
266,157,22255,5,0,0:0:0:0:
288,134,22362,1,0,0:0:0:0:
318,123,22469,1,0,0:0:0:0:
350,123,22576,1,0,0:0:0:0:
380,113,22682,5,0,0:0:0:0:
402,90,22789,1,0,0:0:0:0:
432,79,22896,1,0,0:0:0:0:
464,79,23003,1,0,0:0:0:0:
494,87,23110,5,4,0:0:0:0:
256,192,23216,12,4,24818,0:0:0:0:
112,211,25246,6,0,L|76:235,2,40,0|0|2,0:0|0:0|0:0,0:0:0:0:
254,139,26100,2,0,L|290:114,1,40
233,267,26527,6,0,L|257:303,2,40,2|0|0,0:0|0:0|0:0,0:0:0:0:
414,313,27382,2,0,L|393:280,1,40,2|0,0:0|0:0,0:0:0:0:
450,193,27809,1,0,0:0:0:0:
272,352,28236,6,0,L|184:336,1,80,4|0,0:0|0:0,0:0:0:0:
54,344,28877,1,0,0:0:0:0:
54,344,29091,2,0,P|54:295|75:264,1,80,2|0,0:0|0:0,0:0:0:0:
58,172,29731,1,0,0:0:0:0:
178,172,29945,6,0,L|219:152,1,40,2|0,0:0|0:0,0:0:0:0:
319,214,30372,2,0,P|350:242|396:242,1,80,0|8,0:0|0:0,0:0:0:0:
482,115,31227,2,0,L|496:158,1,40
353,79,31654,6,0,P|317:65|276:66,1,80,2|0,0:0|0:0,0:0:0:0:
211,142,32295,1,0,0:0:0:0:
148,66,32508,2,0,P|107:64|71:78,1,80,2|0,0:0|0:0,0:0:0:0:
87,186,33149,1,0,0:0:0:0:
71,293,33363,6,0,P|107:307|148:305,1,80,2|0,0:0|0:0,0:0:0:0:
209,225,34004,1,0,0:0:0:0:
292,336,34217,2,0,P|303:297|294:255,1,80,2|0,0:0|0:0,0:0:0:0:
406,239,35072,6,0,P|448:229|480:189,1,80,2|0,0:0|0:0,0:0:0:0:
393,87,35712,1,0,0:0:0:0:
302,159,35926,2,0,L|212:153,1,80,2|0,0:0|0:0,0:0:0:0:
95,139,36567,1,0,0:0:0:0:
51,292,36780,1,4,0:0:0:0:
51,292,37208,5,0,0:0:0:0:
208,264,37421,1,0,3:0:0:0:
208,264,37528,1,0,0:0:0:0:
208,264,37635,1,0,3:0:0:0:
71,210,37848,1,0,0:0:0:0:
44,65,38062,1,8,0:0:0:0:
44,65,38489,5,4,0:0:0:0:
99,164,38703,1,0,0:0:0:0:
208,131,38917,1,0,0:0:0:0:
248,25,39130,1,0,0:0:0:0:
332,144,39344,2,0,P|343:84|325:10,1,120.000004577637,8|0,0:0|0:0,0:0:0:0:
218,124,39985,1,0,0:0:0:0:
206,151,40091,1,0,0:0:0:0:
195,179,40198,6,0,L|166:257,1,60.0000022888184,0|0,3:0|0:0,0:0:0:0:
285,320,40625,1,0,0:0:0:0:
374,248,40839,1,0,0:0:0:0:
449,158,41053,2,0,P|404:142|324:147,1,120.000004577637,2|0,0:0|0:0,0:0:0:0:
269,213,41693,1,0,0:0:0:0:
179,355,41907,6,0,P|168:294|186:220,1,120.000004577637
285,291,42548,1,0,0:0:0:0:
313,161,42761,2,0,P|281:155|243:166,1,60.0000022888184,8|0,0:0|0:0,0:0:0:0:
202,61,43189,1,0,0:0:0:0:
103,129,43402,1,0,0:0:0:0:
91,156,43509,1,0,0:0:0:0:
78,183,43616,5,0,0:0:0:0:
78,378,43829,1,0,0:0:0:0:
192,220,44043,1,0,0:0:0:0:
8,280,44257,1,0,0:0:0:0:
192,340,44470,2,0,P|248:346|313:339,1,120.000004577637,2|0,0:0|0:0,0:0:0:0:
340,241,45111,1,0,0:0:0:0:
429,361,45325,6,4,P|440:301|422:227,1,120.000004577637,4|0,0:0|0:0,0:0:0:0:
374,120,45966,1,0,0:0:0:0:
262,76,46179,2,0,P|251:133|262:193,1,120.000004577637,8|0,0:0|0:0,0:0:0:0:
413,203,46820,1,0,0:0:0:0:
413,203,46927,1,0,0:0:0:0:
413,203,47034,5,0,0:0:0:0:
387,304,47247,2,0,L|358:382,1,60.0000022888184
253,321,47674,1,0,0:0:0:0:
265,293,47781,1,0,0:0:0:0:
277,265,47888,2,0,L|306:187,1,60.0000022888184,2|0,0:0|0:0,0:0:0:0:
323,384,48315,1,0,0:0:0:0:
416,319,48529,1,0,0:0:0:0:
454,212,48742,2,0,P|473:180|477:144,1,60.0000022888184,4|0,0:0|0:0,0:0:0:0:
430,88,49170,5,0,0:0:0:0:
401,73,49276,1,0,0:0:0:0:
369,73,49383,1,0,0:0:0:0:
339,84,49490,1,0,0:0:0:0:
308,86,49597,5,0,0:0:0:0:
279,72,49704,1,0,0:0:0:0:
247,72,49810,1,0,0:0:0:0:
217,83,49917,1,0,0:0:0:0:
188,91,50024,5,0,0:0:0:0:
160,77,50131,1,0,0:0:0:0:
128,77,50238,1,0,0:0:0:0:
98,88,50344,1,0,0:0:0:0:
69,79,50451,5,4,0:0:0:0:
256,192,50558,12,4,51733,0:0:0:0:
139,310,52160,5,4,0:0:0:0:
27,189,52374,1,0,0:0:0:0:
46,283,52587,1,8,0:0:0:0:
95,120,52801,2,0,P|134:85|193:75,1,95.9999970703126
106,211,53228,2,0,P|156:195|213:211,1,95.9999970703126,0|8,0:0|0:0,0:0:0:0:
231,292,53655,1,0,0:0:0:0:
401,266,53869,5,2,0:0:0:0:
323,321,54083,1,0,0:0:0:0:
497,270,54296,1,8,0:0:0:0:
438,138,54510,2,0,L|350:94,1,95.9999970703126,0|2,0:0|0:0,0:0:0:0:
320,80,54830,1,0,2:3:0:0:
284,64,54937,1,0,2:3:0:0:
187,67,55151,1,8,0:0:0:0:
107,196,55364,6,0,L|92:290,1,95.9999970703126,0|2,0:0|0:0,0:0:0:0:
24,358,55791,1,0,0:0:0:0:
188,291,56005,1,8,0:0:0:0:
92,291,56219,1,0,2:3:0:0:
255,358,56432,2,0,L|344:322,1,95.9999970703126
428,355,56859,1,8,0:0:0:0:
257,275,57073,1,0,0:0:0:0:
452,242,57287,6,0,P|353:202|281:127,1,191.999994140625,4|0,0:0|0:0,0:0:0:0:
61,242,57928,2,0,P|160:202|232:127,1,191.999994140625,4|0,0:0|0:0,0:0:0:0:
255,55,58568,1,0,0:0:0:0:
256,236,58782,1,4,0:0:0:0:
426,159,58996,6,0,P|461:198|471:239,1,95.9999970703126,2|0,0:0|0:0,0:0:0:0:
375,239,59423,2,0,P|390:289|374:346,1,95.9999970703126,8|0,0:0|0:0,0:0:0:0:
296,290,59850,1,0,0:0:0:0:
426,159,60064,1,0,0:0:0:0:
480,320,60277,2,0,L|498:219,1,95.9999970703126,8|0,0:0|0:0,0:0:0:0:
390,75,60704,6,0,P|281:54|185:73,1,191.999994140625,2|8,0:0|0:0,0:0:0:0:
110,36,61345,2,0,L|82:148,1,95.9999970703126
70,254,61772,1,0,0:0:0:0:
188,200,61986,1,8,0:0:0:0:
183,324,62200,1,0,0:0:0:0:
405,286,62413,6,0,P|329:334|166:315,1,240.000009155274,4|0,0:0|0:0,0:0:0:0:
141,150,63054,2,0,P|217:102|380:121,1,240.000009155274,4|0,0:0|0:0,0:0:0:0:
429,211,63695,1,8,0:0:0:0:
381,321,63908,1,0,0:0:0:0:
189,334,64122,6,0,P|223:214|173:92,1,240.000009155274,4|0,0:0|0:0,0:0:0:0:
45,220,64763,2,0,L|337:220,1,240.000009155274,4|0,0:0|0:0,0:0:0:0:
323,220,65297,1,0,0:0:0:0:
360,212,65404,1,8,0:0:0:0:
394,194,65511,1,0,0:0:0:0:
420,167,65617,1,0,0:0:0:0:
429,129,65724,1,0,0:0:0:0:
429,90,65831,6,0,P|367:58|220:80,1,191.999994140625,4|8,0:0|0:0,0:0:0:0:
196,146,66472,2,0,P|211:196|195:253,1,95.9999970703126,0|0,0:0|0:0,0:0:0:0:
95,334,66899,2,0,P|79:283|95:226,1,95.9999970703126,0|8,0:0|0:0,0:0:0:0:
203,238,67326,1,0,0:0:0:0:
370,332,67540,5,2,0:0:0:0:
268,312,67753,1,0,0:0:0:0:
459,297,67967,1,8,0:0:0:0:
380,174,68181,2,0,P|397:125|365:85,1,95.9999970703126
326,90,68501,1,0,2:3:0:0:
284,114,68608,1,0,2:3:0:0:
203,41,68821,1,8,0:0:0:0:
86,141,69035,6,0,L|102:244,1,95.9999970703126,0|2,0:0|0:0,0:0:0:0:
141,322,69462,1,0,0:0:0:0:
208,254,69676,1,8,0:0:0:0:
385,197,69889,1,0,0:0:0:0:
275,348,70103,1,0,0:0:0:0:
275,161,70317,1,0,0:0:0:0:
385,312,70530,1,8,0:0:0:0:
208,254,70744,1,0,0:0:0:0:
23,200,70958,6,0,P|69:123|211:80,1,240.000009155274,4|0,0:0|0:0,0:0:0:0:
351,62,71598,1,4,1:0:0:0:
161,322,72026,1,4,1:0:0:0:
395,276,72453,1,4,1:0:0:0:
144,244,72880,1,0,0:0:0:0:
272,332,73094,1,8,0:0:0:0:
144,244,73307,1,0,0:0:0:0:
256,116,73521,6,0,P|256:60|304:16,1,95.9999970703126,8|0,0:0|0:0,0:0:0:0:
332,192,73948,2,0,P|388:192|432:240,1,95.9999970703126,8|0,0:0|0:0,0:0:0:0:
256,268,74375,2,0,P|256:324|208:368,1,95.9999970703126,8|0,0:0|0:0,0:0:0:0:
180,192,74802,2,0,P|124:192|80:144,1,95.9999970703126,8|0,0:0|0:0,0:0:0:0:
65,153,75123,5,0,0:0:0:0:
40,135,75230,1,8,0:0:0:0:
20,109,75336,1,0,0:0:0:0:
16,78,75443,1,0,0:0:0:0:
27,50,75550,1,0,0:0:0:0:
52,30,75657,1,8,0:0:0:0:
83,27,75764,1,0,0:0:0:0:
112,40,75870,1,0,0:0:0:0:
136,61,75977,1,0,0:0:0:0:
144,88,76084,5,4,0:0:0:0:
256,192,76191,12,0,77793,0:0:0:0:
92,92,78220,5,0,0:0:0:0:
198,71,78647,2,0,P|257:54|324:80,1,120.000004577637
339,82,79181,1,0,0:0:0:0:
364,97,79288,1,0,0:0:0:0:
379,122,79395,1,0,0:0:0:0:
388,150,79502,6,0,P|410:205|387:266,1,120.000004577637
353,303,80143,1,0,0:0:0:0:
299,328,80356,2,0,P|266:322|228:333,1,60.0000022888184
180,329,80783,1,0,0:0:0:0:
130,295,80997,2,0,L|106:239,1,60.0000022888184
106,123,81424,5,0,3:0:0:0:
208,184,81638,1,0,0:0:0:0:
106,241,81851,1,0,3:0:0:0:
208,72,82065,1,0,3:0:0:0:
208,312,82279,1,0,3:0:0:0:
0,192,82492,1,0,3:0:0:0:
0,192,82919,5,4,0:0:0:0:
256,192,83026,12,0,84201,0:0:0:0:
339,65,84628,5,2,0:0:0:0:
331,96,84735,1,0,0:0:0:0:
323,128,84842,1,0,0:0:0:0:
313,158,84949,1,0,0:0:0:0:
303,189,85056,1,2,0:0:0:0:
292,219,85162,1,0,0:0:0:0:
282,249,85269,1,0,0:0:0:0:
272,279,85376,1,0,0:0:0:0:
249,301,85483,5,2,0:0:0:0:
226,278,85590,1,0,0:0:0:0:
218,246,85696,1,0,0:0:0:0:
208,216,85803,1,0,0:0:0:0:
198,185,85910,1,2,0:0:0:0:
187,155,86017,1,0,0:0:0:0:
177,125,86124,1,0,0:0:0:0:
167,95,86230,1,0,0:0:0:0:
156,64,86337,1,4,0:0:0:0:
256,192,86444,12,0,88046,0:0:0:0:
