osu file format v14

[General]
AudioFilename: real force.mp3
AudioLeadIn: 0
PreviewTime: 49854
Countdown: 0
SampleSet: Soft
StackLeniency: 0.7
Mode: 3
LetterboxInBreaks: 0
SpecialStyle: 0
WidescreenStoryboard: 0

[Editor]
DistanceSpacing: 1.1
BeatDivisor: 4
GridSize: 4
TimelineZoom: 1.4

[Metadata]
Title:Real Force (TV Size)
TitleUnicode:Real Force (TV Size)
Artist:ELISA
ArtistUnicode:ELISA
Creator:Zylin
Version:Hard
Source:とある科学の超電磁砲
Tags:to aru kagaku no a certain scientific リアルフォース ending railgun ed 2 reyzra
BeatmapID:1207130
BeatmapSetID:569459

[Difficulty]
HPDrainRate:8
CircleSize:4
OverallDifficulty:8
ApproachRate:5
SliderMultiplier:1.4
SliderTickRate:1

[Events]
//Background and Video events
0,0,"bg2.JPEG",0,0
Video,0,"video.avi"
//Break Periods
//Storyboard Layer 0 (Background)
//Storyboard Layer 1 (Fail)
//Storyboard Layer 2 (Pass)
//Storyboard Layer 3 (Foreground)
//Storyboard Sound Samples
Sample,6997,0,"soft-hitnormal.wav",0
Sample,16461,0,"soft-hitwhistle.wav",0
Sample,16818,0,"soft-hitwhistle.wav",0
Sample,16997,0,"soft-hitwhistle.wav",0
Sample,17354,0,"soft-hitwhistle.wav",0
Sample,17889,0,"soft-hitwhistle.wav",0
Sample,18247,0,"soft-hitwhistle.wav",0
Sample,18425,0,"soft-hitwhistle.wav",0
Sample,18782,0,"soft-hitwhistle.wav",0
Sample,19318,0,"soft-hitwhistle.wav",0
Sample,19675,0,"soft-hitwhistle.wav",0
Sample,19854,0,"soft-hitwhistle.wav",0
Sample,20211,0,"soft-hitwhistle.wav",0
Sample,20389,0,"soft-hitwhistle.wav",0
Sample,20747,0,"soft-hitwhistle.wav",0
Sample,21104,0,"soft-hitwhistle.wav",0
Sample,21282,0,"soft-hitwhistle.wav",0
Sample,21639,0,"soft-hitwhistle.wav",0
Sample,21818,0,"soft-hitwhistle.wav",0
Sample,22175,0,"soft-hitwhistle.wav",0
Sample,22532,0,"soft-hitwhistle.wav",0
Sample,22711,0,"soft-hitwhistle.wav",0
Sample,23068,0,"soft-hitwhistle.wav",0
Sample,23604,0,"soft-hitwhistle.wav",0
Sample,24139,0,"soft-hitwhistle.wav",0
Sample,24318,0,"soft-hitwhistle.wav",0
Sample,24675,0,"soft-hitwhistle.wav",0
Sample,25032,0,"soft-hitwhistle.wav",0
Sample,25389,0,"soft-hitwhistle.wav",0
Sample,25568,0,"soft-hitwhistle.wav",0
Sample,25925,0,"soft-hitnormal.wav",0
Sample,47532,0,"soft-hitfinish.wav",0
Sample,51461,0,"soft-hitnormal.wav",0
Sample,52889,0,"soft-hitnormal.wav",0
Sample,54675,0,"soft-hitnormal.wav",0
Sample,55747,0,"soft-hitfinish.wav",0
Sample,60211,0,"soft-hitnormal.wav",0
Sample,71997,0,"soft-hitnormal.wav",0
Sample,72175,0,"soft-hitfinish.wav",0
Sample,73782,0,"soft-hitnormal.wav",0
Sample,75389,0,"soft-hitnormal.wav",0
Sample,77532,0,"soft-hitnormal.wav",0

[TimingPoints]
383,357.142857142857,4,2,1,35,1,0
1282,-100,4,2,0,35,0,0
1811,-100,4,2,1,35,0,0
2347,-100,4,2,0,35,0,0
5561,-100,4,2,1,35,0,0
16097,-100,4,2,0,35,0,0
26097,-100,4,2,1,35,0,0
50382,-100,4,2,1,45,0,1
60204,-100,4,2,1,45,0,0
61811,-100,4,2,1,45,0,1
70382,-100,4,2,1,45,0,0
73061,-100,4,2,1,45,0,1
76007,-100,4,2,1,45,0,1
76097,-100,4,2,1,35,0,0

[HitObjects]
64,192,1275,128,2,1811:0:0:0:0:
320,192,1811,1,2,0:0:0:0:
448,192,1811,128,4,2347:0:0:0:0:
192,192,2347,128,2,2882:0:0:0:0:
64,192,2882,128,2,3240:0:0:0:0:
448,192,3240,128,2,3775:0:0:0:0:
192,192,3775,128,2,4311:0:0:0:0:
64,192,4311,128,2,4668:0:0:0:0:
448,192,4668,128,2,5561:0:0:0:0:
320,192,5561,1,0,0:0:0:0:
192,192,5740,1,0,0:0:0:0:
320,192,5918,1,4,0:0:0:0:
64,192,5918,1,8,0:0:0:0:
448,192,5918,1,0,0:0:0:0:
192,192,6097,1,0,0:0:0:0:
64,192,6275,128,0,6632:0:0:0:0:
192,192,6632,128,0,6990:0:0:0:0:
448,192,6990,128,0,7168:0:0:0:0:
320,192,7168,128,0,7347:0:0:0:0:
192,192,7347,128,0,7525:0:0:0:0:
64,192,7525,128,2,8954:0:0:0:0:
192,192,7704,1,0,0:0:0:0:
448,192,7882,1,8,0:0:0:0:
320,192,7882,1,0,0:0:0:0:
448,192,8061,1,0,0:0:0:0:
192,192,8240,1,0,0:0:0:0:
320,192,8240,1,2,0:0:0:0:
192,192,8418,1,0,0:0:0:0:
448,192,8597,1,8,0:0:0:0:
320,192,8597,1,0,0:0:0:0:
192,192,8775,1,0,0:0:0:0:
320,192,8865,1,0,0:0:0:0:
448,192,8954,128,2,10025:0:0:0:0:
192,192,9132,1,0,0:0:0:0:
320,192,9311,1,8,0:0:0:0:
192,192,9311,1,0,0:0:0:0:
64,192,9490,1,0,0:0:0:0:
192,192,9668,1,2,0:0:0:0:
320,192,9847,1,0,0:0:0:0:
192,192,10025,1,8,0:0:0:0:
64,192,10025,1,0,0:0:0:0:
320,192,10204,1,0,0:0:0:0:
192,192,10382,1,6,0:0:0:0:
448,192,10382,1,0,0:0:0:0:
64,192,10382,1,0,0:0:0:0:
64,192,10561,1,0,0:0:0:0:
448,192,10740,1,8,0:0:0:0:
320,192,10740,1,0,0:0:0:0:
192,192,10918,1,0,0:0:0:0:
320,192,11097,1,2,0:0:0:0:
64,192,11275,1,0,0:0:0:0:
448,192,11454,1,8,0:0:0:0:
192,192,11454,1,0,0:0:0:0:
320,192,11632,1,0,0:0:0:0:
192,192,11811,1,2,0:0:0:0:
64,192,11811,1,0,0:0:0:0:
448,192,11990,1,0,0:0:0:0:
320,192,12168,1,8,0:0:0:0:
64,192,12168,1,0,0:0:0:0:
192,192,12347,1,0,0:0:0:0:
448,192,12525,1,2,0:0:0:0:
64,192,12704,1,0,0:0:0:0:
448,192,12882,1,8,0:0:0:0:
320,192,12882,1,0,0:0:0:0:
192,192,13061,1,0,0:0:0:0:
320,192,13240,1,2,0:0:0:0:
64,192,13240,1,0,0:0:0:0:
448,192,13418,1,0,0:0:0:0:
192,192,13597,1,8,0:0:0:0:
64,192,13597,1,0,0:0:0:0:
448,192,13775,1,0,0:0:0:0:
320,192,13954,1,2,0:0:0:0:
64,192,14132,1,0,0:0:0:0:
192,192,14311,1,8,0:0:0:0:
448,192,14490,1,2,0:0:0:0:
320,192,14490,1,4,0:0:0:0:
64,192,14490,1,0,0:0:0:0:
192,192,14847,1,2,0:0:0:0:
320,192,14847,1,4,0:0:0:0:
448,192,14847,1,0,0:0:0:0:
320,192,15204,1,4,0:0:0:0:
192,192,15204,1,2,0:0:0:0:
64,192,15204,1,0,0:0:0:0:
320,192,15561,1,8,0:0:0:0:
448,192,15561,1,0,0:0:0:0:
64,192,15740,1,8,0:0:0:0:
192,192,15740,1,0,0:0:0:0:
448,192,15918,1,8,0:0:0:0:
320,192,15918,1,0,0:0:0:0:
192,192,16097,1,4,0:0:0:0:
64,192,16097,128,0,17525:0:0:0:0:
448,192,16454,1,2,0:0:0:0:
320,192,16811,1,2,0:0:0:0:
448,192,16990,1,2,0:0:0:0:
192,192,17347,1,2,0:0:0:0:
448,192,17525,128,2,18954:0:0:0:0:
192,192,17882,1,2,0:0:0:0:
64,192,18061,128,2,18597:0:0:0:0:
320,192,18418,1,2,0:0:0:0:
192,192,18597,128,2,18954:0:0:0:0:
64,192,18954,128,2,19668:0:0:0:0:
448,192,19311,1,2,0:0:0:0:
320,192,19668,128,2,20382:0:0:0:0:
192,192,19847,1,2,0:0:0:0:
192,192,20382,128,2,21811:0:0:0:0:
64,192,20740,1,2,0:0:0:0:
448,192,20918,128,2,21454:0:0:0:0:
320,192,21097,1,2,0:0:0:0:
64,192,21275,1,2,0:0:0:0:
320,192,21454,128,2,21811:0:0:0:0:
64,192,21811,128,2,23954:0:0:0:0:
192,192,22168,1,2,0:0:0:0:
448,192,22525,1,2,0:0:0:0:
320,192,22704,1,2,0:0:0:0:
192,192,23061,1,2,0:0:0:0:
320,192,23597,1,2,0:0:0:0:
192,192,23954,128,2,24311:0:0:0:0:
320,192,24311,128,2,24668:0:0:0:0:
64,192,24668,1,2,0:0:0:0:
448,192,24668,128,2,26097:0:0:0:0:
192,192,25025,1,2,0:0:0:0:
320,192,25382,1,2,0:0:0:0:
64,192,25561,1,2,0:0:0:0:
192,192,25918,1,2,0:0:0:0:
64,192,26097,1,4,0:0:0:0:
320,192,26097,1,2,0:0:0:0:
448,192,26632,1,2,0:0:0:0:
192,192,26632,1,4,0:0:0:0:
320,192,26632,1,0,0:0:0:0:
64,192,26990,1,2,0:0:0:0:
192,192,26990,1,4,0:0:0:0:
448,192,27168,1,0,0:0:0:0:
320,192,27257,1,0,0:0:0:0:
192,192,27347,1,0,0:0:0:0:
64,192,27436,1,0,0:0:0:0:
320,192,27525,1,2,0:0:0:0:
448,192,27525,1,4,0:0:0:0:
64,192,27704,1,0,0:0:0:0:
192,192,27882,1,8,0:0:0:0:
448,192,27882,1,0,0:0:0:0:
320,192,28061,1,0,0:0:0:0:
448,192,28240,128,2,28597:0:0:0:0:
320,192,28597,1,8,0:0:0:0:
64,192,28597,1,0,0:0:0:0:
192,192,28775,1,0,0:0:0:0:
448,192,28954,1,0,0:0:0:0:
64,192,29132,1,0,0:0:0:0:
192,192,29311,1,8,0:0:0:0:
320,192,29311,1,0,0:0:0:0:
64,192,29490,1,0,0:0:0:0:
448,192,29668,128,2,30025:0:0:0:0:
64,192,30025,1,8,0:0:0:0:
320,192,30025,1,0,0:0:0:0:
192,192,30204,1,0,0:0:0:0:
320,192,30382,1,2,0:0:0:0:
64,192,30561,1,0,0:0:0:0:
448,192,30740,1,8,0:0:0:0:
192,192,30740,1,0,0:0:0:0:
320,192,30918,1,0,0:0:0:0:
64,192,31097,128,2,31454:0:0:0:0:
192,192,31454,1,8,0:0:0:0:
448,192,31454,1,0,0:0:0:0:
320,192,31632,1,0,0:0:0:0:
64,192,31811,1,2,0:0:0:0:
192,192,31990,1,0,0:0:0:0:
320,192,32168,1,8,0:0:0:0:
448,192,32168,1,0,0:0:0:0:
64,192,32347,1,0,0:0:0:0:
192,192,32525,128,2,32882:0:0:0:0:
448,192,32882,1,8,0:0:0:0:
64,192,32882,1,0,0:0:0:0:
320,192,33061,1,0,0:0:0:0:
64,192,33240,1,2,0:0:0:0:
192,192,33418,1,0,0:0:0:0:
448,192,33597,1,8,0:0:0:0:
320,192,33597,1,0,0:0:0:0:
64,192,33775,1,0,0:0:0:0:
192,192,33954,128,2,34311:0:0:0:0:
64,192,34311,1,8,0:0:0:0:
320,192,34311,1,0,0:0:0:0:
448,192,34490,1,0,0:0:0:0:
320,192,34668,1,2,0:0:0:0:
64,192,34847,1,0,0:0:0:0:
192,192,35025,1,8,0:0:0:0:
448,192,35025,1,0,0:0:0:0:
320,192,35204,1,0,0:0:0:0:
64,192,35382,128,2,35740:0:0:0:0:
448,192,35740,1,8,0:0:0:0:
320,192,35740,1,0,0:0:0:0:
192,192,35918,1,0,0:0:0:0:
320,192,36097,1,2,0:0:0:0:
64,192,36275,1,0,0:0:0:0:
448,192,36454,1,8,0:0:0:0:
192,192,36454,1,0,0:0:0:0:
320,192,36632,1,0,0:0:0:0:
448,192,36811,128,2,37168:0:0:0:0:
192,192,37168,1,8,0:0:0:0:
64,192,37168,1,0,0:0:0:0:
320,192,37347,1,0,0:0:0:0:
192,192,37525,1,12,0:0:0:0:
448,192,37525,1,2,0:0:0:0:
64,192,37525,1,0,0:0:0:0:
64,192,37882,1,8,0:0:0:0:
192,192,37882,1,0,0:0:0:0:
320,192,38061,1,0,0:0:0:0:
448,192,38061,1,8,0:0:0:0:
64,192,38240,1,2,0:0:0:0:
192,192,38240,1,0,0:0:0:0:
320,192,38329,1,2,0:0:0:0:
448,192,38418,1,8,0:0:0:0:
64,192,38418,1,0,0:0:0:0:
448,192,38597,1,0,0:0:0:0:
320,192,38597,1,2,0:0:0:0:
192,192,38775,1,2,0:0:0:0:
320,192,38954,1,4,0:0:0:0:
448,192,38954,1,2,0:0:0:0:
64,192,38954,1,0,0:0:0:0:
192,192,39132,1,0,0:0:0:0:
64,192,39311,1,8,0:0:0:0:
320,192,39311,1,0,0:0:0:0:
192,192,39490,1,0,0:0:0:0:
320,192,39668,1,2,0:0:0:0:
448,192,39668,1,0,0:0:0:0:
64,192,39847,1,0,0:0:0:0:
192,192,40025,1,8,0:0:0:0:
448,192,40025,1,0,0:0:0:0:
320,192,40204,1,0,0:0:0:0:
192,192,40382,1,2,0:0:0:0:
64,192,40382,1,0,0:0:0:0:
448,192,40561,1,0,0:0:0:0:
320,192,40740,1,8,0:0:0:0:
192,192,40740,1,0,0:0:0:0:
64,192,40918,1,0,0:0:0:0:
448,192,41097,1,2,0:0:0:0:
192,192,41097,1,0,0:0:0:0:
320,192,41275,1,0,0:0:0:0:
192,192,41454,1,8,0:0:0:0:
64,192,41454,1,0,0:0:0:0:
448,192,41632,1,0,0:0:0:0:
192,192,41811,1,2,0:0:0:0:
320,192,41811,1,0,0:0:0:0:
64,192,41990,1,0,0:0:0:0:
448,192,42168,1,8,0:0:0:0:
320,192,42168,1,0,0:0:0:0:
64,192,42347,1,0,0:0:0:0:
192,192,42436,1,0,0:0:0:0:
320,192,42525,1,2,0:0:0:0:
448,192,42525,1,0,0:0:0:0:
192,192,42704,1,0,0:0:0:0:
64,192,42882,1,8,0:0:0:0:
320,192,42882,1,0,0:0:0:0:
448,192,43061,1,0,0:0:0:0:
320,192,43240,1,2,0:0:0:0:
192,192,43240,1,0,0:0:0:0:
64,192,43418,1,0,0:0:0:0:
448,192,43597,1,8,0:0:0:0:
320,192,43597,1,0,0:0:0:0:
192,192,43775,1,0,0:0:0:0:
64,192,43954,1,2,0:0:0:0:
448,192,43954,1,0,0:0:0:0:
320,192,44132,1,0,0:0:0:0:
448,192,44311,1,8,0:0:0:0:
192,192,44311,1,4,0:0:0:0:
64,192,44490,1,0,0:0:0:0:
192,192,44579,1,0,0:0:0:0:
320,192,44668,1,2,0:0:0:0:
448,192,44668,128,0,44847:0:0:0:0:
192,192,45025,1,8,0:0:0:0:
64,192,45025,128,0,45204:0:0:0:0:
320,192,45382,1,2,0:0:0:0:
448,192,45382,128,0,45561:0:0:0:0:
192,192,45740,1,8,0:0:0:0:
64,192,45740,128,0,45918:0:0:0:0:
448,192,46097,1,2,0:0:0:0:
320,192,46097,128,0,46275:0:0:0:0:
192,192,46454,1,8,0:0:0:0:
64,192,46454,128,0,46632:0:0:0:0:
320,192,46811,1,2,0:0:0:0:
448,192,46811,128,0,46990:0:0:0:0:
64,192,47168,128,8,47525:0:0:0:0:
320,192,47525,1,4,0:0:0:0:
448,192,47525,128,2,48240:0:0:0:0:
192,192,47704,1,0,0:0:0:0:
320,192,48061,1,2,0:0:0:0:
192,192,48240,1,8,0:0:0:0:
64,192,48240,128,4,48954:0:0:0:0:
448,192,48954,1,2,0:0:0:0:
320,192,49132,1,0,0:0:0:0:
64,192,49311,1,0,0:0:0:0:
192,192,49490,1,8,0:0:0:0:
448,192,49490,1,0,0:0:0:0:
448,192,49847,128,0,50382:0:0:0:0:
192,192,49847,1,0,0:0:0:0:
320,192,50025,1,0,0:0:0:0:
192,192,50204,1,0,0:0:0:0:
320,192,50293,1,0,0:0:0:0:
64,192,50382,128,6,51811:0:0:0:0:
192,192,50561,1,0,0:0:0:0:
320,192,50740,1,8,0:0:0:0:
448,192,50740,1,0,0:0:0:0:
192,192,50918,1,0,0:0:0:0:
320,192,51097,1,2,0:0:0:0:
448,192,51275,1,0,0:0:0:0:
192,192,51454,1,8,0:0:0:0:
320,192,51454,1,0,0:0:0:0:
448,192,51632,1,0,0:0:0:0:
320,192,51722,1,0,0:0:0:0:
448,192,51811,128,2,52882:0:0:0:0:
64,192,51990,1,0,0:0:0:0:
192,192,52168,1,8,0:0:0:0:
320,192,52168,1,0,0:0:0:0:
64,192,52347,1,0,0:0:0:0:
320,192,52525,1,2,0:0:0:0:
192,192,52704,1,0,0:0:0:0:
64,192,52882,128,8,53240:0:0:0:0:
320,192,52882,1,0,0:0:0:0:
448,192,53061,1,0,0:0:0:0:
320,192,53150,1,0,0:0:0:0:
192,192,53240,1,2,0:0:0:0:
64,192,53418,1,0,0:0:0:0:
448,192,53597,1,8,0:0:0:0:
320,192,53597,1,0,0:0:0:0:
64,192,53775,1,0,0:0:0:0:
192,192,53865,1,0,0:0:0:0:
320,192,53954,1,2,0:0:0:0:
64,192,54132,1,0,0:0:0:0:
192,192,54311,1,8,0:0:0:0:
320,192,54311,1,0,0:0:0:0:
448,192,54490,1,0,0:0:0:0:
320,192,54579,1,0,0:0:0:0:
192,192,54668,1,2,0:0:0:0:
448,192,54847,1,0,0:0:0:0:
64,192,55025,1,8,0:0:0:0:
192,192,55025,1,0,0:0:0:0:
320,192,55204,1,0,0:0:0:0:
64,192,55382,128,2,55561:0:0:0:0:
448,192,55382,1,0,0:0:0:0:
192,192,55561,128,0,55740:0:0:0:0:
320,192,55740,128,0,56097:0:0:0:0:
448,192,56097,128,6,57525:0:0:0:0:
192,192,56275,1,0,0:0:0:0:
320,192,56454,1,8,0:0:0:0:
64,192,56454,1,0,0:0:0:0:
192,192,56632,1,0,0:0:0:0:
320,192,56811,1,2,0:0:0:0:
64,192,56990,1,0,0:0:0:0:
192,192,57168,1,8,0:0:0:0:
320,192,57168,1,0,0:0:0:0:
64,192,57347,1,0,0:0:0:0:
192,192,57436,1,0,0:0:0:0:
64,192,57525,128,2,58954:0:0:0:0:
192,192,57704,1,0,0:0:0:0:
320,192,57882,1,8,0:0:0:0:
448,192,57882,1,0,0:0:0:0:
192,192,58061,1,0,0:0:0:0:
448,192,58240,1,2,0:0:0:0:
320,192,58329,1,0,0:0:0:0:
192,192,58418,1,0,0:0:0:0:
448,192,58507,1,0,0:0:0:0:
320,192,58597,1,8,0:0:0:0:
192,192,58597,1,0,0:0:0:0:
320,192,58775,1,0,0:0:0:0:
448,192,58954,1,2,0:0:0:0:
192,192,58954,1,0,0:0:0:0:
64,192,59132,1,0,0:0:0:0:
320,192,59311,1,8,0:0:0:0:
448,192,59311,1,0,0:0:0:0:
192,192,59490,1,0,0:0:0:0:
64,192,59668,1,2,0:0:0:0:
192,192,59847,1,0,0:0:0:0:
320,192,60025,1,8,0:0:0:0:
64,192,60025,1,0,0:0:0:0:
448,192,60204,1,0,0:0:0:0:
64,192,60382,1,2,0:0:0:0:
320,192,60561,1,8,0:0:0:0:
448,192,60561,1,0,0:0:0:0:
192,192,60650,1,0,0:0:0:0:
64,192,60740,1,8,0:0:0:0:
448,192,60740,1,8,0:0:0:0:
64,192,60918,1,0,0:0:0:0:
192,192,61007,1,0,0:0:0:0:
320,192,61097,1,2,0:0:0:0:
448,192,61097,1,0,0:0:0:0:
448,192,61275,1,0,0:0:0:0:
320,192,61365,1,0,0:0:0:0:
192,192,61454,1,2,0:0:0:0:
64,192,61454,1,0,0:0:0:0:
320,192,61632,1,0,0:0:0:0:
448,192,61811,1,2,0:0:0:0:
64,192,61811,1,4,0:0:0:0:
192,192,61811,1,0,0:0:0:0:
320,192,61990,1,0,0:0:0:0:
64,192,62168,1,8,0:0:0:0:
448,192,62168,1,0,0:0:0:0:
192,192,62347,1,0,0:0:0:0:
320,192,62525,1,2,0:0:0:0:
448,192,62704,128,0,62882:0:0:0:0:
64,192,62882,1,8,0:0:0:0:
192,192,62882,1,0,0:0:0:0:
320,192,63061,1,0,0:0:0:0:
192,192,63150,1,0,0:0:0:0:
448,192,63240,1,2,0:0:0:0:
64,192,63240,1,0,0:0:0:0:
320,192,63418,1,0,0:0:0:0:
64,192,63597,1,8,0:0:0:0:
192,192,63597,1,0,0:0:0:0:
448,192,63775,1,0,0:0:0:0:
320,192,63954,1,2,0:0:0:0:
448,192,64132,128,0,64311:0:0:0:0:
320,192,64311,1,8,0:0:0:0:
64,192,64311,1,0,0:0:0:0:
192,192,64668,1,2,0:0:0:0:
64,192,64847,1,0,0:0:0:0:
448,192,65025,1,8,0:0:0:0:
320,192,65025,1,0,0:0:0:0:
192,192,65204,1,0,0:0:0:0:
448,192,65382,5,2,0:0:0:0:
64,192,65561,128,0,65740:0:0:0:0:
192,192,65740,1,8,0:0:0:0:
320,192,65740,1,0,0:0:0:0:
448,192,66097,1,2,0:0:0:0:
64,192,66275,1,0,0:0:0:0:
192,192,66454,1,8,0:0:0:0:
320,192,66454,1,0,0:0:0:0:
448,192,66632,1,0,0:0:0:0:
64,192,66811,1,2,0:0:0:0:
320,192,66990,1,0,0:0:0:0:
448,192,67168,1,8,0:0:0:0:
320,192,67257,1,0,0:0:0:0:
192,192,67347,1,0,0:0:0:0:
64,192,67436,1,0,0:0:0:0:
320,192,67525,1,2,0:0:0:0:
448,192,67525,1,0,0:0:0:0:
64,192,67704,1,0,0:0:0:0:
320,192,67882,1,8,0:0:0:0:
192,192,67882,1,0,0:0:0:0:
448,192,68061,1,0,0:0:0:0:
192,192,68240,1,2,0:0:0:0:
64,192,68418,1,0,0:0:0:0:
192,192,68597,1,8,0:0:0:0:
320,192,68597,1,0,0:0:0:0:
64,192,68775,1,2,0:0:0:0:
448,192,68775,1,0,0:0:0:0:
320,192,68775,1,0,0:0:0:0:
64,192,69132,1,2,0:0:0:0:
192,192,69132,1,0,0:0:0:0:
448,192,69132,1,0,0:0:0:0:
64,192,69311,1,4,0:0:0:0:
320,192,69311,1,2,0:0:0:0:
448,192,69311,1,0,0:0:0:0:
320,192,70025,1,8,0:0:0:0:
448,192,70025,1,0,0:0:0:0:
192,192,70115,1,0,0:0:0:0:
64,192,70115,1,8,0:0:0:0:
320,192,70204,1,0,0:0:0:0:
448,192,70204,1,8,0:0:0:0:
192,192,70293,1,8,0:0:0:0:
320,192,70382,1,4,0:0:0:0:
448,192,70382,1,2,0:0:0:0:
64,192,70382,1,0,0:0:0:0:
192,192,70561,1,0,0:0:0:0:
448,192,70740,1,8,0:0:0:0:
64,192,70740,1,0,0:0:0:0:
320,192,70918,1,0,0:0:0:0:
64,192,71097,128,2,71275:0:0:0:0:
192,192,71275,128,0,71454:0:0:0:0:
320,192,71454,128,0,71632:0:0:0:0:
448,192,71632,128,0,71990:0:0:0:0:
320,192,71990,128,0,72347:0:0:0:0:
192,192,72168,128,0,72347:0:0:0:0:
64,192,72347,128,0,72882:0:0:0:0:
448,192,72347,1,0,0:0:0:0:
192,192,72525,1,8,0:0:0:0:
320,192,72704,1,0,0:0:0:0:
448,192,72882,1,2,0:0:0:0:
192,192,72882,1,0,0:0:0:0:
64,192,73061,1,8,0:0:0:0:
192,192,73150,1,8,0:0:0:0:
320,192,73240,1,2,0:0:0:0:
448,192,73240,1,0,0:0:0:0:
192,192,73418,1,8,0:0:0:0:
64,192,73597,1,2,0:0:0:0:
320,192,73597,1,0,0:0:0:0:
448,192,73775,1,0,0:0:0:0:
320,192,73865,1,0,0:0:0:0:
64,192,73954,1,0,0:0:0:0:
192,192,74043,1,0,0:0:0:0:
320,192,74132,1,0,0:0:0:0:
448,192,74132,128,0,74490:0:0:0:0:
64,192,74311,128,0,74490:0:0:0:0:
192,192,74490,1,2,0:0:0:0:
320,192,74490,1,0,0:0:0:0:
320,192,74847,1,2,0:0:0:0:
64,192,74847,1,0,0:0:0:0:
448,192,74847,1,0,0:0:0:0:
64,192,75025,1,4,0:0:0:0:
192,192,75025,1,2,0:0:0:0:
448,192,75025,1,0,0:0:0:0:
64,192,75382,128,0,76097:0:0:0:0:
448,192,76097,128,2,77525:0:0:0:0:
320,192,76097,1,4,0:0:0:0:
192,192,76275,1,0,0:0:0:0:
320,192,76454,1,8,0:0:0:0:
64,192,76454,1,0,0:0:0:0:
192,192,76632,1,0,0:0:0:0:
64,192,76811,1,2,0:0:0:0:
320,192,76990,1,0,0:0:0:0:
192,192,77168,1,8,0:0:0:0:
64,192,77168,1,0,0:0:0:0:
320,192,77347,1,0,0:0:0:0:
192,192,77436,1,0,0:0:0:0:
64,192,77525,128,2,78775:0:0:0:0:
192,192,77704,1,0,0:0:0:0:
320,192,77882,1,8,0:0:0:0:
448,192,77882,1,0,0:0:0:0:
192,192,78061,1,0,0:0:0:0:
320,192,78240,1,2,0:0:0:0:
448,192,78418,1,0,0:0:0:0:
320,192,78597,1,8,0:0:0:0:
192,192,78597,1,0,0:0:0:0:
448,192,78775,1,0,0:0:0:0:
192,192,78954,1,4,0:0:0:0:
64,192,78954,1,0,0:0:0:0:
320,192,79132,1,0,0:0:0:0:
448,192,79311,1,8,0:0:0:0:
192,192,79311,1,0,0:0:0:0:
64,192,79490,1,0,0:0:0:0:
320,192,79668,1,2,0:0:0:0:
448,192,79847,1,0,0:0:0:0:
192,192,80025,1,8,0:0:0:0:
64,192,80025,1,0,0:0:0:0:
320,192,80204,1,0,0:0:0:0:
448,192,80382,1,2,0:0:0:0:
64,192,80382,1,0,0:0:0:0:
192,192,80561,1,0,0:0:0:0:
448,192,80740,1,8,0:0:0:0:
320,192,80740,1,0,0:0:0:0:
64,192,80918,1,0,0:0:0:0:
192,192,81097,1,2,0:0:0:0:
448,192,81275,1,0,0:0:0:0:
64,192,81454,1,0,0:0:0:0:
192,192,81454,1,12,0:0:0:0:
320,192,81632,1,0,0:0:0:0:
448,192,81811,1,0,0:0:0:0:
64,192,81811,1,6,0:0:0:0:
320,192,81990,1,0,0:0:0:0:
192,192,82168,1,8,0:0:0:0:
64,192,82168,1,0,0:0:0:0:
320,192,82347,1,0,0:0:0:0:
64,192,82525,1,2,0:0:0:0:
192,192,82704,1,0,0:0:0:0:
320,192,82882,1,0,0:0:0:0:
448,192,82882,1,2,0:0:0:0:
192,192,83061,1,2,0:0:0:0:
64,192,83061,1,12,0:0:0:0:
320,192,83061,1,0,0:0:0:0:
192,192,83418,1,2,0:0:0:0:
320,192,83418,1,0,0:0:0:0:
448,192,83418,1,4,0:0:0:0:
320,192,83775,1,2,0:0:0:0:
192,192,83775,1,0,0:0:0:0:
64,192,83775,1,4,0:0:0:0:
64,192,84132,1,8,0:0:0:0:
192,192,84132,1,0,0:0:0:0:
320,192,84311,1,8,0:0:0:0:
448,192,84311,1,0,0:0:0:0:
64,192,84490,1,8,0:0:0:0:
192,192,84490,1,0,0:0:0:0:
448,192,84668,128,2,88240:0:0:0:0:
64,192,84668,128,4,88240:0:0:0:0:
320,192,84668,128,0,88240:0:0:0:0:
