osu file format v6

[General]
AudioFilename: Real Force (TV Size).mp3
AudioLeadIn: 1212
PreviewTime: 50002
Countdown: 0
SampleSet: Normal
StackLeniency: 0.4
Mode: 0
LetterboxInBreaks: 0

[Editor]
Bookmarks: 1776,10347,16062,27490,38919,50347,61776,70347,78919,84633
DistanceSpacing: 0.800000011920929
BeatDivisor: 4
GridSize: 32

[Metadata]
Title:Real Force (TV Size)
Artist:ELISA
Creator:DJPop
Version:Hard
Source:To Aru Kagaku no Railgun
Tags:

[Difficulty]
HPDrainRate:5
CircleSize:4
OverallDifficulty:6
SliderMultiplier:1.6
SliderTickRate:2

[Events]
//Background and Video events
0,0,"Real Force (TV Size).png"
Video,-200,"Real Force (TV Size).avi"
//Break Periods
//Storyboard Layer 0 (Background)
//Storyboard Layer 1 (Fail)
//Storyboard Layer 2 (Pass)
//Storyboard Layer 3 (Foreground)
//Storyboard Sound Samples
//Background Colour Transformations
3,100,0,0,0

[TimingPoints]
348,357.142857142857,4,1,1,80,1,0
16240,-100,4,2,1,80,0,0
25972,-100,4,1,1,80,0,0
26330,-100,4,1,2,80,0,0
26508,-100,4,1,1,80,0,0
28472,-100,4,1,2,80,0,0
28651,-100,4,1,1,80,0,0
32044,-100,4,1,2,80,0,0
32222,-100,4,1,1,80,0,0
32758,-100,4,1,2,80,0,0
32937,-100,4,1,1,80,0,0
33472,-100,4,1,2,80,0,0
33651,-100,4,1,1,80,0,0
34187,-100,4,1,2,80,0,0
34365,-100,4,1,1,80,0,0
35615,-100,4,1,2,80,0,0
35794,-100,4,1,1,80,0,0
37937,-100,4,1,2,80,0,0
38472,-100,4,1,1,80,0,0
39187,-100,4,1,2,80,0,0
39365,-100,4,1,1,80,0,0
40615,-100,4,1,2,80,0,0
40794,-100,4,1,1,80,0,0
42044,-100,4,1,2,80,0,0
42222,-100,4,1,1,80,0,0
45615,-100,4,1,2,80,0,0
45794,-100,4,1,1,80,0,0
47490,-200,4,1,1,80,0,0
48919,-100,4,1,1,80,0,0
50347,-100,4,1,1,80,0,1
50615,-100,4,1,2,80,0,1
50794,-100,4,1,1,80,0,1
52044,-100,4,1,2,80,0,1
52222,-100,4,1,1,80,0,1
57044,-100,4,1,2,80,0,1
57222,-100,4,1,1,80,0,1
59901,-100,4,1,2,80,0,1
60080,-100,4,1,1,80,0,1
68472,-100,4,1,2,80,0,1
68651,-100,4,1,1,80,0,1
75169,-100,4,1,1,80,0,0
88115,-100,4,2,2,0,0,0

[Colours]
Combo1 : 65,55,115
Combo2 : 170,125,85
Combo3 : 150,60,60
Combo4 : 220,220,220

[HitObjects]
320,32,1776,5,4
448,192,2312,1,0
320,352,2848,1,0
192,352,3205,5,0
64,192,3740,1,0
192,32,4276,1,0
320,32,4633,6,0,B|464:48|525:192|464:336|317:352,1,480,0|8
256,352,5883,1,4
256,224,6240,5,8
256,96,6597,1,4
128,96,6955,1,8
64,128,7133,1,8
128,160,7312,1,8
64,192,7490,6,0,C|64:352,3,160,4|8|0|8
192,352,8919,6,0,C|352:352,3,160,0|8|0|8
480,304,10347,6,0,C|480:224,1,80,4|0
480,160,10705,2,0,C|480:80,1,80,8|0
416,80,11062,2,0,C|416:160,1,80
416,224,11419,2,0,C|416:304,1,80,8|0
352,304,11776,6,0,C|352:224,1,80
352,160,12133,2,0,C|352:80,1,80,8|0
288,80,12490,2,0,C|288:160,1,80
288,224,12847,2,0,C|288:304,1,80,12|0
224,304,13205,6,0,C|224:224,1,80,4|0
160,256,13562,2,0,C|160:176,1,80,8|0
96,208,13919,2,0,C|96:128,1,80
32,160,14276,1,8
32,96,14455,5,2
160,32,14812,1,2
288,96,15169,1,6
416,32,15526,1,10
480,64,15705,1,8
416,96,15883,1,8
480,128,16062,5,4
480,256,16419,1,0
480,320,16597,1,0
352,352,16955,1,0
224,320,17312,1,0
32,224,17847,5,0
32,352,18205,1,0
160,352,18562,1,0
160,224,18919,6,0,B|166:121|63:128,1,160
176,32,19633,2,0,C|336:32,1,160
448,128,20347,6,0,B|544:160|527:293|369:193|352:320|449:353,2,320
384,128,21955,5,0
288,224,22312,1,0
288,288,22490,1,0
288,352,22669,1,0
160,288,23026,1,0
32,352,23383,5,0
32,288,23562,1,0
32,224,23740,2,0,B|4:64|129:32,1,240
256,32,24633,5,0
384,32,24990,1,0
480,128,25347,1,0
480,256,25705,1,0
448,320,25883,1,0
384,352,26062,6,2,B|247:360|256:190,1,240,6|2
160,64,26955,1,2
96,32,27133,1,8
32,64,27312,1,8
96,96,27490,5,4
128,224,27847,1,8
64,224,28026,1,0
32,352,28383,2,0,C|192:352,1,160
480,352,29276,5,8
352,288,29633,1,0
480,224,29990,1,8
352,160,30347,6,0,C|480:64,1,160,0|8
352,32,31062,2,0,C|224:128,1,160,0|8
128,32,31776,6,0,C|128:352,2,320
64,32,33383,6,0,C|64:192,3,160
64,320,34812,5,0
128,352,34990,1,8
192,320,35169,1,0
320,320,35526,2,0,C|480:320,1,160
480,192,36240,5,0
416,160,36419,1,8
352,192,36597,1,0
256,192,36955,1,0
192,224,37133,1,8
128,192,37312,1,0
64,160,37490,6,0,B|22:113|32:56|96:32,3,160,4|8|8|8
160,32,38740,1,8
224,32,38919,6,0,C|464:32,2,240,4|0|8
224,192,40347,6,0,C|464:192,2,240,0|0|8
224,352,41776,6,0,C|464:352,2,240,0|0|8
64,336,43205,6,0,C|64:176,3,160,0|8|0|12
64,112,44455,1,0
64,48,44633,5,4
192,32,44990,1,8
256,32,45169,2,0,C|256:192,2,160
256,256,46419,5,8
352,352,46776,1,0
448,256,47133,1,8
352,160,47490,6,0,C|472:160,1,120,4|0
472,96,48205,2,0,C|352:96,1,120,4|0
288,128,48919,5,4
224,96,49097,1,0
288,64,49276,1,8
224,32,49455,1,0
96,32,49812,5,4
32,64,49990,1,8
96,96,50169,1,8
32,128,50347,6,0,B|16:224|112:224|96:354,2,240,4|0|8
160,160,51776,6,0,B|274:241|384:160,2,240,0|0|8
192,288,53205,6,0,B|220:376|320:352,3,160,0|8|0|8
384,320,54455,1,0
416,256,54633,6,0,B|507:222|480:128,3,160,0|8|0|12
448,64,55883,1,0
384,32,56062,6,0,C|224:32,2,160,4|8|0
384,96,56955,2,0,C|224:96,1,160
80,32,57669,6,0,C|160:32,1,80,0|8
80,96,58026,2,0,C|160:96,1,80
80,160,58383,2,0,C|160:160,1,80,0|8
32,224,58919,5,0
96,352,59276,1,8
160,352,59455,1,0
224,224,59812,2,0,C|320:353,1,160,0|4
448,320,60526,5,8
448,320,60705,1,12
480,192,61062,1,12
448,64,61419,1,12
320,32,61776,6,0,C|160:32,1,160,4|8
96,32,62312,2,0,B|24:40|-9:112|24:184|96:192,1,240,0|8
224,192,63205,6,0,C|384:192,1,160,0|8
384,256,63741,2,0,B|376:328|306:361|232:328|224:256,1,240,0|8
128,352,64634,6,0,B|24:359|32:256,3,160,0|8|0|8
32,192,65883,1,0
32,128,66062,6,0,B|25:24|128:32,3,160,0|8|0|8
192,32,67312,1,0
256,32,67490,5,0
256,160,67847,1,8
256,224,68026,1,0
288,352,68383,2,0,C|448:352,1,160,0|6
480,224,69097,5,2
480,160,69276,1,10
64,192,69990,2,0,C|24:192,4,40,8|8|8|8|4
128,64,70705,5,8
256,32,71062,1,0
320,64,71240,1,0
384,32,71419,1,8
448,64,71597,1,0
352,160,71955,5,8
384,224,72133,1,8
416,288,72312,1,0
448,352,72490,1,8
320,352,72847,1,8
288,288,73026,1,8
256,224,73205,5,4
192,352,73562,1,0
192,288,73740,1,8
64,352,74097,1,8
96,288,74276,1,8
128,224,74455,1,6
192,96,74812,5,2
192,96,74990,1,10
320,352,76062,5,4
416,256,76419,1,8
416,128,76776,1,0
320,32,77133,1,8
192,32,77490,5,0
96,128,77847,1,8
96,256,78205,1,0
192,352,78562,1,8
320,352,78919,6,0,C|400:352,1,80,4|0
352,288,79277,2,0,C|432:288,1,80,8|0
384,224,79634,2,0,C|464:224,1,80
416,160,79991,2,0,C|496:160,1,80,8|0
448,96,80348,6,0,C|368:96,1,80
352,32,80705,2,0,C|272:32,1,80,8|0
256,96,81062,2,0,C|176:96,1,80
160,32,81419,2,0,C|80:32,1,80,12|0
64,96,81777,6,0,C|64:176,1,80,4|0
136,176,82134,2,0,C|136:256,1,80,8|0
208,256,82491,2,0,C|208:336,1,80
280,336,82847,1,8
352,336,83026,5,2
480,192,83383,1,2
352,48,83740,1,6
224,192,84097,1,10
160,192,84276,1,8
96,192,84455,1,8
32,192,84633,1,4
256,208,84722,12,0,88115
