osu file format v6

[General]
AudioFilename: Real Force (TV Size).mp3
AudioLeadIn: 1212
PreviewTime: 50002
Countdown: 0
SampleSet: Normal
StackLeniency: 0.4
Mode: 0
LetterboxInBreaks: 0

[Editor]
Bookmarks: 1776,10347,16062,27490,38919,50347,61776,70347,78919,84633
DistanceSpacing: 0.660000026226044
BeatDivisor: 4
GridSize: 32

[Metadata]
Title:Real Force (TV Size)
Artist:ELISA
Creator:DJPop
Version:Easy
Source:To Aru Kagaku no Railgun
Tags:

[Difficulty]
HPDrainRate:2
CircleSize:3
OverallDifficulty:3
SliderMultiplier:0.96
SliderTickRate:2

[Events]
//Background and Video events
0,0,"Real Force (TV Size).png"
Video,-200,"Real Force (TV Size).avi"
//Break Periods
//Storyboard Layer 0 (Background)
//Storyboard Layer 1 (Fail)
//Storyboard Layer 2 (Pass)
//Storyboard Layer 3 (Foreground)
//Storyboard Sound Samples
//Background Colour Transformations
3,100,0,0,0

[TimingPoints]
348,357.142857142857,4,1,1,80,1,0
7758,-100,4,1,2,80,0,0
7937,-100,4,1,1,80,0,0
8472,-100,4,1,2,80,0,0
8651,-100,4,1,1,80,0,0
9187,-100,4,1,2,80,0,0
9365,-100,4,1,1,80,0,0
9901,-100,4,1,2,80,0,0
10080,-100,4,1,1,80,0,0
16419,-100,4,2,1,80,0,0
25705,-100,4,1,1,80,0,0
50347,-100,4,1,1,80,0,1
50615,-100,4,1,2,80,0,1
50794,-100,4,1,1,80,0,1
52044,-100,4,1,2,80,0,1
52222,-100,4,1,1,80,0,1
53472,-100,4,1,2,80,0,1
53651,-100,4,1,1,80,0,1
54901,-100,4,1,2,80,0,1
55079,-100,4,1,1,80,0,1
56330,-100,4,1,2,80,0,1
56508,-100,4,1,1,80,0,1
57044,-100,4,1,2,80,0,1
57222,-100,4,1,1,80,0,1
57758,-100,4,1,2,80,0,1
57937,-100,4,1,1,80,0,1
58472,-100,4,1,2,80,0,1
58651,-100,4,1,1,80,0,1
59901,-100,4,1,2,80,0,1
60080,-100,4,1,1,80,0,1
62044,-100,4,1,2,80,0,1
62222,-100,4,1,1,80,0,1
63472,-100,4,1,2,80,0,1
63651,-100,4,1,1,80,0,1
64901,-100,4,1,2,80,0,1
65079,-100,4,1,1,80,0,1
66329,-100,4,1,2,80,0,1
66508,-100,4,1,1,80,0,1
67758,-100,4,1,2,80,0,1
67936,-100,4,1,1,80,0,1
68472,-100,4,1,2,80,0,1
68651,-100,4,1,1,80,0,1
70615,-100,4,1,2,80,0,1
70794,-100,4,1,1,80,0,1
71330,-100,4,1,2,80,0,1
71508,-100,4,1,1,80,0,1
71865,-100,4,1,2,80,0,1
72222,-100,4,1,1,80,0,1
72758,-100,4,1,2,80,0,1
73115,-100,4,1,1,80,0,1
74186,-100,4,1,2,80,0,1
74365,-100,4,1,1,80,0,1
75169,-100,4,1,1,80,0,0
76330,-100,4,1,2,80,0,0
76508,-100,4,1,1,80,0,0
77044,-100,4,1,2,80,0,0
77222,-100,4,1,1,80,0,0
77758,-100,4,1,2,80,0,0
77937,-100,4,1,1,80,0,0
78472,-100,4,1,2,80,0,0
78651,-100,4,1,1,80,0,0
88115,-100,4,2,2,0,0,0

[Colours]
Combo1 : 65,55,115
Combo2 : 170,125,85
Combo3 : 150,60,60
Combo4 : 220,220,220

[HitObjects]
416,32,1776,5,4
256,192,3205,1,0
96,32,4633,1,0
256,128,5883,6,0,C|256:32,2,96,4|8|4
448,224,7490,6,0,C|64:224,2,384,4|0|4
448,352,11062,5,0
320,352,11776,1,0
192,352,12490,1,0
128,352,12847,1,4
64,352,13205,1,4
64,224,13919,1,0
128,160,14455,6,0,C|128:64,3,96,2|2|6|10
32,32,16062,5,4
480,32,18919,5,0
256,192,20347,5,0
480,352,21776,5,0
32,352,24633,5,0
256,192,26062,5,6
32,32,27490,6,0,C|224:32,1,192,4|0
352,32,28919,2,0,B|479:6|480:129,1,192
480,256,30347,6,0,B|480:377|351:352,3,192
224,352,33205,6,0,C|32:352,1,192
32,224,34634,2,0,C|32:32,1,192
160,32,36062,6,0,C|352:32,2,192,0|0|4
400,352,38919,6,0,C|112:352,1,288,4|0
112,272,40347,2,0,C|400:272,1,288
400,192,41776,2,0,C|112:192,1,288
112,112,43205,2,0,C|400:112,1,288,0|4
480,112,44633,5,4
384,32,45347,1,0
256,32,46061,1,0
128,32,46776,1,0
32,112,47490,6,0,C|32:304,2,192,4|4|4
256,352,50347,6,0,B|480:366|480:232,1,288,4|8
480,152,51776,2,0,B|480:19|254:32,1,288,0|8
176,32,53205,2,0,B|8:24|3:87|8:152|96:152,1,288,0|8
96,232,54633,2,0,B|8:232|2:296|8:360|177:352,1,288,0|12
256,352,56062,6,0,C|448:352,4,192,4|0|0|0|0
192,288,59455,6,0,B|141:280|128:224,2,96,0|0|4
253,226,60705,5,12
320,224,61062,1,12
384,224,61419,1,12
448,224,61776,6,0,B|498:299|432:352,2,144,4|0|8
448,144,63205,2,0,B|489:60|400:32,2,144,0|0|8
368,144,64633,6,0,B|240:144|240:32|109:32,1,288,0|8
32,48,66062,2,0,C|32:336,1,288,0|8
112,352,67490,6,0,C|464:352,1,336,0|6
160,32,70347,6,0,C|352:32,4,192,4|0|0|8|4
208,128,73740,6,0,C|304:128,2,96,8|8|6
352,352,76061,6,0,C|160:352,4,192,4|0|0|0|4
432,256,79633,5,0
432,128,80347,1,0
352,32,81062,1,0
288,32,81419,1,4
224,32,81776,1,4
96,32,82490,1,0
32,96,83026,6,0,C|32:192,3,96,2|2|6|10
256,192,84633,5,4
256,208,84722,12,0,88115
