osu file format v13

[General]
AudioFilename: 01. REALISM.mp3
AudioLeadIn: 0
PreviewTime: 70410
Countdown: 0
SampleSet: Soft
StackLeniency: 0.7
Mode: 0
LetterboxInBreaks: 1
WidescreenStoryboard: 1

[Editor]
Bookmarks: 18143
DistanceSpacing: 0.8
BeatDivisor: 4
GridSize: 8
TimelineZoom: 1

[Metadata]
Title:REALISM
TitleUnicode:REALISM
Artist:ELISA
ArtistUnicode:ELISA
Creator:blahpy
Version:Normal
Source:Kakumeiki Valvrave
Tags:kakumeiki valvrave the liberator elisa realism
BeatmapID:382931
BeatmapSetID:155545

[Difficulty]
HPDrainRate:3
CircleSize:4
OverallDifficulty:4
ApproachRate:5
SliderMultiplier:0.999999999999999
SliderTickRate:1

[Events]
//Background and Video events
0,0,"valvrave.png",0,0
//Break Periods
2,65206,69396
2,99864,105173
2,136387,140949
2,148187,152875
2,200486,211011
2,236635,240825
//Storyboard Layer 0 (Background)
//Storyboard Layer 1 (Fail)
//Storyboard Layer 2 (Pass)
//Storyboard Layer 3 (Foreground)
//Storyboard Sound Samples
//Background Colour Transformations
3,100,163,162,255

[TimingPoints]
536,372.093023255814,4,1,0,60,1,0
13669,-100,4,2,0,100,0,0
13951,372.670807453416,4,2,0,100,1,0
37988,-66.6666666666667,4,2,0,100,0,0
45534,-100,4,2,0,100,0,0
70596,-100,4,2,0,100,0,1
100410,-100,4,2,0,100,0,0
127149,-66.6666666666667,4,2,0,100,0,0
142056,-100,4,2,0,100,0,0
161528,-100,4,2,0,100,0,1
185379,-100,4,2,0,100,0,0
242025,-100,4,2,0,100,0,1
277801,-100,4,2,0,100,0,0
280783,-100,4,2,0,100,0,0

[Colours]
Combo1 : 197,200,216
Combo2 : 225,0,0
Combo3 : 122,224,10
Combo4 : 138,11,242

[HitObjects]
207,113,536,6,0,L|311:113,1,99.9999999999999,8|0,0:0|0:0,0:0:0:0:
346,182,1280,2,0,L|296:268,1,99.9999999999999
216,269,2024,2,0,L|164:178,1,99.9999999999999
104,112,3512,6,0,P|152:64|200:64,2,99.9999999999999
104,192,4629,2,0,P|152:240|200:240,2,99.9999999999999
416,56,6489,6,0,P|416:128|400:168,1,99.9999999999999,8|0,0:0|0:0,0:0:0:0:
354,213,7233,1,0,0:0:0:0:
284,252,7605,2,0,P|206:266|168:253,1,99.9999999999999
111,236,8349,1,0,0:0:0:0:
216,122,9466,5,0,0:0:0:0:
176,192,9838,1,0,0:0:0:0:
216,261,10210,1,0,0:0:0:0:
296,261,10582,1,0,0:0:0:0:
336,192,10954,1,0,0:0:0:0:
296,122,11326,1,0,0:0:0:0:
392,80,13951,6,0,P|392:144|368:192,1,99.9999999999999
324,235,14696,2,0,P|281:269|220:266,1,99.9999999999999
162,243,15441,2,0,P|110:206|88:157,1,99.9999999999999
86,95,16187,1,4,0:0:0:0:
165,96,16559,1,4,0:0:0:0:
245,94,16932,6,0,B|286:93|286:93|322:93|362:113,1,99.9999999999999
417,134,17677,2,0,P|440:144|470:226,1,99.9999999999999
392,208,18423,2,0,P|369:198|339:116,2,99.9999999999999,0|0|4,0:0|0:0|0:0,0:0:0:0:
331,260,19541,1,4,0:0:0:0:
257,276,19913,6,2,P|181:276|89:196,1,200
88,120,21031,1,0,0:0:0:0:
152,72,21404,6,2,P|228:72|320:152,1,200
326,229,22522,1,0,0:0:0:0:
256,192,22895,12,0,25131,0:0:0:0:
104,112,25876,6,0,B|152:80|168:208|248:112,1,150
353,124,26994,1,0,0:0:0:0:
431,140,27367,2,0,B|430:225|398:292|254:305,1,250
231,305,28485,2,0,L|178:305,1,50
142,295,28857,6,0,P|117:270|88:194,1,99.9999999999999
87,171,29416,1,0,0:0:0:0:
86,75,31839,6,0,P|157:64|230:91,1,150
322,165,32957,1,0,0:0:0:0:
327,85,33329,2,0,B|440:106|400:222|389:291|373:313,1,250
350,319,34447,2,0,L|297:345,1,50
266,353,34820,5,0,0:0:0:0:
198,253,35379,1,0,0:0:0:0:
152,80,37988,6,2,L|246:80,1,75.000002861023
288,80,38361,2,2,L|369:80,1,75.000002861023
347,259,39106,5,2,0:0:0:0:
286,259,39293,1,2,0:0:0:0:
226,259,39479,1,2,0:0:0:0:
166,259,39665,1,2,0:0:0:0:
256,80,40224,6,2,L|256:168,3,75.000002861023
256,248,41155,1,2,0:0:0:0:
256,336,41528,1,2,0:0:0:0:
197,192,41901,5,4,0:0:0:0:
316,192,42273,1,4,0:0:0:0:
350,142,42460,6,2,L|350:62,1,75.000002861023
290,65,42832,2,2,L|290:153,1,75.000002861023
240,313,43578,5,2,0:0:0:0:
180,313,43764,1,2,0:0:0:0:
180,253,43950,1,2,0:0:0:0:
240,253,44137,1,2,0:0:0:0:
336,200,44696,6,2,L|336:120,3,75.000002861023
408,88,45628,5,0,0:0:0:0:
408,168,46000,1,0,0:0:0:0:
408,248,46373,1,0,0:0:0:0:
408,328,46746,1,0,0:0:0:0:
248,296,47491,6,0,P|248:160|208:320,1,549.999999999999
201,321,49727,1,0,0:0:0:0:
376,104,51031,5,0,0:0:0:0:
376,144,51218,2,0,B|376:216|376:256|296:240,1,150
264,240,51963,2,0,B|200:240|184:240|120:192,1,150
96,168,52708,2,0,P|56:128|64:40,2,150
80,320,55317,5,0,0:0:0:0:
160,320,55690,2,0,B|248:320|304:312|328:216,1,200
322,155,56808,2,0,B|234:155|178:163|154:259,1,200
160,319,57926,1,0,0:0:0:0:
294,212,59416,6,0,P|294:76|334:236,1,549.999999999999
340,237,61652,1,0,0:0:0:0:
96,312,62957,5,0,0:0:0:0:
136,312,63143,2,0,B|208:312|216:312|248:280,2,99.9999999999999
132,232,64261,2,0,B|148:214|156:214|228:214,1,99.9999999999999
306,214,65006,1,0,0:0:0:0:
80,64,70596,6,0,L|80:168,1,99.9999999999999,0|8,0:0|0:0,0:0:0:0:
160,168,71342,2,0,L|160:272,1,99.9999999999999,0|8,0:0|0:0,0:0:0:0:
162,348,72087,2,0,L|266:348,1,99.9999999999999,0|8,0:0|0:0,0:0:0:0:
342,348,72832,1,0,0:0:0:0:
351,268,73205,1,0,0:0:0:0:
353,187,73578,5,2,0:0:0:0:
249,283,73950,1,2,0:0:0:0:
277,145,74323,1,2,0:0:0:0:
337,274,74696,1,2,0:0:0:0:
212,204,75069,1,2,0:0:0:0:
97,315,75814,6,0,P|153:331|209:315,1,99.9999999999999
257,276,76559,2,0,P|273:220|257:164,1,99.9999999999999
212,119,77305,2,0,P|268:103|324:119,1,99.9999999999999
378,148,78050,2,0,P|394:204|378:260,1,99.9999999999999
331,302,78795,2,0,P|275:318|219:302,1,99.9999999999999
168,265,79541,6,0,L|168:153,3,99.9999999999999,2|0|2|0,0:0|0:0|0:0|0:0,0:0:0:0:
233,119,81031,1,2,0:0:0:0:
312,106,81404,2,0,L|344:130,12,25
312,186,82895,5,0,0:0:0:0:
312,265,83267,1,0,0:0:0:0:
276,336,83640,1,0,0:0:0:0:
196,339,84013,2,0,P|180:283|196:227,1,99.9999999999999
250,193,84758,2,0,P|266:249|250:305,1,99.9999999999999
337,294,85503,5,2,0:0:0:0:
441,198,85875,1,2,0:0:0:0:
413,336,86248,1,2,0:0:0:0:
353,207,86621,1,2,0:0:0:0:
478,277,86994,1,2,0:0:0:0:
399,263,87367,1,0,0:0:0:0:
320,277,87739,2,0,P|267:302|236:351,1,99.9999999999999
175,289,88485,6,0,P|199:236|192:178,1,99.9999999999999
175,118,89230,1,0,0:0:0:0:
248,87,89603,1,0,0:0:0:0:
285,72,89789,1,0,0:0:0:0:
322,57,89975,1,0,0:0:0:0:
402,57,90348,1,0,0:0:0:0:
409,136,90721,2,0,P|395:192|354:233,1,99.9999999999999
256,192,91466,12,0,94447,0:0:0:0:
192,152,94820,6,0,L|168:104,10,50
282,284,97429,5,0,0:0:0:0:
354,317,97801,2,0,L|402:341,10,50
128,112,106373,5,2,0:0:0:0:
128,112,106559,1,2,0:0:0:0:
256,152,107118,5,2,0:0:0:0:
256,152,107305,1,2,0:0:0:0:
384,192,107864,5,2,0:0:0:0:
384,192,108050,1,2,0:0:0:0:
256,232,108609,5,2,0:0:0:0:
256,232,108796,1,2,0:0:0:0:
136,272,109354,2,0,L|101:324,6,50,0|0|0|0|0|0|0,0:0|0:0|0:0|0:0|0:0|0:0|0:0,0:0:0:0:
213,250,110845,6,0,L|262:263,6,50,0|0|0|0|0|0|0,0:0|0:0|0:0|0:0|0:0|0:0|0:0,0:0:0:0:
256,192,112336,12,0,113826,0:0:0:0:
331,37,115317,6,0,B|274:40|336:153|215:122,1,150
131,183,116435,1,0,0:0:0:0:
90,251,116808,2,0,B|141:319|206:355|330:281,1,250
342,268,117926,2,0,L|385:237,1,50
415,215,118298,6,0,P|420:180|399:102,1,99.9999999999999
384,88,118857,1,0,0:0:0:0:
300,269,119789,5,0,0:0:0:0:
220,258,120162,1,0,0:0:0:0:
153,213,120534,1,0,0:0:0:0:
109,145,120907,1,0,0:0:0:0:
86,68,121280,6,0,P|157:57|230:84,1,150
322,158,122398,1,0,0:0:0:0:
400,169,122770,2,0,B|401:280|194:231|172:215,1,250
152,209,123888,2,0,L|96:185,1,50
72,169,124261,5,0,0:0:0:0:
168,97,124820,1,0,0:0:0:0:
363,53,125752,5,0,0:0:0:0:
283,53,126124,1,0,0:0:0:0:
363,53,126497,1,0,0:0:0:0:
283,53,126870,1,0,0:0:0:0:
258,149,127429,5,2,0:0:0:0:
215,191,127615,1,2,0:0:0:0:
258,233,127801,1,2,0:0:0:0:
300,191,127988,1,2,0:0:0:0:
406,90,128547,6,2,L|406:178,1,75.000002861023
406,225,128920,2,2,L|406:305,1,75.000002861023
136,232,129665,6,2,L|136:320,3,75.000002861023
246,261,130596,1,2,0:0:0:0:
246,140,130969,1,2,0:0:0:0:
384,128,131901,6,2,L|384:208|384:200,1,75.000002861023
331,173,132273,2,2,L|331:253,1,75.000002861023
128,293,133019,6,2,L|128:213|128:221,1,75.000002861023
181,248,133391,2,2,L|181:168,1,75.000002861023
359,146,134137,5,2,0:0:0:0:
304,122,134323,1,2,0:0:0:0:
249,99,134510,1,2,0:0:0:0:
195,76,134696,1,2,0:0:0:0:
256,192,135069,5,4,0:0:0:0:
256,192,135441,1,4,0:0:0:0:
256,192,135814,1,4,0:0:0:0:
256,192,136187,1,4,0:0:0:0:
256,192,142149,5,0,0:0:0:0:
312,192,142398,2,0,L|352:192,2,33.3333333333333
312,248,142895,1,0,0:0:0:0:
312,304,143143,1,0,0:0:0:0:
312,360,143391,1,0,0:0:0:0:
368,360,143640,5,0,0:0:0:0:
424,360,143888,2,0,L|472:360,4,33.3333333333333
424,296,144634,1,0,0:0:0:0:
424,240,144882,1,0,0:0:0:0:
424,184,145131,6,0,B|424:144|424:136|456:136,2,66.6666666666666
368,184,145876,1,0,0:0:0:0:
312,184,146124,1,0,0:0:0:0:
256,184,146373,1,0,0:0:0:0:
200,184,146621,5,0,0:0:0:0:
144,184,146870,2,0,L|96:184,4,33.3333333333333
144,240,147615,2,0,L|144:280,3,33.3333333333333
120,104,154075,6,0,L|81:67,4,50,2|2|2|2|2,0:0|0:0|0:0|0:0|0:0,0:0:0:0:
208,104,155193,6,0,L|196:46,4,50,0|0|0|0|0,0:0|0:0|0:0|0:0|0:0,0:0:0:0:
304,104,156311,6,0,L|316:46,4,50,0|0|0|0|0,0:0|0:0|0:0|0:0|0:0,0:0:0:0:
392,104,157429,6,0,L|431:67,4,50,2|2|2|2|2,0:0|0:0|0:0|0:0|0:0,0:0:0:0:
256,192,159292,5,4,0:0:0:0:
256,192,159665,1,4,0:0:0:0:
336,168,161528,6,0,L|336:272,1,99.9999999999999
416,264,162274,2,0,L|416:160,1,99.9999999999999
424,88,163019,2,0,L|320:88,1,99.9999999999999
243,88,163764,1,0,0:0:0:0:
163,88,164137,1,0,0:0:0:0:
131,160,164510,5,2,0:0:0:0:
35,264,164882,1,2,0:0:0:0:
173,236,165255,1,2,0:0:0:0:
44,176,165628,1,2,0:0:0:0:
114,301,166001,1,2,0:0:0:0:
275,304,166746,6,0,P|331:320|387:304,1,99.9999999999999
435,360,167491,2,0,P|451:304|435:248,1,99.9999999999999
491,200,168237,2,0,P|435:184|379:200,1,99.9999999999999
323,224,168982,2,0,P|267:240|211:224,1,99.9999999999999
163,184,169727,2,0,P|147:128|163:72,1,99.9999999999999
220,133,170472,6,0,P|236:189|220:245,1,99.9999999999999
172,286,171218,2,0,P|156:230|172:174,1,99.9999999999999
193,115,171963,1,2,0:0:0:0:
114,98,172336,2,0,L|88:92,12,25
193,116,173826,5,0,0:0:0:0:
273,116,174198,1,0,0:0:0:0:
349,138,174571,1,0,0:0:0:0:
413,186,174944,2,0,P|429:242|413:298,1,99.9999999999999
360,333,175689,2,0,P|304:349|248:333,1,99.9999999999999
200,292,176434,5,2,0:0:0:0:
137,165,176806,1,2,0:0:0:0:
113,303,177179,1,2,0:0:0:0:
216,205,177552,1,2,0:0:0:0:
74,225,177925,1,2,0:0:0:0:
72,148,178298,1,0,0:0:0:0:
152,141,178670,6,0,P|209:129|263:149,1,99.9999999999999
317,179,179416,2,0,P|341:232|334:290,1,99.9999999999999
277,323,180161,1,0,0:0:0:0:
198,339,180534,2,0,P|178:354|151:337,2,50
229,267,181279,1,0,0:0:0:0:
253,195,181652,2,0,P|309:209|350:250,1,99.9999999999999
256,192,182398,12,0,185006,0:0:0:0:
94,139,185379,6,0,P|105:195|131:247,1,99.9999999999999
178,292,186124,1,0,0:0:0:0:
258,292,186497,1,0,0:0:0:0:
331,260,186870,2,0,P|347:212|339:156,1,99.9999999999999
315,132,187429,1,0,0:0:0:0:
283,107,187615,2,0,P|227:75|171:75,1,99.9999999999999
151,140,188360,5,0,0:0:0:0:
151,259,188733,1,0,0:0:0:0:
223,162,189106,1,0,0:0:0:0:
108,199,189478,1,0,0:0:0:0:
223,236,189851,5,0,0:0:0:0:
335,276,190224,1,0,0:0:0:0:
447,236,190596,1,0,0:0:0:0:
448,96,191342,6,0,P|304:80|184:88,1,250
160,96,192460,2,0,P|128:112|112:128,1,50
88,144,192832,2,0,P|56:187|57:236,1,99.9999999999999
184,80,194137,5,0,0:0:0:0:
192,120,194323,2,0,P|232:208|328:264,1,200
392,280,195441,1,0,0:0:0:0:
380,200,195814,2,0,P|340:112|244:56,1,200
256,192,197305,12,0,200286,0:0:0:0:
256,192,212211,12,2,215193,0:0:0:0:
256,192,215752,5,2,0:0:0:0:
256,192,216311,1,2,0:0:0:0:
256,192,216870,1,2,0:0:0:0:
256,192,217429,1,2,0:0:0:0:
256,192,217801,1,2,0:0:0:0:
336,192,218174,5,2,0:0:0:0:
256,104,218733,1,2,0:0:0:0:
176,192,219292,1,2,0:0:0:0:
256,280,219851,1,2,0:0:0:0:
256,192,220410,1,2,0:0:0:0:
256,192,220783,1,2,0:0:0:0:
200,128,221155,5,4,0:0:0:0:
200,128,221404,1,4,0:0:0:0:
200,128,221652,1,4,0:0:0:0:
336,192,222646,5,4,0:0:0:0:
336,192,222895,1,4,0:0:0:0:
336,192,223143,1,4,0:0:0:0:
200,264,224137,5,4,0:0:0:0:
104,96,227118,6,0,P|176:80|320:104,1,200
372,130,228236,1,0,0:0:0:0:
331,199,228609,2,0,P|283:247|195:263,1,150
165,259,229354,1,0,0:0:0:0:
87,238,229727,6,0,L|25:226,2,50
164,259,230472,1,0,0:0:0:0:
243,266,230845,2,0,P|314:254|351:232,2,99.9999999999999
310,166,232149,5,0,0:0:0:0:
270,174,232336,2,0,P|222:182|166:166,1,99.9999999999999
126,104,233081,2,0,P|174:96|230:112,1,99.9999999999999
344,192,234199,6,0,L|344:136,2,50
344,32,235317,6,0,P|224:24|96:40,1,250
95,40,236435,1,0,0:0:0:0:
122,134,242025,6,0,L|122:238,1,99.9999999999999
194,262,242771,2,0,L|194:158,1,99.9999999999999
266,134,243516,2,0,L|266:238,1,99.9999999999999
266,314,244261,1,0,0:0:0:0:
346,314,244634,1,0,0:0:0:0:
386,242,245007,5,2,0:0:0:0:
362,102,245379,1,2,0:0:0:0:
462,201,245752,1,2,0:0:0:0:
321,181,246125,1,2,0:0:0:0:
448,114,246498,1,2,0:0:0:0:
290,90,247243,6,0,P|231:92|183:124,1,99.9999999999999
130,66,247988,2,0,P|114:122|130:178,1,99.9999999999999
154,234,248734,2,0,P|210:218|266:234,1,99.9999999999999
314,178,249479,2,0,P|330:234|314:290,1,99.9999999999999
370,338,250224,2,0,P|314:354|258:338,1,99.9999999999999
202,306,250970,6,0,L|90:306,3,99.9999999999999
106,226,252460,1,0,0:0:0:0:
154,162,252833,2,0,L|178:130,12,25
217,210,254323,5,0,0:0:0:0:
286,249,254695,1,0,0:0:0:0:
356,287,255068,1,0,0:0:0:0:
427,323,255441,2,0,P|443:267|427:211,1,99.9999999999999
377,171,256186,2,0,P|321:155|265:171,1,99.9999999999999
201,179,256931,5,2,0:0:0:0:
97,275,257303,1,2,0:0:0:0:
125,137,257676,1,2,0:0:0:0:
185,266,258049,1,2,0:0:0:0:
60,196,258422,1,2,0:0:0:0:
137,211,258795,1,0,0:0:0:0:
209,251,259167,6,0,P|217:193|194:139,1,99.9999999999999
139,202,259913,2,0,P|130:259|153:313,1,99.9999999999999
202,352,260658,1,0,0:0:0:0:
277,378,261031,1,0,0:0:0:0:
316,377,261217,1,0,0:0:0:0:
353,364,261403,1,0,0:0:0:0:
413,311,261776,1,0,0:0:0:0:
458,245,262149,2,0,P|444:189|403:148,1,99.9999999999999
256,192,262895,12,0,265503,0:0:0:0:
296,224,265876,5,0,0:0:0:0:
228,266,266249,2,0,L|181:293,10,50
364,182,268858,5,0,0:0:0:0:
435,217,269230,2,0,L|483:241,10,50
289,150,271839,5,0,0:0:0:0:
363,120,272211,2,0,L|411:96,10,50
213,177,274820,5,0,0:0:0:0:
225,256,275193,2,0,L|230:309,10,50
231,96,277801,5,0,0:0:0:0:
98,186,278547,5,0,0:0:0:0:
180,273,279106,5,0,0:0:0:0:
267,190,279665,5,4,0:0:0:0:
267,190,279852,1,4,0:0:0:0:
267,190,280038,1,4,0:0:0:0:
