osu file format v14

[General]
AudioFilename: testdaaaaa.mp3
AudioLeadIn: 0
PreviewTime: 57866
Countdown: 0
SampleSet: Soft
StackLeniency: 0.7
Mode: 0
LetterboxInBreaks: 1
EpilepsyWarning: 1
WidescreenStoryboard: 1

[Editor]
Bookmarks: 59229,99749,140268,174554,199489,211957,230658,243125,258710,312007
DistanceSpacing: 1.7
BeatDivisor: 4
GridSize: 4
TimelineZoom: 2.999999

[Metadata]
Title:Millenario (Mood Up ver.)
TitleUnicode:ミレナリオ (Mood Up ver.)
Artist:ELISA
ArtistUnicode:ELISA
Creator:koreapenguin
Version:Shape of My love
Source:魔法科高校の劣等生
Tags:K.Penguin K.P FL studio Nexus RealGuitar Musiclab dskmusic ending mahouka koukou no rettousei The irregular at magic high school FPC guineaQ eINess
BeatmapID:770617
BeatmapSetID:349466

[Difficulty]
HPDrainRate:6
CircleSize:4
OverallDifficulty:7.5
ApproachRate:8.5
SliderMultiplier:3.4
SliderTickRate:1

[Events]
//Background and Video events
0,0,"bg[1].jpg",0,0
//Break Periods
//Storyboard Layer 0 (Background)
//Storyboard Layer 1 (Fail)
//Storyboard Layer 2 (Pass)
//Storyboard Layer 3 (Foreground)
//Storyboard Sound Samples

[TimingPoints]
9,779.220779220779,4,2,2,30,1,0
9,-133.333333333333,4,2,2,30,0,0
7411,-166.666666666667,4,2,2,30,0,0
8970,-133.333333333333,4,2,2,30,0,0
17151,-133.333333333333,4,2,2,20,0,0
17931,-100,4,2,2,50,0,0
55723,-100,4,2,1,60,0,0
57671,-100,4,2,1,40,0,0
59229,-100,4,2,1,70,0,1
93515,-100,4,2,1,60,0,0
95853,-100,4,2,1,5,0,0
96632,-100,4,2,1,50,0,0
99749,-100,4,2,1,60,0,0
135983,-100,4,2,1,40,0,0
136762,-100,4,2,1,60,0,0
138710,-100,4,2,1,40,0,0
140268,-100,4,2,1,70,0,1
174554,-100,4,2,1,50,0,0
180788,-100,4,2,1,35,0,0
180983,-100,4,2,1,50,0,0
183905,-100,4,2,1,35,0,0
184099,-100,4,2,1,50,0,0
230268,-100,4,2,1,5,0,0
230658,-133.333333333333,4,2,2,30,0,0
243126,-117.647058823529,4,2,1,50,0,0
252476,-100,4,2,1,60,0,0
255593,-100,4,2,1,40,0,0
256372,-100,4,2,1,60,0,0
258710,-100,4,2,1,70,0,1
269716,-100,4,2,1,50,0,1
269911,-100,4,2,1,70,0,1
287541,-133.333333333333,4,2,1,70,0,1
288125,-133.333333333333,4,2,2,40,0,0
289489,-200,4,2,2,40,0,0
289684,-200,4,2,2,10,0,0
293775,779.220779220779,4,2,2,30,1,0
294574,779.220779220779,4,2,2,30,1,0
296100,731.707317073171,4,2,2,30,1,0
296683,810.810810810811,4,2,2,30,1,0
296885,779.220779220779,4,2,2,30,1,0
297670,869.565217391304,4,2,2,30,1,0
299332,810.810810810811,4,2,2,30,1,0
299464,500,4,2,2,30,1,0
299964,600,4,2,2,30,1,0
300576,789.473684210526,4,2,2,30,1,0
302505,1200,4,2,2,30,1,0
302805,-100,4,2,2,20,0,0
303727,1071.42857142857,4,2,2,20,1,0
304798,1071.42857142857,4,2,2,20,1,0
305065,1071.42857142857,4,2,2,20,1,0
305332,1200,4,2,2,20,1,0
305632,1500,4,2,2,20,1,0
306007,2000,4,2,2,20,1,0
312007,-100,4,2,2,5,0,0

[Colours]
Combo1 : 12,178,178
Combo2 : 138,164,253
Combo3 : 140,255,255
Combo4 : 45,45,255

[HitObjects]
472,24,1957,6,0,L|476:168,1,127.500004863739,2|0,0:0|0:0,0:0:0:0:
372,280,2736,1,2,0:0:0:0:
372,280,2931,1,0,0:0:0:0:
372,280,3125,6,0,P|316:256|224:272,1,127.500004863739,8|0,0:0|0:0,0:0:0:0:
120,364,3905,2,0,P|183:369|241:345,1,127.500004863739,2|2,0:0|0:0,0:0:0:0:
241,345,5463,1,2,0:0:0:0:
256,264,5658,1,0,0:0:0:0:
271,183,5853,1,2,0:0:0:0:
286,102,6047,1,0,0:0:0:0:
236,36,6242,6,0,L|104:28,1,127.500004863739,8|0,0:0|0:0,0:0:0:0:
24,168,7021,2,0,L|87:164,1,63.7500024318696,2|0,0:0|0:0,0:0:0:0:
160,124,7411,2,0,B|192:184|156:257|156:257|220:184|344:208,1,305.999990661621,2|2,0:0|0:0,0:0:0:0:
460,324,8970,1,0,0:0:0:0:
460,324,9164,1,0,0:0:0:0:
460,324,9359,6,0,P|456:256|476:176,1,127.500004863739,8|0,0:0|0:0,0:0:0:0:
368,64,10138,1,0,0:0:0:0:
212,120,10528,2,0,B|178:189|231:247|231:247|274:289|250:353|250:353|196:312|120:332,1,382.500014591218,2|2,0:0|0:0,0:0:0:0:
48,364,11892,1,0,0:0:0:0:
56,284,12086,1,2,0:0:0:0:
64,204,12281,1,0,0:0:0:0:
72,124,12476,6,0,B|136:136|136:136|208:120,1,127.500004863739,8|0,0:0|0:0,0:0:0:0:
340,36,13255,2,0,P|356:96|336:172,1,127.500004863739,2|2,0:0|0:0,0:0:0:0:
342,158,14424,1,2,0:0:0:0:
490,235,14814,1,0,0:0:0:0:
486,71,15203,1,2,0:0:0:0:
402,307,15593,5,8,0:0:0:0:
256,192,15788,12,2,17152,0:0:0:0:
28,72,18515,5,0,0:0:0:0:
28,72,18710,6,0,B|108:96|108:96|212:84,1,170,10|0,0:0|0:0,0:0:0:0:
292,36,19294,1,0,0:0:0:0:
384,96,19489,2,0,P|392:136|388:196,1,85,2|0,0:0|0:0,0:0:0:0:
277,293,19879,2,0,P|275:250|284:208,1,85
367,328,20268,2,0,P|284:317|201:336,1,170,2|0,0:0|0:0,0:0:0:0:
16,216,21047,2,0,P|99:205|182:224,1,170,2|0,0:0|0:0,0:0:0:0:
284,176,21632,1,0,0:0:0:0:
180,56,21827,6,0,B|174:120|174:120|187:158|187:158|181:225,1,170,2|0,0:0|0:0,0:0:0:0:
100,300,22411,1,0,0:0:0:0:
180,376,22606,2,0,L|288:368,1,85,2|0,0:0|0:0,0:0:0:0:
345,234,22996,2,0,P|262:247|181:224,1,170,0|2,0:0|0:0,0:0:0:0:
276,24,23775,1,0,0:0:0:0:
448,164,24164,2,0,L|436:348,1,170,2|2,0:0|0:0,0:0:0:0:
332,368,24749,1,0,0:0:0:0:
224,344,24944,6,0,L|216:252,1,85,2|0,0:0|0:0,0:0:0:0:
260,156,25333,1,0,0:0:0:0:
128,96,25528,2,0,P|79:162|83:255,1,170
168,312,26112,2,0,P|67:298|-8:334,2,170,0|2|0,0:0|0:0|0:0,0:0:0:0:
384,368,27281,1,2,0:0:0:0:
504,180,27671,2,0,L|412:188,1,85
320,236,28060,6,0,P|296:152|332:56,1,170,2|0,0:0|0:0,0:0:0:0:
412,276,28840,1,2,0:0:0:0:
320,336,29034,1,0,0:0:0:0:
220,288,29229,2,0,P|178:285|137:293,1,85
40,348,29619,2,0,L|44:164,1,170,2|0,0:0|0:0,0:0:0:0:
0,76,30203,1,0,0:0:0:0:
160,184,30398,1,2,0:0:0:0:
43,179,30593,1,0,0:0:0:0:
92,80,30788,2,0,L|184:72,1,85,2|0,0:0|0:0,0:0:0:0:
320,136,31177,6,0,B|384:142|384:142|422:125|422:125|494:132,1,170,10|0,0:0|0:0,0:0:0:0:
486,131,31762,1,0,0:0:0:0:
436,228,31957,2,0,B|428:268|428:268|436:312,1,85,2|0,0:0|0:0,0:0:0:0:
320,360,32346,2,0,B|328:316|328:316|320:276,1,85
252,188,32736,2,0,P|169:176|89:203,1,170,2|0,0:0|0:0,0:0:0:0:
240,40,33515,2,0,P|320:67|404:55,1,170,2|0,0:0|0:0,0:0:0:0:
486,131,34099,1,0,0:0:0:0:
400,200,34294,6,0,B|384:288|384:288|404:376,1,170,2|0,0:0|0:0,0:0:0:0:
402,367,34879,1,0,0:0:0:0:
300,328,35073,2,0,L|192:332,1,85,2|0,0:0|0:0,0:0:0:0:
111,367,35463,2,0,B|128:288|128:288|112:200,1,170,0|2,0:0|0:0,0:0:0:0:
232,12,36242,2,0,L|224:96,1,85
212,209,36632,2,0,P|293:185|377:198,1,170,2|2,0:0|0:0,0:0:0:0:
436,292,37216,1,0,0:0:0:0:
512,156,37411,6,0,B|520:104|488:68|488:68|444:72|408:128,1,170,2|0,0:0|0:0,0:0:0:0:
425,106,37996,1,0,0:0:0:0:
352,188,38190,2,0,P|379:108|359:27,1,170,2|0,0:0|0:0,0:0:0:0:
148,92,38970,2,0,P|188:104|236:104,1,85,2|0,0:0|0:0,0:0:0:0:
248,212,39359,2,0,B|156:196|156:196|112:196|80:236,2,170,0|2|0,0:0|0:0|0:0,0:0:0:0:
312,304,40333,1,0,0:0:0:0:
440,220,40528,6,0,B|424:136|424:136|440:44,1,170,2|0,0:0|0:0,0:0:0:0:
439,53,41112,1,0,0:0:0:0:
336,16,41307,2,0,L|340:100,1,85,2|0,0:0|0:0,0:0:0:0:
256,228,41697,1,2,0:0:0:0:
256,228,42476,2,0,P|332:200|440:216,2,170
208,328,43450,1,0,0:0:0:0:
40,304,43645,6,0,B|8:272|8:272|-8:200|36:136,1,170,10|0,0:0|0:0,0:0:0:0:
242,75,44424,2,0,B|274:107|274:107|290:179|246:243,1,170,2|0,0:0|0:0,0:0:0:0:
140,200,45008,1,0,0:0:0:0:
148,88,45203,2,0,L|232:85,1,85,2|0,0:0|0:0,0:0:0:0:
320,16,45593,2,0,L|404:18,1,85
500,76,45983,2,0,P|512:160|472:260,1,170,2|0,0:0|0:0,0:0:0:0:
376,256,46567,1,0,0:0:0:0:
272,220,46762,6,0,P|260:136|300:36,1,170,2|0,0:0|0:0,0:0:0:0:
68,8,47541,2,0,P|80:48|72:120,1,85,2|0,0:0|0:0,0:0:0:0:
0,258,47931,2,0,P|0:216|12:176,1,85
79,90,48320,2,0,L|256:84,1,170,2|0,0:0|0:0,0:0:0:0:
304,176,48905,1,0,0:0:0:0:
304,176,49099,2,0,B|343:185|343:185|387:181,1,85,2|0,0:0|0:0,0:0:0:0:
448,88,49489,1,0,0:0:0:0:
296,164,49684,1,0,0:0:0:0:
464,256,49879,6,0,L|472:156,1,85,2|0,0:0|0:0,0:0:0:0:
428,68,50268,1,0,0:0:0:0:
288,152,50463,2,0,B|293:215|293:215|316:249|316:249|323:325,1,170
232,376,51047,1,2,0:0:0:0:
44,256,51437,1,2,0:0:0:0:
172,76,51827,2,0,P|89:59|7:79,2,170,0|2|0,0:0|0:0|0:0,0:0:0:0:
256,148,52801,1,0,0:0:0:0:
158,241,52996,6,0,B|146:156|146:156|174:69,1,170,2|0,0:0|0:0,0:0:0:0:
276,40,53580,1,2,0:0:0:0:
479,216,53970,1,2,0:0:0:0:
479,216,54164,2,0,L|379:220,1,85
395,220,54554,1,2,0:0:0:0:
396,220,55723,5,2,0:0:0:0:
464,136,55918,1,2,0:0:0:0:
304,32,56112,2,0,B|256:112|307:190|307:190|352:156|356:88,1,255,8|0,0:0|0:0,0:0:0:0:
296,16,56892,1,2,0:0:0:0:
176,260,57281,1,2,0:0:0:0:
424,148,57671,5,2,0:0:0:0:
404,139,57768,1,0,0:0:0:0:
385,131,57865,1,0,0:0:0:0:
364,124,57963,1,0,0:0:0:0:
344,118,58060,1,0,0:0:0:0:
323,112,58158,1,0,0:0:0:0:
303,108,58255,1,0,0:0:0:0:
282,105,58352,1,0,0:0:0:0:
260,104,58450,5,8,0:3:0:0:
248,144,58547,1,0,0:0:0:0:
218,173,58644,1,4,0:3:0:0:
178,184,58742,1,0,0:0:0:0:
137,172,58839,1,2,0:0:0:0:
108,142,58937,1,0,0:0:0:0:
98,101,59034,1,2,0:0:0:0:
110,61,59131,1,0,0:0:0:0:
140,32,59229,6,0,P|262:27|274:160,1,255,6|0,0:0|0:0,0:0:0:0:
154,169,60008,2,0,P|137:233|155:337,1,170,8|0,0:0|0:0,0:0:0:0:
244,249,60593,1,0,0:0:0:0:
205,100,60788,6,0,P|167:83|113:97,1,85,2|0,0:0|0:0,0:0:0:0:
284,155,61177,2,0,L|292:58,1,85,2|0,0:0|0:0,0:0:0:0:
369,209,61567,2,0,P|379:274|466:319,1,170,8|0,0:0|0:0,0:0:0:0:
244,249,62346,6,0,B|163:254|163:254|140:192|45:183|7:257,1,255,2|0,0:0|0:0,0:0:0:0:
89,287,63125,1,8,0:0:0:0:
245,145,63515,2,0,L|340:140,1,85
129,255,63905,5,2,0:0:0:0:
304,337,64294,2,0,P|323:275|319:233,1,85,2|0,0:0|0:0,0:0:0:0:
171,231,64684,2,0,P|144:154|173:47,1,170,8|2,0:0|0:0,0:0:0:0:
92,284,65268,1,2,0:0:0:0:
251,180,65463,6,0,L|423:176,1,170,2|0,1:2|0:0,0:0:0:0:
484,76,66047,1,0,0:0:0:0:
328,106,66242,2,0,P|305:181|372:280,1,170,8|0,0:0|0:0,0:0:0:0:
256,356,66827,1,0,0:0:0:0:
169,260,67021,6,0,P|206:185|184:106,1,170,0|2,0:0|0:0,0:0:0:0:
89,322,67801,2,0,L|279:360,1,170,8|0,0:0|0:0,0:0:0:0:
386,290,68385,1,0,0:0:0:0:
266,203,68580,6,0,L|262:111,1,85,2|0,0:0|0:0,0:0:0:0:
432,188,68970,2,0,L|428:272,1,85
273,339,69359,2,0,P|218:333|176:294,1,85,8|0,0:0|0:0,0:0:0:0:
58,224,69749,2,0,P|94:203|136:202,1,85
299,249,70138,5,2,0:0:0:0:
367,117,70333,1,8,0:0:0:0:
221,225,70528,1,8,0:0:0:0:
453,297,70918,5,8,0:0:0:0:
308,330,71112,1,2,0:0:0:0:
350,154,71307,1,8,0:0:0:0:
350,154,71697,6,0,B|269:141|242:218|242:218|185:218|185:218|151:279,1,255,6|0,0:0|0:0,0:0:0:0:
325,235,72476,2,0,P|295:158|191:99,1,170,8|0,0:0|0:0,0:0:0:0:
103,145,73060,1,0,0:0:0:0:
202,264,73255,6,0,P|208:312|209:351,1,85,2|0,0:0|0:0,0:0:0:0:
325,235,73645,2,0,P|326:192|332:150,1,85,2|0,0:0|0:0,0:0:0:0:
437,274,74034,2,0,P|401:328|283:344,1,170,8|0,0:0|0:0,0:0:0:0:
180,186,74814,6,0,P|183:118|31:110,1,255,2|0,0:0|0:0,0:0:0:0:
106,147,75593,2,0,L|297:139,1,170,8|0,0:0|0:0,0:0:0:0:
368,84,76177,1,0,0:0:0:0:
334,226,76372,5,0,0:0:0:0:
457,24,76762,1,2,0:0:0:0:
334,226,77151,2,0,P|286:243|178:172,1,170,8|0,0:0|0:0,0:0:0:0:
249,83,77736,1,0,0:0:0:0:
383,147,77931,6,0,L|389:334,1,170,2|0,0:0|0:0,0:0:0:0:
462,179,78515,1,0,0:0:0:0:
354,66,78710,2,0,B|301:50|270:69|236:92|181:66,1,170,8|0,0:0|0:0,0:0:0:0:
97,22,79294,1,0,0:0:0:0:
132,152,79489,5,2,0:0:0:0:
354,66,79879,1,2,0:0:0:0:
288,222,80268,2,0,P|274:267|274:315,1,85,8|0,0:0|0:0,0:0:0:0:
366,270,80658,2,0,P|430:264|468:266,1,85
343,347,81047,6,0,B|253:352|201:326|201:326|179:284|191:223|216:198,1,255,2|0,1:2|0:0,0:0:0:0:
305,188,81827,2,0,P|314:119|225:61,1,170,8|0,0:0|0:0,0:0:0:0:
92,102,82411,1,0,0:0:0:0:
237,143,82606,5,2,0:0:0:0:
455,59,82996,1,2,0:0:0:0:
424,296,83385,1,8,0:0:0:0:
331,220,83580,1,8,0:0:0:0:
441,179,83775,2,0,L|535:177,1,85,8|0,0:0|0:0,0:0:0:0:
354,241,84164,6,0,P|341:294|335:342,1,85,2|0,0:0|0:0,0:0:0:0:
219,266,84554,1,0,0:0:0:0:
113,60,84944,2,0,P|179:76|295:41,1,170,8|0,0:0|0:0,0:0:0:0:
369,2,85528,1,0,0:0:0:0:
393,154,85723,6,0,L|395:255,1,85
490,103,86112,1,2,0:0:0:0:
312,88,86502,2,0,L|314:189,1,85,8|0,0:0|0:0,0:0:0:0:
238,324,86892,1,0,0:0:0:0:
204,136,87281,6,0,L|202:51,1,85,2|0,0:0|0:0,0:0:0:0:
313,172,87671,1,0,0:0:0:0:
112,201,88060,2,0,P|62:159|46:116,1,85,8|0,0:0|0:0,0:0:0:0:
204,136,88450,1,0,0:0:0:0:
348,229,88840,6,0,L|243:232,1,85,2|0,0:0|0:0,0:0:0:0:
112,201,89229,1,2,0:0:0:0:
223,324,89619,2,0,L|325:321,1,85,8|0,0:0|0:0,0:0:0:0:
445,234,90008,2,0,P|429:178|390:142,1,85,2|0,0:0|0:0,0:0:0:0:
274,123,90398,6,0,L|279:225,1,85,2|0,0:0|0:0,0:0:0:0:
364,68,90788,1,0,0:0:0:0:
178,175,91177,1,8,0:0:0:0:
212,32,91372,1,8,0:3:0:0:
364,68,91567,1,4,0:3:0:0:
330,209,91762,1,2,0:0:0:0:
240,71,91957,6,0,B|155:71|155:71|96:114|138:178|138:178|180:239|119:313,1,340,2|0,0:0|0:0,0:0:0:0:
29,309,92931,2,0,P|35:267|58:232,1,85
256,192,93515,5,0,1:0:0:0:
256,192,93710,12,0,95853,0:0:0:0:
192,82,96632,5,0,3:0:0:0:
192,303,97021,1,0,3:0:0:0:
383,192,97411,1,0,3:0:0:0:
383,204,98190,5,0,3:0:0:0:
182,297,98580,1,0,3:0:0:0:
202,77,98969,1,0,3:0:0:0:
220,376,99554,1,0,0:0:0:0:
108,356,99749,6,0,B|81:282|125:218|125:218|173:206,1,170,2|0,0:0|0:0,0:0:0:0:
216,300,100333,1,0,0:0:0:0:
172,128,100528,2,0,L|76:140,1,85,8|0,0:0|0:0,0:0:0:0:
172,32,100918,2,0,L|344:48,1,170,0|0,0:0|3:0,0:0:0:0:
504,196,101697,2,0,L|412:208,1,85,2|0,0:0|0:0,0:0:0:0:
276,152,102086,2,0,P|296:224|260:328,1,170,8|0,0:0|0:0,0:0:0:0:
176,368,102671,1,0,0:0:0:0:
100,236,102866,6,0,L|192:244,1,85,2|0,0:0|0:0,0:0:0:0:
100,144,103255,2,0,L|16:151,1,85
156,56,103645,1,8,0:0:0:0:
100,236,103840,1,0,0:0:0:0:
15,152,104034,2,0,P|-5:233|16:315,2,170,0|0|2,0:0|3:0|0:0,0:0:0:0:
200,32,105203,1,8,0:0:0:0:
392,140,105593,1,0,0:0:0:0:
280,152,105788,1,0,0:0:0:0:
481,56,105983,6,0,P|505:136|485:218,1,170,2|0,0:0|0:0,0:0:0:0:
392,280,106567,1,0,0:0:0:0:
204,224,106762,2,0,L|212:332,1,85,8|0,0:0|0:0,0:0:0:0:
376,356,107151,2,0,L|383:271,1,85
296,200,107541,2,0,B|356:205|356:205|390:228|390:228|459:234,2,170,0|2|8,3:0|0:0|0:0,0:0:0:0:
180,12,108710,2,0,P|184:48|172:104,1,85
16,196,109099,6,0,P|96:167|184:184,1,170,2|0,0:0|0:0,0:0:0:0:
284,376,109879,1,8,0:0:0:0:
104,252,110268,1,0,0:0:0:0:
188,180,110463,1,0,0:0:0:0:
292,212,110658,2,0,B|297:156|297:156|277:110|277:110|283:46,1,170,0|2,3:0|0:0,0:0:0:0:
282,46,111242,1,0,0:0:0:0:
428,92,111437,2,0,L|424:6,2,85,8|0|0,0:0|0:0|0:0,0:0:0:0:
500,176,112021,1,0,0:0:0:0:
449,320,112216,6,0,P|364:292|280:304,1,170,2|0,0:0|0:0,0:0:0:0:
204,376,112801,1,0,0:0:0:0:
56,296,112996,2,0,L|52:208,1,85,8|0,0:0|0:0,0:0:0:0:
4,112,113385,2,0,P|89:140|173:128,1,170,0|0,0:0|3:0,0:0:0:0:
352,8,114164,1,2,0:0:0:0:
492,176,114554,2,0,L|408:172,1,85,8|0,0:0|0:0,0:0:0:0:
296,172,114944,1,0,0:0:0:0:
448,84,115138,1,0,0:0:0:0:
504,276,115333,6,0,B|374:269|374:269|341:239,1,170,2|0,0:0|0:0,0:0:0:0:
288,148,115918,1,0,0:0:0:0:
152,216,116112,2,0,L|156:300,1,85,8|0,0:0|0:0,0:0:0:0:
284,332,116502,2,0,P|314:253|296:172,2,170,0|0|2,0:0|3:0|0:0,0:0:0:0:
68,372,117671,1,8,0:0:0:0:
4,160,118060,1,0,0:0:0:0:
96,224,118255,1,0,0:0:0:0:
188,160,118450,6,0,L|196:56,1,85,2|0,0:0|0:0,0:0:0:0:
112,0,118840,1,0,0:0:0:0:
284,44,119034,2,0,B|296:128|296:128|272:213,1,170
332,308,119619,1,0,0:0:0:0:
444,316,119814,1,0,0:0:0:0:
500,220,120008,2,0,B|488:136|488:136|511:50,2,170,0|2|8,3:0|0:0|0:0,0:0:0:0:
324,356,121177,1,0,0:0:0:0:
208,168,121567,6,0,P|300:148|400:184,1,170,2|0,0:0|0:0,0:0:0:0:
400,272,122151,1,0,0:0:0:0:
236,364,122346,2,0,L|228:272,1,85,8|0,0:0|0:0,0:0:0:0:
196,172,122736,2,0,L|216:-4,2,170,0|0|2,0:0|3:0|0:0,0:0:0:0:
116,248,123710,1,0,0:0:0:0:
124,88,123905,2,0,P|212:76|296:116,1,170,8|0,0:0|0:0,0:0:0:0:
316,212,124489,1,0,0:0:0:0:
464,180,124684,6,0,B|469:116|469:116|453:74|453:74|460:-5,1,170,2|0,1:2|0:0,0:0:0:0:
276,136,125463,2,0,B|270:197|270:197|287:238|287:238|281:302,1,170,8|0,0:0|0:0,0:0:0:0:
196,372,126047,1,0,0:0:0:0:
108,304,126242,2,0,L|12:308,1,85,0|0,3:0|0:0,0:0:0:0:
8,196,126632,2,0,L|92:192,1,85,2|0,0:0|0:0,0:0:0:0:
200,72,127021,2,0,P|280:96|363:83,1,170,8|0,0:0|0:0,0:0:0:0:
448,12,127606,1,0,0:0:0:0:
512,188,127801,6,0,B|428:168|428:168|347:189,1,170,2|0,0:0|0:0,0:0:0:0:
224,372,128580,2,0,B|244:288|244:288|222:207,1,170,8|0,0:0|0:0,0:0:0:0:
116,172,129164,1,0,0:0:0:0:
60,268,129359,2,0,L|160:264,1,85,0|0,3:0|0:0,0:0:0:0:
252,296,129749,1,2,0:0:0:0:
180,88,130138,1,8,0:0:0:0:
68,280,130528,2,0,L|168:276,1,85
308,372,130918,6,0,P|292:292|324:196,1,170,2|0,0:0|0:0,0:0:0:0:
420,172,131502,1,0,0:0:0:0:
504,304,131697,2,0,L|416:296,1,85,8|0,0:0|0:0,0:0:0:0:
328,200,132086,2,0,L|243:207,1,85
164,284,132476,1,0,3:0:0:0:
12,124,132866,1,2,0:0:0:0:
208,20,133255,2,0,B|202:83|202:83|183:118|183:118|177:184,1,170,8|0,0:0|0:0,0:0:0:0:
200,292,133840,1,0,0:0:0:0:
268,128,134034,6,0,P|192:100|92:116,1,170,2|0,0:0|0:0,0:0:0:0:
48,204,134619,1,0,0:0:0:0:
196,308,134814,2,0,L|192:208,1,85,8|0,0:0|0:0,0:0:0:0:
264,140,135203,1,2,0:0:0:0:
112,272,135398,1,2,0:0:0:0:
312,264,135593,1,8,0:0:0:0:
308,276,135983,1,8,0:0:0:0:
304,288,136372,1,2,0:0:0:0:
300,300,136762,5,2,0:0:0:0:
160,188,136957,1,2,0:0:0:0:
320,108,137151,2,0,B|368:188|317:266|317:266|272:232|268:164,1,255,8|0,0:0|0:0,0:0:0:0:
328,96,137931,1,2,0:0:0:0:
444,284,138320,1,2,0:0:0:0:
224,312,138710,5,2,0:0:0:0:
232,283,138807,1,0,0:0:0:0:
245,256,138904,1,0,0:0:0:0:
263,233,139002,1,0,0:0:0:0:
285,213,139099,1,0,0:0:0:0:
310,197,139197,1,0,0:0:0:0:
338,186,139294,1,0,0:0:0:0:
367,181,139391,1,0,0:0:0:0:
397,181,139489,5,8,0:3:0:0:
436,168,139586,1,0,0:0:0:0:
465,137,139683,1,4,0:3:0:0:
474,96,139781,1,0,0:0:0:0:
461,56,139878,1,2,0:0:0:0:
430,28,139976,1,0,0:0:0:0:
390,18,140073,1,2,0:0:0:0:
349,30,140170,1,0,0:0:0:0:
320,61,140268,6,0,P|256:88|152:40,1,170,6|0,0:0|0:0,0:0:0:0:
28,228,141047,2,0,P|92:201|196:249,1,170,8|0,0:0|0:0,0:0:0:0:
244,296,141632,1,0,0:0:0:0:
348,184,141827,6,0,L|336:64,1,85,2|0,0:0|0:0,0:0:0:0:
428,276,142216,2,0,L|419:360,1,85,2|0,0:0|0:0,0:0:0:0:
196,360,142606,2,0,P|164:284|240:216,1,170,8|0,0:0|0:0,0:0:0:0:
348,184,143190,1,0,0:0:0:0:
244,88,143385,6,0,B|187:79|187:79|67:95,1,170,2|0,0:0|0:0,0:0:0:0:
75,303,144164,2,0,B|123:311|123:311|243:295,1,170,8|0,0:0|0:0,0:0:0:0:
352,232,144749,1,0,0:0:0:0:
496,348,144944,6,0,L|484:200,1,127.5,2|0,0:0|0:0,0:0:0:0:
468,184,145333,1,2,0:0:0:0:
512,84,145528,1,0,0:0:0:0:
368,36,145723,2,0,P|300:36|260:124,1,170,8|2,0:0|0:0,0:0:0:0:
352,232,146307,1,0,0:0:0:0:
220,280,146502,6,0,P|164:268|188:180,1,170,2|0,1:2|0:0,0:0:0:0:
364,252,147086,1,0,0:0:0:0:
247,348,147281,2,0,P|164:350|97:300,1,170,8|0,0:0|0:0,0:0:0:0:
16,192,147866,1,0,0:0:0:0:
156,140,148060,6,0,P|160:88|152:48,1,85,2|0,0:0|0:0,0:0:0:0:
256,216,148450,2,0,P|252:268|260:308,1,85,2|0,0:0|0:0,0:0:0:0:
344,184,148840,2,0,L|164:168,1,170,8|0,0:0|0:0,0:0:0:0:
124,260,149424,1,0,0:0:0:0:
292,108,149619,6,0,L|192:100,1,85,2|0,0:0|0:0,0:0:0:0:
372,180,150008,2,0,L|472:172,1,85
292,247,150398,2,0,P|277:287|284:329,1,85,8|0,0:0|0:0,0:0:0:0:
136,232,150788,2,0,P|177:224|209:197,1,85
208,364,151177,2,0,P|178:334|137:322,1,85,2|8,0:0|0:0,0:0:0:0:
55,162,151567,6,0,L|139:149,1,85,2|0,0:0|0:0,0:0:0:0:
332,96,151957,2,0,P|316:48|284:20,1,85,8|8,0:0|0:0,0:0:0:0:
232,204,152346,2,0,L|224:292,1,85,2|0,0:0|0:0,0:0:0:0:
408,356,152736,6,0,L|392:152,1,170,6|0,0:0|0:0,0:0:0:0:
160,332,153515,2,0,P|96:336|32:256,1,170,8|0,0:0|0:0,0:0:0:0:
4,176,154099,1,0,0:0:0:0:
168,128,154294,6,0,P|172:92|164:28,1,85,2|0,0:0|0:0,0:0:0:0:
220,196,154684,2,0,L|324:184,1,85,2|0,0:0|0:0,0:0:0:0:
124,256,155073,2,0,L|20:244,1,85,8|0,0:0|0:0,0:0:0:0:
232,340,155463,2,0,L|336:328,1,85
384,164,155853,6,0,B|416:240|400:292|400:292|424:276|428:252,1,170,2|0,0:0|0:0,0:0:0:0:
312,52,156632,2,0,P|232:50|156:104,1,170,8|0,0:0|0:0,0:0:0:0:
220,196,157216,1,0,0:0:0:0:
144,312,157411,6,0,B|52:316|52:316|16:300,1,127.5,2|0,0:0|0:0,0:0:0:0:
0,232,157801,2,0,L|8:128,1,85,2|0,0:0|0:0,0:0:0:0:
200,172,158190,2,0,L|193:87,1,85,8|0,0:0|0:0,0:0:0:0:
288,292,158580,1,0,0:0:0:0:
124,224,158775,1,0,0:0:0:0:
320,112,158970,6,0,P|404:104|468:184,1,170,2|0,0:0|0:0,0:0:0:0:
440,296,159554,1,0,0:0:0:0:
288,207,159749,2,0,L|372:192,1,85,8|0,0:0|0:0,0:0:0:0:
264,316,160138,1,0,0:0:0:0:
200,172,160333,1,0,0:0:0:0:
56,260,160528,6,0,P|48:312|56:344,1,85,2|0,0:0|0:0,0:0:0:0:
176,148,160918,2,0,L|80:156,1,85,2|0,0:0|0:0,0:0:0:0:
176,328,161307,1,8,0:0:0:0:
64,180,161502,1,0,0:0:0:0:
164,356,161697,2,0,L|268:364,1,85
356,264,162086,6,0,B|402:249|402:249|444:312|524:296,2,170,2|0|8,0:0|0:0|0:0,0:0:0:0:
498,111,163255,2,0,L|492:196,1,85,0|0,0:0|3:0,0:0:0:0:
308,136,163645,6,0,L|301:51,1,85,2|0,0:0|0:0,0:0:0:0:
244,220,164034,2,0,P|192:228|136:204,1,85,2|0,0:0|0:0,0:0:0:0:
80,40,164424,1,8,0:3:0:0:
132,208,164619,1,8,0:3:0:0:
208,64,164814,1,4,0:3:0:0:
16,184,165008,1,2,0:0:0:0:
228,92,165203,6,0,P|274:95|340:112,1,85,2|0,0:0|0:0,0:0:0:0:
508,196,165593,2,0,P|508:244|492:280,1,85
416,112,165983,2,0,L|428:16,1,85,8|0,0:0|0:0,0:0:0:0:
308,184,166372,2,0,L|312:276,1,85
228,92,166762,5,2,0:0:0:0:
400,136,166957,1,0,0:0:0:0:
300,308,167151,1,2,0:0:0:0:
436,252,167346,1,0,0:0:0:0:
220,216,167541,2,0,P|160:220|120:244,1,85,8|0,0:0|0:0,0:0:0:0:
44,360,167931,2,0,L|64:260,1,85
40,80,168320,5,2,0:0:0:0:
0,192,168515,1,0,0:0:0:0:
145,92,168710,2,0,P|186:83|228:92,1,85
332,232,169099,2,0,L|320:52,2,170,8|0|2,0:0|0:0|0:0,0:0:0:0:
440,168,170073,5,0,0:0:0:0:
248,280,170268,2,0,L|244:172,1,85,2|0,0:0|0:0,0:0:0:0:
400,340,170658,2,0,P|359:352|317:349,1,85,8|0,0:0|0:0,0:0:0:0:
152,304,171047,2,0,P|192:291|234:294,1,85
88,364,171437,5,2,0:0:0:0:
0,244,171632,1,0,0:0:0:0:
112,152,171827,2,0,P|116:108|104:48,1,85
228,188,172216,2,0,B|280:180|280:180|339:186|339:186|424:172,1,170,8|4,0:0|0:3,0:0:0:0:
288,104,172801,1,0,0:0:0:0:
348,264,172996,5,2,0:0:0:0:
232,272,173190,2,0,P|208:312|292:304,1,170
196,188,173775,2,0,P|144:188|96:180,1,85,8|4,0:0|0:3,0:0:0:0:
312,76,174164,2,0,P|264:88|220:88,1,85,2|0,0:0|0:0,0:0:0:0:
52,16,174554,6,0,P|63:99|48:183,1,170,6|0,0:0|0:0,0:0:0:0:
0,284,175138,1,0,0:0:0:0:
184,348,175333,2,0,B|176:304|176:304|188:252,1,85,8|0,0:0|0:0,0:0:0:0:
232,164,175723,2,0,B|188:172|188:172|136:160,1,85,2|0,0:0|0:0,0:0:0:0:
76,80,176112,1,0,0:3:0:0:
296,76,176502,1,2,0:0:0:0:
185,264,176892,1,8,0:0:0:0:
184,44,177281,1,0,0:0:0:0:
332,92,177476,1,0,0:0:0:0:
464,8,177671,6,0,B|484:60|484:60|464:196,1,170,2|0,0:0|0:0,0:0:0:0:
364,212,178255,1,0,0:0:0:0:
424,356,178450,2,0,P|464:360|508:348,1,85,8|0,0:0|0:0,0:0:0:0:
324,208,178840,2,0,P|336:288|336:380,2,170,2|0|2,0:0|0:3|0:0,0:0:0:0:
200,24,180008,1,8,0:0:0:0:
92,40,180203,1,0,0:0:0:0:
80,148,180398,1,2,0:0:0:0:
176,204,180593,1,0,0:0:0:0:
248,120,180788,6,0,P|204:128|136:116,1,85,6|0,0:0|0:0,0:0:0:0:
8,35,181177,2,0,P|50:31|91:39,1,85
164,212,181567,2,0,L|160:296,1,85,8|0,0:0|0:0,0:0:0:0:
56,328,181957,2,0,L|47:158,2,170,2|0|2,0:0|0:3|0:0,0:0:0:0:
156,380,182931,1,0,0:0:0:0:
240,208,183125,2,0,L|148:200,1,85,8|0,0:0|0:0,0:0:0:0:
340,304,183515,2,0,L|255:311,1,85
424,156,183905,5,6,0:0:0:0:
304,84,184099,1,0,0:0:0:0:
348,312,184294,1,8,0:0:0:0:
504,176,184489,1,0,0:0:0:0:
504,176,184586,1,0,0:0:0:0:
504,176,184684,2,0,P|508:236|484:312,1,113.333333333333,8|0,0:0|0:0,0:0:0:0:
432,328,185073,2,0,L|332:320,1,85,2|0,0:0|0:0,0:0:0:0:
240,356,185463,5,0,3:0:0:0:
384,188,185853,1,8,0:3:0:0:
172,252,186242,2,0,P|144:168|168:72,1,170,4|8,0:3|0:0,0:0:0:0:
256,36,186827,1,2,0:0:0:0:
324,156,187021,6,0,B|101:180|101:180|33:174|2:111,1,340,6|8,0:0|0:0,0:0:0:0:
7,121,188190,1,0,0:0:0:0:
96,56,188385,1,0,0:0:0:0:
200,88,188580,2,0,B|216:168|216:168|192:260,1,170,0|2,3:0|0:0,0:0:0:0:
380,372,189359,2,0,B|357:286|357:286|373:206,1,170,8|0,0:0|0:0,0:0:0:0:
468,152,189944,1,0,0:0:0:0:
428,48,190138,6,0,B|336:-4|256:64|256:64|280:144|280:144|260:236,1,340,2|8,0:0|0:0,0:0:0:0:
176,280,191112,1,0,0:0:0:0:
244,368,191307,2,0,L|340:360,1,85
430,225,191697,2,0,B|344:237|344:237|254:209,1,170,2|2,0:0|0:0,0:0:0:0:
176,280,192281,1,0,0:0:0:0:
320,148,192476,2,0,B|324:104|324:104|312:44,1,85,8|0,0:0|0:0,0:0:0:0:
440,220,192866,2,0,B|431:260|431:260|435:304,1,85,2|2,0:0|0:0,0:0:0:0:
280,376,193255,6,0,B|192:372|176:280|176:280|200:68,1,340,2|8,1:2|0:0,0:0:0:0:
196,96,194424,1,0,0:0:0:0:
272,176,194619,1,0,0:0:0:0:
92,176,194814,1,2,0:0:0:0:
256,28,195203,1,2,0:0:0:0:
188,240,195593,2,0,P|269:259|351:239,1,170,8|0,0:0|0:0,0:0:0:0:
404,144,196177,1,0,0:0:0:0:
356,44,196372,5,2,0:0:0:0:
176,240,196762,1,0,0:0:0:0:
488,184,197151,1,8,0:0:0:0:
276,120,197541,1,0,0:0:0:0:
216,212,197736,1,0,0:0:0:0:
272,308,197931,2,0,P|312:316|376:304,1,85,8|8,0:0|0:0,0:0:0:0:
212,204,198320,1,2,0:0:0:0:
60,364,198710,1,8,0:0:0:0:
108,264,198905,1,8,0:0:0:0:
32,184,199099,2,0,L|36:68,1,85,8|0,0:0|0:0,0:0:0:0:
150,26,199489,6,0,B|150:94|150:94|173:132|173:132|152:178|157:242|202:260|250:254|276:212|257:169,1,340,6|8,0:0|0:0,0:0:0:0:
259,176,200658,1,0,0:0:0:0:
331,121,200853,1,0,0:0:0:0:
360,238,201047,2,0,P|315:316|214:348,1,170,0|2,0:0|0:0,0:0:0:0:
65,215,201827,2,0,L|235:219,1,170,8|0,0:0|0:0,0:0:0:0:
380,201,202606,6,0,P|440:100|309:160,1,340,2|8,0:0|0:0,0:0:0:0:
302,135,203775,1,0,0:0:0:0:
222,71,203970,1,0,0:0:0:0:
186,207,204164,2,0,P|182:264|220:373,1,170,2|2,0:0|0:0,0:0:0:0:
278,232,204749,1,0,0:0:0:0:
222,71,204944,2,0,P|160:69|116:83,1,85,8|0,0:0|0:0,0:0:0:0:
56,177,205333,1,0,0:0:0:0:
186,207,205528,1,0,0:0:0:0:
50,80,205723,6,0,B|3:171|21:263|21:263|103:263|150:343,1,340,2|0,1:2|0:0,0:0:0:0:
145,335,206892,1,0,0:0:0:0:
226,293,207086,1,0,0:0:0:0:
369,203,207281,2,0,P|384:149|387:28,1,170,0|2,0:0|0:0,0:0:0:0:
258,176,208060,2,0,P|156:193|80:182,1,170,8|0,0:0|0:0,0:0:0:0:
0,141,208645,1,0,0:0:0:0:
84,37,208840,6,0,L|189:34,1,85,2|0,0:0|0:0,0:0:0:0:
341,84,209229,2,0,L|236:81,1,85
153,172,209619,2,0,P|133:223|134:268,1,85,8|0,0:0|0:0,0:0:0:0:
294,324,210008,2,0,P|283:255|271:228,1,85
221,114,210398,1,2,0:0:0:0:
351,130,210593,2,0,L|451:126,1,85,8|8,0:0|0:0,0:0:0:0:
277,241,211177,1,8,0:0:0:0:
153,172,211372,1,8,0:0:0:0:
222,59,211567,2,0,L|322:55,1,85,2|0,0:0|0:0,0:0:0:0:
387,241,211957,6,0,P|371:298|169:228,1,340,6|8,0:0|0:0,0:0:0:0:
168,244,213125,1,0,0:0:0:0:
252,139,213320,1,0,0:0:0:0:
140,56,213515,2,0,B|85:27|31:58|31:58|19:139,1,170,0|2,0:0|0:0,0:0:0:0:
168,244,214294,1,8,0:0:0:0:
305,125,214684,2,0,P|379:112|423:117,1,85
432,224,215073,6,0,L|440:28,2,170,2|0|8,1:2|0:0|0:0,0:1:0:0:
276,344,216242,1,0,0:0:0:0:
216,276,216437,1,0,0:0:0:0:
160,204,216632,6,0,L|48:216,1,85,2|0,0:0|0:0,0:0:0:0:
292,312,217021,2,0,L|376:302,1,85,2|0,0:0|0:0,0:0:0:0:
176,348,217411,2,0,L|60:332,1,85,8|0,0:0|0:0,0:0:0:0:
288,224,217801,2,0,L|404:208,1,85
208,136,218190,6,0,P|200:84|212:16,2,85,2|0|0,0:0|0:0|0:0,0:0:0:0:
460,288,218970,2,0,L|291:311,1,170,8|0,0:0|0:0,0:0:0:0:
176,348,219554,1,0,0:0:0:0:
72,248,219749,6,0,P|80:188|96:164,1,85,2|0,0:0|0:0,0:0:0:0:
288,184,220138,2,0,P|238:211|199:212,1,85,2|0,0:0|0:0,0:0:0:0:
168,48,220528,1,8,0:0:0:0:
112,160,220723,1,0,0:0:0:0:
272,60,220918,2,0,L|380:52,1,85
464,220,221307,6,0,L|276:212,1,170,2|0,0:0|0:0,0:0:0:0:
216,276,221892,1,0,0:0:0:0:
112,160,222086,2,0,L|120:52,1,85,8|0,0:0|0:0,0:0:0:0:
200,128,222476,1,8,0:3:0:0:
60,228,222671,1,4,0:3:0:0:
144,328,222866,6,0,L|136:220,1,85,2|0,0:0|0:0,0:0:0:0:
248,112,223255,2,0,L|241:196,1,85,4|0,0:3|0:0,0:0:0:0:
288,336,223645,1,8,0:0:0:0:
384,196,223840,1,0,0:0:0:0:
248,212,224034,1,2,0:0:0:0:
408,336,224229,1,0,0:0:0:0:
456,164,224424,6,0,P|420:128|316:160,1,170,6|8,0:0|0:0,0:0:0:0:
288,336,225008,1,8,0:0:0:0:
384,196,225203,2,0,L|376:308,1,85,8|0,0:0|0:0,0:0:0:0:
176,316,225593,1,8,0:0:0:0:
248,212,225788,1,8,0:0:0:0:
276,348,225983,6,0,L|184:340,1,85,0|8,3:0|0:3,0:0:0:0:
24,272,226372,1,4,0:3:0:0:
164,236,226567,1,2,0:0:0:0:
72,136,226762,1,8,0:0:0:0:
76,344,226957,1,4,0:3:0:0:
220,296,227151,1,8,0:3:0:0:
84,224,227346,1,0,0:0:0:0:
276,160,227541,1,0,1:0:0:0:
256,192,227638,12,0,230268,0:0:0:0:
452,336,230658,5,8,0:0:0:0:
456,324,231437,1,2,0:0:0:0:
460,312,232216,2,0,P|456:252|460:176,1,127.500004863739,2|0,0:0|0:0,0:0:0:0:
364,48,232996,2,0,P|367:111|363:175,1,127.500004863739,2|0,0:0|0:0,0:0:0:0:
256,300,233775,6,0,P|136:296|-12:300,2,255.000009727478,8|2|2,0:0|0:0|0:0,0:0:0:0:
412,356,235723,1,2,0:0:0:0:
464,292,235918,1,0,0:0:0:0:
448,212,236112,1,2,0:0:0:0:
284,192,236502,2,0,L|288:128,1,63.7500024318696
248,56,236892,6,0,P|375:59|502:55,2,255.000009727478,8|2|2,0:0|0:0|0:0,0:0:0:0:
88,20,238840,1,0,0:0:0:0:
12,168,239229,2,0,P|80:152|156:168,1,127.500004863739,2|0,0:0|0:0,0:0:0:0:
192,224,239814,1,0,0:0:0:0:
80,280,240008,6,0,B|69:119|69:119|76:56|128:40,1,255.000009727478,2|2,0:0|0:0,0:0:0:0:
256,132,241177,1,2,0:0:0:0:
288,56,241372,2,0,L|340:64,1,42.5000016212464
344,80,241567,6,0,L|348:8,1,63.7500024318696,8|0,0:0|0:0,0:0:0:0:
444,64,241957,2,0,L|447:127,1,63.7500024318696
456,212,242346,1,2,0:0:0:0:
460,48,242736,1,0,0:0:0:0:
448,228,243125,6,0,B|436:332|436:332|476:312,1,127.500004863739
360,188,243905,2,0,P|296:180|220:232,1,144.500002756119
184,288,244489,1,0,0:0:0:0:
308,356,244684,1,0,0:0:0:0:
284,144,245073,1,0,0:0:0:0:
140,200,245463,1,0,0:0:0:0:
328,280,245853,1,0,0:0:0:0:
460,180,246242,6,0,L|468:28,2,144.500002756119
488,352,247411,1,0,0:0:0:0:
408,316,247606,1,0,0:0:0:0:
328,280,247801,2,0,L|228:296,1,72.2500013780594
168,344,248190,2,0,L|96:332,1,72.2500013780594
32,268,248580,2,0,P|24:192|72:120,1,144.500002756119
120,84,249164,1,0,0:0:0:0:
188,136,249359,6,0,L|376:124,1,144.500002756119
416,84,249944,1,0,0:0:0:0:
460,244,250138,2,0,L|272:232,1,144.500002756119
248,296,250723,1,0,0:0:0:0:
112,192,250918,2,0,P|184:168|208:172,1,72.2500013780594
324,224,251307,2,0,L|316:140,1,72.2500013780594
240,304,251697,2,0,L|233:375,1,72.2500013780594
408,320,252086,2,0,L|400:236,1,72.2500013780594
480,44,252476,6,0,B|497:143|405:231|405:231|349:191|349:119,1,340,4|0,0:0|0:0,0:0:0:0:
349,120,253645,1,2,0:0:0:0:
349,120,255593,6,0,L|345:96,15,21.25
341,78,256372,6,0,P|428:48|516:76,1,170,10|0,0:0|0:0,0:0:0:0:
512,176,256957,1,2,0:0:0:0:
424,240,257151,2,0,L|432:120,1,85,2|0,0:0|0:0,0:0:0:0:
268,8,257541,1,8,0:0:0:0:
259,131,257736,1,8,0:0:0:0:
427,21,257931,1,8,0:3:0:0:
436,145,258126,1,4,0:3:0:0:
341,78,258320,1,4,0:3:0:0:
504,92,258515,1,2,0:0:0:0:
328,224,258710,6,0,P|248:219|156:227,1,170,6|0,0:0|0:0,0:0:0:0:
20,52,259489,2,0,P|100:60|192:52,1,170,8|0,0:0|0:0,0:0:0:0:
292,8,260074,1,0,0:0:0:0:
372,84,260269,6,0,P|372:124|368:176,1,85,2|0,0:0|0:0,0:0:0:0:
464,304,260658,2,0,P|460:260|464:216,1,85,2|0,0:0|0:0,0:0:0:0:
460,36,261048,2,0,B|380:68|380:68|260:44,1,170,8|0,0:0|0:0,0:0:0:0:
192,12,261632,1,0,0:0:0:0:
172,176,261827,6,0,B|256:156|256:156|352:176,1,170,2|0,0:0|0:0,0:0:0:0:
136,268,262606,2,0,P|96:192|105:107,1,170,8|0,0:0|0:0,0:0:0:0:
180,28,263191,1,0,0:0:0:0:
12,16,263385,2,0,P|20:60|12:116,1,85
0,264,263775,2,0,P|43:256|92:260,1,85
256,376,264165,2,0,B|250:308|250:308|266:266|266:266|260:194,1,170,8|0,0:0|0:0,0:0:0:0:
176,136,264749,1,0,0:0:0:0:
292,24,264944,6,0,P|380:36|476:32,1,170,2|0,1:2|0:0,0:0:0:0:
508,132,265528,1,0,0:0:0:0:
472,236,265723,2,0,P|380:233|304:245,1,170,8|0,0:0|0:0,0:0:0:0:
256,348,266308,1,0,0:0:0:0:
144,240,266502,6,0,L|148:148,1,85,8|8,0:0|0:0,0:0:0:0:
36,284,266892,2,0,P|32:336|40:376,1,85,2|0,0:0|0:0,0:0:0:0:
232,204,267282,2,0,P|148:208|52:188,1,170,8|0,0:0|0:0,0:0:0:0:
12,92,267866,1,0,0:0:0:0:
248,8,268060,6,0,B|236:96|236:184|236:184|320:236|424:168,1,340,0|8,1:2|0:0,0:0:0:0:
492,40,269099,1,8,0:0:0:0:
500,276,269359,1,8,0:0:0:0:
332,128,269619,2,0,L|325:170,3,42.5,2|0|8|8,0:0|0:0|0:0|0:0,0:0:0:0:
312,192,270008,5,8,0:0:0:0:
318,229,270105,1,8,0:0:0:0:
324,267,270202,1,8,0:0:0:0:
330,305,270300,1,8,0:0:0:0:
336,343,270397,1,8,0:3:0:0:
240,288,270593,1,8,0:3:0:0:
404,228,270788,2,0,P|448:224|504:228,1,85,4|4,0:3|0:3,0:0:0:0:
232,300,271178,6,0,P|220:228|248:116,1,170,6|0,0:0|0:0,0:0:0:0:
460,144,271957,2,0,P|472:236|452:312,1,170,8|0,0:0|0:0,0:0:0:0:
348,344,272541,1,0,0:0:0:0:
300,244,272736,6,0,L|400:240,1,85,2|0,0:0|0:0,0:0:0:0:
464,128,273126,2,0,L|364:124,1,85,2|0,0:0|0:0,0:0:0:0:
236,12,273515,2,0,P|244:48|244:96,1,85,8|0,0:0|0:0,0:0:0:0:
180,188,273905,1,0,0:0:0:0:
72,180,274099,1,8,0:0:0:0:
180,357,274295,6,0,P|172:281|180:185,1,170,2|0,0:0|0:0,0:0:0:0:
356,52,275074,2,0,P|276:60|168:56,1,170,8|0,0:0|0:0,0:0:0:0:
84,12,275658,1,0,0:0:0:0:
8,180,275853,6,0,P|51:175|112:180,1,85,2|8,0:0|0:0,0:0:0:0:
224,292,276243,2,0,P|232:248|224:188,1,85,2|0,0:0|0:0,0:0:0:0:
348,80,276632,2,0,P|344:124|352:172,1,85,8|0,0:0|0:0,0:0:0:0:
436,236,277022,1,0,0:0:0:0:
424,128,277217,1,0,0:0:0:0:
336,292,277412,6,0,P|420:276|520:284,1,170,2|0,0:0|0:0,0:0:0:0:
503,280,277996,1,0,0:0:0:0:
328,368,278191,2,0,L|320:272,1,85,8|0,0:0|0:0,0:0:0:0:
240,176,278580,1,0,0:0:0:0:
424,192,278775,1,0,0:0:0:0:
268,92,278970,6,0,L|168:100,1,85,2|0,0:0|0:0,0:0:0:0:
48,192,279360,2,0,L|148:196,1,85,2|0,0:0|0:0,0:0:0:0:
276,84,279749,1,8,0:0:0:0:
96,116,279944,1,0,0:0:0:0:
224,288,280139,2,0,P|236:244|228:180,1,85,2|0,0:0|0:0,0:0:0:0:
184,28,280528,6,0,P|100:40|-8:32,2,170,2|0|8,0:0|0:0|0:0,0:0:0:0:
328,196,281697,2,0,P|286:193|234:197,1,85
164,272,282087,6,0,L|171:357,1,85,2|0,0:0|0:0,0:0:0:0:
32,280,282476,2,0,L|40:184,1,85,2|0,0:0|0:0,0:0:0:0:
15,35,282866,1,8,0:0:0:0:
156,160,283061,1,0,0:0:0:0:
28,184,283256,1,0,0:0:0:0:
116,52,283450,1,0,0:0:0:0:
256,120,283645,6,0,P|300:120|356:112,1,85,2|0,0:0|0:0,0:0:0:0:
444,76,284035,2,0,P|448:120|440:160,1,85
312,300,284425,2,0,L|420:308,1,85,8|0,0:0|0:0,0:0:0:0:
512,168,284814,2,0,L|420:176,1,85
256,120,285204,5,2,0:0:0:0:
312,300,285399,1,0,0:0:0:0:
427,175,285593,1,2,0:0:0:0:
320,208,285788,1,0,0:0:0:0:
404,64,285983,2,0,L|504:72,1,85,8|0,0:0|0:0,0:0:0:0:
256,120,286373,2,0,L|168:128,1,85
4,44,286762,5,6,0:0:0:0:
40,264,286957,1,0,0:0:0:0:
96,104,287152,2,0,L|199:112,1,85,8|0,0:0|0:0,0:0:0:0:
325,235,287541,2,0,P|348:140|328:48,1,191.250007295609,8|0,0:0|0:0,0:0:0:0:
168,4,288320,5,2,0:0:0:0:
88,76,288515,2,0,P|80:136|92:208,1,127.500004863739
172,272,289099,1,2,0:0:0:0:
172,272,289294,1,0,0:0:0:0:
270,234,289489,6,0,P|462:124|357:319,1,595
358,320,293775,5,2,0:0:0:0:
252,188,294164,1,2,0:0:0:0:
352,40,294574,1,8,0:0:0:0:
411,99,294768,1,0,0:0:0:0:
471,159,294963,1,2,0:0:0:0:
471,159,296100,5,2,0:0:0:0:
411,99,296282,1,0,0:0:0:0:
352,40,296465,1,2,0:0:0:0:
287,104,296683,2,0,L|292:140,2,21.25
284,152,296885,1,2,0:0:0:0:
204,340,297274,1,2,0:0:0:0:
48,272,297664,5,8,0:0:0:0:
109,210,297887,1,0,0:0:0:0:
168,150,298104,1,2,0:0:0:0:
47,29,298539,1,2,0:0:0:0:
124,352,299332,1,0,0:0:0:0:
124,352,299464,5,2,0:0:0:0:
256,100,299964,1,2,0:0:0:0:
8,336,300564,1,2,0:0:0:0:
348,288,301365,1,2,0:0:0:0:
256,192,302505,12,0,312007,0:0:0:0:
