osu file format v9

[General]
AudioFilename: 03 _.ogg
AudioLeadIn: 0
PreviewTime: 75812
Countdown: 0
SampleSet: Normal
StackLeniency: 0.7
Mode: 0
LetterboxInBreaks: 1

[Editor]
DistanceSpacing: 1
BeatDivisor: 4
GridSize: 8

[Metadata]
Title:Houyoku no Prophecia
Artist:ELISA
Creator:terametis
Version:Normal
Source:
Tags:

[Difficulty]
HPDrainRate:3
CircleSize:3
OverallDifficulty:3
ApproachRate:4
SliderMultiplier:1.2
SliderTickRate:1

[Events]
//Background and Video events
0,0,"bb1.jpg"
//Break Periods
2,16012,28207
//Storyboard Layer 0 (Background)
//Storyboard Layer 1 (Fail)
//Storyboard Layer 2 (Pass)
//Storyboard Layer 3 (Foreground)
//Storyboard Sound Samples
//Background Colour Transformations
3,100,163,162,255

[TimingPoints]
2098,428.571428571429,4,1,1,75,1,0
29526,-100,4,1,2,75,0,0
58669,-100,4,1,2,75,0,0
75812,-100,4,1,1,75,0,1
116955,-100,4,1,1,75,0,0

[HitObjects]
80,88,2098,2,0,B|136:48|192:88,1,120,4|2
312,88,2955,1,0
256,192,3383,1,2
200,296,3812,2,0,B|256:336|312:296,1,120,4|2
256,192,4669,1,0
192,88,5098,1,2
312,88,5526,6,0,B|368:48|424:88,1,120,0|2
336,168,6383,2,0,B|376:224|336:280,1,120,0|2
256,192,7240,2,0,B|200:232|144:192,1,120,0|2
200,88,8098,2,0,B|200:24,2,60,2|2|0
144,192,8955,6,0,B|104:248|144:304,1,120,4|2
224,216,9812,2,0,B|280:256|336:216,1,120,0|2
248,136,10669,2,0,B|288:80|248:24,1,120,4|2
168,112,11526,2,0,B|112:72|56:112,1,120,0|2
112,216,12383,5,4
256,24,13240,1,0
400,216,14098,1,2
256,192,14312,12,0,15812
88,72,29527,6,0,B|144:32|200:72,1,120,0|8
256,176,30384,2,0,B|200:216|144:176,1,120,0|8
200,72,31241,2,0,B|256:32|312:72,1,120,0|8
368,176,32098,1,0
152,280,32955,6,0,B|112:224|152:168,1,120,0|8
256,224,33812,1,0
360,168,34669,2,0,B|400:224|360:280,1,120,0|8
256,224,35527,1,0
64,80,36384,6,0,B|120:40|176:80,1,120,0|8
232,184,37241,2,0,B|296:184,2,60,0|0|8
176,288,38098,2,0,B|120:328|64:288,1,120,0|8
120,184,38955,1,0
120,184,39169,1,0
120,184,39384,1,8
176,80,39812,6,0,B|232:40|288:80,1,120,0|8
344,184,40669,1,0
288,288,41098,1,8
256,192,41527,12,0,43241
256,192,43669,5,8
152,136,44098,2,0,B|112:192|152:248,1,120,0|8
256,312,44955,1,0
360,248,45384,2,0,B|400:192|360:136,1,120,8|0
136,40,46669,6,0,B|192:0|248:40,1,120,0|8
192,144,47527,1,0
280,368,48384,2,0,B|336:408|392:368,1,120,0|8
336,264,49241,1,0
192,72,50098,6,0,B|168:104|168:104|184:144|168:184,1,120,0|8
256,264,50955,1,0
256,264,51169,1,0
256,264,51384,1,8
352,184,51812,2,0,B|336:144|352:104|352:104|328:72,1,120,0|8
208,72,52669,2,0,B|128:72,2,60,0|0|8
328,72,53527,6,0,B|368:128|328:184,1,120,0|8
208,184,54384,2,0,B|168:240|208:296,1,120,0|8
328,296,55241,1,0
448,296,55669,1,8
384,192,56098,2,0,B|384:128,2,60,0|0|8
328,296,56955,6,0,B|328:360,2,60,0|0|8
328,235,57598,2,0,B|272:195|216:235,1,120,0|0
216,294,58241,1,8
96,296,58669,6,0,B|56:240|96:184,1,120,0|8
152,184,59312,2,0,B|200:184|200:184|208:168|216:184|216:184|264:184,1,120
328,184,59955,1,8
448,184,60384,2,0,B|488:128|448:72,1,120,0|8
392,72,61027,2,0,B|336:72|336:72|328:88|320:72|320:72|280:72,1,120
216,72,61669,2,0,B|216:8,2,60,8|0|0
216,192,62527,5,8
216,192,62741,2,0,B|160:152|104:192,1,120,0|0
104,248,63384,2,0,B|104:328,2,60,8|0|0
104,128,64241,1,8
104,128,64455,2,0,B|104:56|184:56,1,120,0|0
240,56,65098,1,8
360,56,65527,6,0,B|416:16|472:56,1,120,2|8
456,112,66169,2,0,B|456:160|456:160|472:168|456:176|456:176|456:224,1,120
472,280,66812,2,0,B|416:320|360:280,1,120,8|2
240,280,67669,1,8
240,280,67884,2,0,B|280:224|240:168,1,120,0|0
184,168,68527,2,0,B|104:168,2,60,8|0|0
304,168,69384,5,8
424,168,69812,2,0,B|464:224|424:280,1,120,0|8
364,279,70455,1,0
304,279,70669,2,0,B|304:351,2,60,0|0|8
304,218,71312,2,0,B|304:154,1,60
256,192,72384,12,4,75384
256,192,75812,6,0,B|296:136|256:80,1,120,4|0
256,80,76455,1,2
128,80,76884,1,2
128,80,77098,2,0,B|88:136|128:192,1,120,0|2
128,312,77955,1,0
128,312,78169,2,0,B|256:312,1,120,2|2
248,312,78812,1,0
368,312,79241,5,2
456,232,79669,1,0
456,232,79884,1,2
368,144,80312,1,2
368,144,80527,2,0,B|272:144|272:144|256:160,1,120,0|2
192,264,81384,2,0,B|128:264,2,60,0|2|2
256,264,82027,1,2
312,264,82241,1,0
432,264,82669,6,0,B|416:224|432:184|432:184|408:152,1,120,2|0
408,153,83312,1,2
328,64,83741,2,0,B|392:64,2,60,2|0|2
264,64,84384,1,2
144,64,84812,2,0,B|144:128,1,60,0|2
144,248,85455,2,0,B|80:248,2,60,2|0|2
208,248,86098,5,4
448,248,86955,1,6
328,40,87812,2,0,B|368:96|328:152,1,120,2|0
240,232,88669,2,0,B|176:232,2,60,2|2|0
328,312,89527,5,2
432,256,89955,1,0
432,256,90169,2,0,B|472:200|432:144,1,120,2|2
432,144,90812,1,0
328,200,91241,1,2
224,256,91669,1,0
224,256,91883,2,0,B|264:200|224:144,1,120,2|2
224,144,92526,1,0
104,144,92955,6,0,B|104:72,2,60,2|2|0
104,208,93598,2,0,B|104:264|104:264|144:312,1,120,2|2
144,313,94241,1,0
264,312,94669,1,2
384,312,95098,2,0,B|384:376,2,60,0|2|2
384,251,95741,1,2
384,191,95955,1,0
392,72,96384,6,0,B|336:32|280:72,1,120,2|0
280,71,97027,1,2
216,168,97455,2,0,B|280:168,2,60,2|0|2
152,168,98098,2,0,B|112:224|152:280,1,120,2|0
208,280,98741,1,2
328,280,99169,2,0,B|328:352,2,60,2|0|2
328,216,99812,5,4
88,216,100669,1,4
208,8,101527,2,0,B|168:64|208:120,1,120,2|0
280,216,102384,2,0,B|344:216,2,60,2|2|0
160,216,103241,6,0,B|120:160|160:104,1,120,8|2
280,104,104098,1,2
280,224,104527,1,2
280,344,104955,2,0,B|224:384|168:344,1,120,8|2
48,344,105812,1,2
48,224,106241,1,2
48,104,106669,6,0,B|104:64|160:104,1,120,8|2
160,224,107527,2,0,B|216:264|272:224,1,120,8|2
272,104,108384,2,0,B|328:64|384:104,1,120,8|2
384,224,109241,2,0,B|448:224,2,60,2|2|8
384,344,110098,6,0,B|328:384|272:344,1,120,8|2
184,264,110955,2,0,B|120:264,2,60,2|2|8
244,264,111598,1,2
303,264,111812,2,0,B|343:208|303:152,1,120,8|2
184,152,112669,2,0,B|120:152,2,60,2|2|8
244,152,113312,1,2
304,152,113527,5,12
432,352,114384,1,12
192,352,115241,1,12
256,192,115455,12,0,116955
