osu file format v9

[General]
AudioFilename: 03 _.ogg
AudioLeadIn: 0
PreviewTime: 75812
Countdown: 0
SampleSet: Normal
StackLeniency: 0.7
Mode: 0
LetterboxInBreaks: 1

[Editor]
DistanceSpacing: 1.2
BeatDivisor: 4
GridSize: 8

[Metadata]
Title:Houyoku no Prophecia
Artist:ELISA
Creator:terametis
Version:Insane
Source:
Tags:

[Difficulty]
HPDrainRate:6
CircleSize:4
OverallDifficulty:7
ApproachRate:8
SliderMultiplier:1.8
SliderTickRate:1

[Events]
//Background and Video events
0,0,"bb1.jpg"
//Break Periods
2,16012,28777
//Storyboard Layer 0 (Background)
//Storyboard Layer 1 (Fail)
//Storyboard Layer 2 (Pass)
//Storyboard Layer 3 (Foreground)
//Storyboard Sound Samples
//Background Colour Transformations
3,100,163,162,255

[TimingPoints]
2098,428.571428571429,4,1,1,75,1,0
29526,-100,4,1,2,75,0,0
58669,-100,4,1,2,75,0,0
75812,-66.6666666666667,4,1,1,75,0,1
89419,-66.6666666666667,4,1,1,75,0,0
89527,-66.6666666666667,4,1,1,75,0,1
116955,-66.6666666666667,4,1,1,50,0,0

[HitObjects]
112,136,2098,2,0,B|184:80|280:80,1,180,12|0
368,80,2740,1,2
320,8,2955,1,8
240,160,3169,1,0
408,160,3383,1,2
408,248,3598,6,0,B|336:304|240:304,1,180,12|2
152,304,4240,1,0
200,376,4455,1,2
280,224,4669,1,8
112,224,4883,1,0
152,304,5098,1,2
192,224,5312,6,0,B|208:288|264:320|336:296,1,180,12|2
392,224,5955,1,8
336,152,6169,1,2
280,224,6383,1,2
336,152,6598,1,2
280,80,6812,1,8
224,152,7026,2,0,B|184:120|96:192|48:152,1,180,2|2
56,64,7669,1,8
136,112,7883,2,0,B|104:152|176:240|136:288,1,180,2|2
56,328,8526,1,8
240,328,8955,6,0,B|328:328|400:256,1,180,12|0
400,168,9598,1,2
320,208,9812,1,8
240,168,10026,1,0
320,128,10240,1,2
320,208,10455,6,0,B|264:264|152:264,1,180,12|2
64,264,11098,1,0
104,344,11312,1,2
152,264,11526,1,8
104,184,11740,1,0
64,264,11955,1,2
152,264,12169,6,0,B|208:184|152:96,1,180,12|2
88,32,12812,1,8
72,120,13026,2,0,B|152:72|248:120,1,180,2|2
312,176,13669,1,8
224,184,13883,2,0,B|224:96|336:56,1,180,2|0
424,56,14526,1,2
256,192,14633,12,0,15812
136,72,29527,5,0
136,72,29741,1,0
248,72,29955,2,0,B|288:32|328:72,1,90,8|0
336,72,30276,1,0
344,72,30384,1,0
352,72,30490,1,0
360,72,30598,1,0
448,152,30812,2,0,B|488:192|448:232,1,90,8|0
360,304,31240,5,0
360,304,31455,1,0
240,304,31669,2,0,B|200:344|160:304,1,90,8|0
152,304,31990,1,0
144,304,32098,1,0
136,304,32205,1,0
128,304,32312,1,0
56,208,32527,1,8
176,208,32741,1,0
256,120,32955,5,0
256,120,33169,1,0
376,120,33384,1,8
464,176,33598,1,0
464,184,33705,1,0
464,192,33812,1,0
464,200,33919,1,0
464,208,34026,1,0
376,296,34241,1,8
320,208,34455,1,0
376,120,34669,5,0
264,296,34884,1,0
264,120,35098,1,8
376,296,35312,1,0
376,296,35419,1,0
376,296,35526,1,0
376,296,35633,1,0
376,296,35740,1,0
320,208,35955,1,8
264,296,36169,1,0
160,272,36384,5,0
216,184,36598,2,0,B|264:160|304:184,1,90,0|8
368,272,37027,1,0
368,280,37133,1,0
368,288,37240,1,0
304,360,37241,1,0
216,360,37455,1,0
216,360,37562,1,0
216,360,37669,1,8
264,272,37884,5,0
160,272,38098,1,0
216,184,38312,1,0
304,360,38527,1,8
128,360,38741,1,0
216,184,38955,1,0
160,88,39169,1,0
160,80,39277,1,0
160,72,39384,1,8
264,72,39598,5,0
368,88,39812,1,0
432,176,40027,1,0
160,96,40241,1,8
288,72,40455,1,0
328,192,40669,2,0,B|296:264|232:280,1,135
224,280,41098,1,8
120,280,41312,1,0
48,208,41527,5,0
128,136,41741,1,0
232,136,41955,1,8
312,208,42169,1,0
256,192,42384,12,0,43241
256,192,43455,5,0
192,280,43669,2,0,B|152:320|112:280,1,90,8|0
48,192,44098,1,0
112,104,44312,1,0
120,104,44419,1,0
128,104,44526,1,8
192,192,44740,1,0
248,288,44955,5,0
360,288,45169,1,0
416,192,45383,1,8
304,192,45598,1,0
360,288,45812,1,0
416,192,46026,1,0
416,184,46133,1,0
416,176,46240,1,8
360,88,46455,1,0
176,168,46669,5,0
40,160,46884,1,0
176,184,47098,2,0,B|224:184|216:208|264:208,1,90,8|0
264,208,47526,1,0
400,224,47741,1,0
264,224,47955,2,0,B|216:224|224:248|176:256,1,90,8|0
64,320,48384,5,0
0,176,48598,1,8
0,344,48812,1,0
64,200,49026,1,8
128,56,49241,1,0
83,56,49348,1,0
38,56,49455,1,0
64,200,49669,2,8,B|40:224|40:256|64:280,1,90,8|0
160,336,50098,5,0
256,280,50312,1,0
256,168,50526,1,8
160,224,50741,1,0
256,280,50955,1,0
352,224,51169,1,0
256,168,51384,1,8
256,280,51598,5,0
256,280,51705,1,0
256,280,51812,1,0
352,224,52026,1,0
448,280,52241,1,8
352,336,52455,1,0
352,224,52669,1,0
256,168,52884,1,0
160,224,53098,1,8
160,120,53312,5,0
256,168,53526,2,0,B|288:176|296:232|376:208,1,135
384,208,53955,1,8
456,256,54169,1,0
376,296,54384,1,0
328,280,54491,1,0
280,296,54598,1,0
192,320,54812,1,8
144,336,54919,1,0
96,320,55026,1,0
56,240,55241,5,0
96,160,55455,1,0
120,120,55562,1,0
160,96,55669,1,8
200,88,55776,1,0
240,96,55884,1,0
280,120,55991,1,0
304,160,56098,1,0
232,184,56312,1,0
256,224,56419,1,0
304,240,56527,1,8
352,224,56634,1,0
384,184,56741,1,0
464,160,56955,5,0
432,120,57062,1,0
384,104,57169,1,0
336,120,57276,1,0
304,160,57384,1,8
384,184,57598,1,0
352,224,57705,1,0
304,240,57812,1,0
256,224,57919,1,0
232,184,58027,1,0
232,144,58134,1,0
256,104,58241,1,8
304,80,58348,1,0
336,48,58455,1,0
360,8,58562,1,0
392,40,58669,6,0,B|464:96|384:176,1,135,2|0
392,160,59098,1,8
312,160,59312,1,0
400,160,59526,1,0
400,160,59634,1,0
400,160,59741,2,0,B|384:208|328:256|272:264,1,135,8|8
304,264,60169,2,0,B|216:272,1,90,0|2
208,272,60491,5,0
104,264,60705,1,0
104,264,60812,1,8
192,320,61026,1,0
304,320,61241,2,0,B|356:320,2,45,0|8|0
208,272,61669,1,0
162,272,61776,1,8
117,273,61884,2,0,B|69:273,2,45,0|0|2
256,184,62419,5,0
304,184,62526,1,8
200,128,62741,1,0
96,72,62955,1,0
51,72,63062,1,8
96,72,63169,1,0
208,104,63384,1,8
104,160,63598,1,0
216,184,63812,6,0,B|256:232|336:240,1,135,2|0
344,240,64241,1,8
248,288,64455,1,0
352,312,64669,1,0
392,296,64776,1,0
424,264,64884,1,8
440,224,64991,1,0
440,184,65098,1,0
424,144,65205,1,0
392,112,65312,1,0
296,64,65526,5,2
184,64,65741,1,0
240,160,65955,1,8
296,64,66169,1,0
72,64,66384,1,0
184,256,66598,1,0
296,64,66812,1,8
240,160,67026,1,0
240,160,67134,1,0
240,160,67241,1,2
240,160,67455,5,0
352,160,67669,1,8
296,64,67884,1,0
184,256,68098,1,0
408,256,68312,1,0
296,64,68526,1,8
384,8,68741,1,0
424,104,68955,6,0,B|464:128|472:200,1,90,2|0
376,240,69384,1,8
384,288,69491,1,0
352,320,69598,1,0
248,288,69812,1,0
216,320,69919,1,0
176,344,70027,1,0
136,344,70134,1,0
96,320,70241,1,8
64,288,70348,1,0
56,240,70455,1,0
160,216,70669,6,0,B|208:200|208:144,1,90,2|0
168,48,71098,1,8
128,72,71205,1,0
120,120,71312,1,0
160,216,71527,1,0
192,248,71634,1,0
232,272,71741,1,0
272,280,71848,1,0
312,272,71955,1,8
352,248,72062,1,0
384,216,72169,1,0
440,120,72384,5,10
296,8,72598,1,0
272,184,72812,1,0
440,120,73026,5,8
264,96,73241,1,0
320,264,73455,1,0
440,120,73669,5,8
272,184,73884,1,0
408,296,74098,1,0
440,120,74312,5,8
320,264,74526,1,8
496,296,74741,1,0
440,120,75384,5,6
88,88,75812,5,12
184,184,76026,1,2
184,320,76241,2,0,B|240:304|280:272|336:304,1,134.999995976687,0|2
440,328,76669,1,2
440,328,76776,1,2
440,328,76884,1,2
408,200,77098,1,0
480,88,77312,1,2
376,176,77526,5,8
256,248,77741,1,2
136,312,77955,2,0,B|88:264|112:232|96:184,1,134.999995976687,0|2
56,56,78384,1,2
56,56,78491,1,2
56,56,78598,1,2
160,136,78812,1,0
288,176,79026,1,2
248,304,79241,6,0,B|328:304|368:248|344:176|272:168|256:168,1,202.49999396503,8|2
288,184,79669,2,0,B|392:208|440:144|424:88,1,202.49999396503,0|0
416,88,80098,1,2
424,256,80312,1,2
424,256,80419,1,2
424,256,80526,1,0
248,152,80741,1,2
360,72,80955,5,8
264,168,81169,1,2
168,72,81384,1,0
80,164,81598,1,2
48,192,81705,1,2
160,312,81919,2,0,B|184:240,1,67.4999979883433,2|2
296,320,82241,1,0
336,328,82348,1,2
376,312,82455,1,2
416,304,82562,1,0
456,312,82669,1,8
424,104,82884,5,2
296,72,83098,1,0
216,184,83312,1,2
328,104,83526,1,2
328,104,83634,1,2
328,104,83741,1,2
192,104,83955,2,0,B|128:88|128:136|80:168,1,134.999995976687,0|2
184,276,84384,5,8
272,176,84598,1,2
160,248,84812,1,0
256,344,85026,1,2
376,280,85240,1,2
416,264,85348,1,2
448,240,85455,2,0,B|496:192|456:176|384:136,1,134.999995976687,2|0
288,216,85884,1,2
352,96,86098,5,8
216,120,86312,1,2
216,120,86419,1,2
216,120,86526,1,0
192,256,86741,2,0,B|136:264|96:256,1,67.4999979883433,2|2
360,128,87062,2,0,B|416:120|464:128,1,67.4999979883433,2|2
448,256,87384,1,0
312,248,87598,1,2
216,344,87812,5,8
216,304,87919,1,2
184,280,88026,1,2
168,240,88134,1,2
176,200,88241,1,0
200,168,88348,1,2
192,128,88455,1,2
296,80,88669,6,0,B|340:80|376:64,1,67.4999979883433,2|2
320,128,88884,2,0,B|304:160|264:168,1,67.4999979883433,2|2
352,160,89098,1,0
368,200,89205,1,2
400,224,89312,1,2
256,320,89526,5,12
96,296,89741,1,0
240,232,89955,1,2
184,224,90062,1,2
160,176,90169,1,0
320,176,90384,1,2
320,176,90491,1,2
320,176,90598,1,0
320,176,90705,2,0,B|360:144|403:152|424:96,1,134.999995976687,2|2
416,88,91026,1,0
216,64,91241,5,10
160,72,91348,1,2
112,56,91455,1,0
224,144,91669,1,2
272,168,91776,1,2
312,208,91884,1,0
112,224,92098,1,2
240,328,92312,1,0
296,320,92419,1,2
448,272,92634,2,0,B|408:248|368:240,1,67.4999979883433,2|0
232,200,92955,5,10
312,56,93169,1,0
464,112,93384,1,2
488,160,93491,1,2
464,208,93598,1,0
352,328,93812,2,0,B|304:304|288:264|288:216,1,134.999995976687,2|0
296,216,94134,1,2
200,296,94348,1,2
200,296,94455,1,0
80,188,94669,5,10
176,56,94884,1,0
176,56,94991,1,2
176,56,95098,2,0,B|192:104|248:152|336:160,1,134.999995976687,2|0
272,136,95419,2,0,B|320:128|360:112|360:112|400:176|400:176,1,134.999995976687,2|2
383,157,95741,1,0
383,157,95848,1,2
383,157,95955,1,2
440,312,96169,1,0
480,112,96384,5,10
328,64,96598,1,0
432,192,96812,1,2
432,192,96919,1,2
432,192,97026,1,0
264,160,97241,2,0,B|200:120|136:160,1,134.999995976687,2|0
128,168,97562,1,2
296,224,97776,1,2
296,224,97884,1,0
140,308,98098,5,10
312,280,98312,1,0
136,248,98526,1,2
136,248,98634,1,2
136,248,98741,2,0,B|224:248|184:216|272:216,1,134.999995976687,0|2
272,208,99062,1,2
272,208,99169,1,0
272,208,99276,1,2
200,48,99491,2,0,B|120:48,1,67.4999979883433,2|0
88,216,99812,5,8
240,168,100026,1,2
240,168,100134,1,2
240,168,100241,2,0,B|312:192|320:272,1,134.999995976687,2|2
360,96,100669,1,0
368,152,100776,1,2
344,200,100884,1,2
304,232,100991,1,2
256,256,101098,1,2
40,264,101312,5,0
112,184,101526,2,0,B|144:168|168:136|176:72,1,134.999995976687,10|0
184,72,101848,1,0
184,73,101955,2,0,B|216:89|240:121|248:185,1,134.999995976687,2|0
256,184,102276,1,0
256,184,102384,2,0,B|288:168|312:136|320:72,1,134.999995976687,2|0
328,72,102705,1,0
328,73,102812,2,0,B|360:89|384:121|392:185,1,134.999995976687,2|0
320,344,103241,6,0,B|248:320|160:352|120:304,1,202.49999396503,8|2
120,304,103669,1,2
56,144,103884,1,2
224,160,104098,1,0
224,160,104205,1,2
224,160,104312,2,0,B|272:136|304:168|360:120,1,134.999995976687
480,88,104741,6,0,B|488:176|440:216|504:312,1,202.49999396503,8|0
480,296,105169,2,0,B|424:304|400:288|328:304,1,134.999995976687,2|2
184,320,105598,1,2
320,224,105812,1,2
320,224,105919,1,2
320,224,106026,1,0
160,200,106241,2,0,B|120:168|144:128|72:96,1,134.999995976687,2|0
232,64,106669,5,8
232,64,106776,1,2
232,64,106884,2,0,B|304:72|312:120|336:144,1,134.999995976687,0|2
344,152,107205,1,2
344,152,107312,2,0,B|344:208|362:251|298:299,1,134.999995976687,0|2
328,288,107634,1,2
328,288,107741,2,0,B|252:348|188:292,1,134.999995976687,0|2
72,216,108169,1,0
232,240,108384,6,0,B|208:352|128:296|56:336,1,202.49999396503,8|2
64,336,108812,1,2
64,168,109026,2,0,B|128:168|168:88|264:160,1,202.49999396503,0|2
264,160,109455,1,0
136,256,109669,1,0
152,208,109776,1,2
192,168,109884,1,2
240,144,109991,1,2
296,144,110098,6,0,B|384:152|416:208,1,134.999995976687,8|0
488,312,110526,1,2
432,328,110634,1,2
384,312,110741,1,0
288,216,110955,2,0,B|248:176|168:152,1,134.999995976687,2|0
72,248,111384,1,2
120,264,111491,1,2
176,264,111598,1,0
312,248,111812,6,0,B|400:232|416:152,1,134.999995976687,8|0
376,40,112241,1,2
344,80,112348,1,2
328,128,112455,1,0
304,264,112669,6,0,B|288:336|216:360,1,134.999995976687,2|0
80,344,113098,1,2
104,296,113205,1,2
144,256,113312,1,0
256,192,113527,5,12
264,184,114384,1,12
272,176,115241,1,14
256,192,115455,12,0,116955
