osu file format v9

[General]
AudioFilename: 03 _.ogg
AudioLeadIn: 0
PreviewTime: 75812
Countdown: 0
SampleSet: Normal
StackLeniency: 0.7
Mode: 0
LetterboxInBreaks: 1

[Editor]
Bookmarks: 29527,75812
DistanceSpacing: 1
BeatDivisor: 4
GridSize: 8

[Metadata]
Title:Houyoku no Prophecia
Artist:ELISA
Creator:terametis
Version:Easy
Source:
Tags:

[Difficulty]
HPDrainRate:1
CircleSize:3
OverallDifficulty:1
ApproachRate:3
SliderMultiplier:0.8
SliderTickRate:1

[Events]
//Background and Video events
0,0,"bb1.jpg"
//Break Periods
2,16012,28087
//Storyboard Layer 0 (Background)
//Storyboard Layer 1 (Fail)
//Storyboard Layer 2 (Pass)
//Storyboard Layer 3 (Foreground)
//Storyboard Sound Samples
//Background Colour Transformations
3,100,163,162,255

[TimingPoints]
2098,428.571428571429,4,1,1,75,1,0
29526,-100,4,1,2,75,0,0
47098,-100,4,2,2,50,0,0
47527,-100,4,1,2,75,0,0
48812,-100,4,2,2,50,0,0
49241,-100,4,1,2,75,0,0
75812,-100,4,1,1,75,0,1
89419,-100,4,1,1,75,0,0
89527,-100,4,1,1,75,0,1
116958,-100,4,1,1,75,0,0

[HitObjects]
112,112,2098,2,0,B|184:48|256:112,1,160,4|0
256,272,3812,2,0,B|328:336|400:272,1,160,4|0
400,112,5526,5,4
240,112,6383,1,0
240,272,7240,1,4
80,272,8098,1,0
80,112,8955,6,0,B|240:112,1,160,4|0
400,112,10669,1,4
400,272,11526,1,0
240,280,12383,6,0,B|168:344|96:280,1,160,4|0
168,136,14098,1,2
256,192,14205,12,0,15812
112,96,29527,6,0,B|184:32|256:96,1,160,0|8
256,256,31241,2,0,B|184:320|112:256,1,160,0|8
256,176,32955,6,0,B|328:112|400:176,1,160,0|8
400,336,34669,2,0,B|328:400|256:336,1,160,0|8
120,256,36384,5,0
120,96,37241,1,8
280,96,38098,1,0
440,96,38955,1,8
256,192,39812,8,0,41527
256,192,42384,5,8
96,192,43241,6,0,B|32:120|96:48,1,160,0|8
240,120,44955,2,8,B|408:120,1,160,0|8
400,280,46669,5,0
320,304,47098,1,2
240,280,47527,1,8
104,192,48384,2,0,B|24:192,2,80,0|2|8
200,64,50098,6,0,B|240:112|240:112|288:88|336:112|336:112,1,160,0|8
328,272,51812,2,0,B|280:296|232:272|232:272|192:320,1,160,0|8
32,320,53527,6,0,B|-32:248|32:176,1,160,0|8
192,176,55241,2,0,B|128:248|192:320,1,160,0|8
336,248,56955,5,0
336,88,57812,1,8
176,88,58669,2,0,B|104:24|32:88,1,160,0|8
104,232,60384,5,0
104,312,60812,1,0
176,272,61241,1,8
336,272,62098,6,0,B|408:336|480:272,1,160,0|8
400,136,63812,1,0
400,56,64241,1,0
328,96,64669,1,8
168,96,65527,6,0,B|200:120|200:120|152:176|200:232,1,160,0|8
256,288,66812,1,0
312,232,67241,2,0,B|368:176|312:120|312:120|344:96,1,160,0|8
440,224,68955,6,0,B|416:312|336:336,1,160,0|8
176,336,70669,2,0,B|96:312|72:224,1,160,0|8
256,192,72384,12,4,75384
256,192,75812,2,0,B|320:120|256:48,1,160,4|0
96,48,77527,2,0,B|32:120|96:192,1,160,2|0
256,224,79241,5,2
416,192,80098,1,0
256,160,80955,1,2
176,136,81384,1,2
232,80,81812,1,0
392,80,82669,6,0,B|456:152|392:224,1,160,2|0
256,304,84384,2,0,B|216:328|176:304,2,80,2|2|0
368,192,86098,5,2
256,80,86955,1,0
144,192,87812,2,0,B|112:232|144:272,2,80,2|2|0
256,80,89527,6,0,B|328:16|400:80,1,160,4|0
392,160,90812,1,2
400,240,91241,2,0,B|328:304|256:240,1,160,2|0
256,80,92955,6,0,B|184:16|112:80,1,160,2|0
120,160,94240,1,2
112,240,94669,2,0,B|184:304|256:240,1,160,2|0
392,160,96384,6,0,B|472:160,2,80,2|2|0
312,160,97669,1,2
232,160,98098,2,0,B|160:96|88:160,1,160,2|0
88,320,99812,6,0,B|160:384|232:320,1,160,2|0
312,320,101098,1,2
272,248,101527,2,0,B|272:160,1,80,2|2
272,88,102384,1,0
424,48,103241,6,0,B|480:160|424:280,1,240,4|2
368,336,104955,2,0,B|256:392|136:336,1,240,4|2
176,264,106669,6,0,B|136:224|160:176,1,80,0|2
232,208,107527,2,0,B|272:176|320:208,1,80,0|2
280,272,108384,2,0,B|224:344|120:344|72:272,1,240,0|2
72,192,110098,6,0,B|72:96|72:96|112:48,1,160,4|0
176,96,111384,1,2
240,48,111812,2,0,B|280:96|280:96|280:192,1,160,4|0
336,250,113098,1,2
392,193,113527,5,4
256,112,114384,1,4
120,192,115241,1,4
256,192,115455,12,0,116955
