osu file format v4

[General]
AudioFilename: Tales of Memories - Euphoric Field (English).mp3
AudioLeadIn: 2000
AudioHash: 310661eebc087173dbfc078197d9c0a8
PreviewTime: -1
SampleSet: Normal
EditorBookmarks: 604,13555,45550,81105,105100,135856,161450,176783,201780

[Metadata]
Title:Eurphoic Field
Artist:ELISA
Creator:MaxwellDemon
Version:Hard

[Difficulty]
HPDrainRate:3
CircleSize:5
OverallDifficulty:4
SliderMultiplier: 1.4
SliderTickRate: 1

[Events]
0,0,"ef20-20a20tale20of20memories20-2-5.jpg"
2,81084,103965
3,0,0,64,64

[TimingPoints]
1225,400,4,1,0
13620,400,4,2,0
45620,400,4,1,0
105220,400,4,1,0
135810,400,4,2,0
167800,400,4,1,0
177390,400,4,2,0
199780,400,4,1,0

[HitObjects]
96,96,825,1,0,
160,96,1225,1,0,
224,96,1625,1,0,
352,96,2425,1,0,
416,96,2825,1,0,
480,128,3225,1,0,
416,160,4025,5,0,
352,160,4425,1,0,
288,160,4825,1,0,
160,160,5625,1,0,
96,160,6025,1,0,
32,160,6425,1,2,
32,160,6825,1,2,
32,96,7225,1,2,
96,96,7625,6,0,B|96:96|310:335|496:16,1,420
384,64,9225,5,0,
384,128,9625,1,0,
256,128,10425,2,0,B|256:128|256:304,7,140
256,192,14025,5,0,
320,192,14425,1,0,
416,144,15225,1,0,
416,80,15625,2,0,B|416:80|272:80,2,140
416,128,16825,1,0,
352,128,17225,1,0,
256,128,18025,1,0,
256,192,18425,1,0,
256,192,18825,2,0,B|256:192|368:256,1,140
384,192,20025,5,0,
320,80,20825,1,0,
256,192,21625,1,0,
256,192,22025,1,0,
256,192,22425,1,0,
128,192,23225,1,0,
128,192,23625,1,0,
192,192,24025,1,0,
256,192,24825,1,0,
336,192,26025,6,0,B|336:192|400:192,1,140
480,256,26825,1,0,
416,256,27225,1,0,
288,256,28025,1,0,
224,256,28425,1,0,
160,256,28825,1,0,
64,192,29625,1,0,
128,192,30025,2,0,B|128:192|240:192,2,140
256,192,31625,1,0,
448,96,33225,5,0,
384,96,33625,1,0,
208,144,34825,1,0,
208,208,35225,5,0,
96,256,36025,1,0,
96,192,36425,1,0,
96,128,36825,1,0,
64,96,37625,5,0,
128,96,38025,2,0,B|128:96|416:96,1,280
288,96,39625,1,0,
224,96,40025,2,0,B|224:96|112:144,1,140
96,96,40825,1,0,
160,96,41225,1,0,
224,160,42025,5,0,
224,288,42825,1,0,
288,288,43225,2,0,B|288:288|400:288,1,140
427,227,44025,1,0,
367,228,44425,1,0,
306,228,44825,1,0,
243,229,45225,1,0,
192,256,46025,5,0,
256,256,46425,1,0,
320,256,46825,1,2,
320,192,47225,1,2,
320,128,47625,1,4,
256,128,48025,2,0,B|256:128|-13:53|272:256,1,280
256,272,49225,2,4,B|256:272|384:272|427:278|483:272|448:176,7,140
384,192,52425,5,0,
384,192,52825,1,0,
384,192,53225,1,0,
384,128,53625,1,2,
384,64,54025,1,2,
384,64,54425,1,2,
384,64,54825,1,2,
384,64,55225,1,2,
256,192,55625,5,0,
192,192,56025,1,0,
128,192,56425,1,0,
128,128,56825,1,2,
192,128,57225,1,2,
256,128,57625,1,2,
320,128,58025,1,2,
320,128,58425,1,2,
384,128,58825,2,0,B|384:128|465:164|407:238|379:248|352:256,1,140
320,240,59625,1,0,
256,288,60025,5,0,
256,288,60425,1,2,
320,288,60825,1,0,
384,288,61225,1,2,
384,288,61625,1,2,
384,224,62025,2,0,B|384:224|395:120|432:176,1,140
416,288,63225,6,0,B|416:288|387:379|363:325,1,140
288,288,64025,1,0,
224,288,64425,1,0,
160,288,64825,1,0,
96,288,65225,2,0,B|96:288|-28:296|96:160,1,140
96,160,66025,1,0,
160,160,66425,5,2,
224,160,66825,1,2,
288,160,67225,1,2,
352,160,67625,1,2,
384,208,68025,1,2,
326,263,68425,2,0,B|326:263|438:263,2,140
256,288,69625,5,0,
192,288,70025,2,0,B|192:288|59:280|192:160,1,140
176,144,70825,2,0,B|176:144|272:135|221:229,1,140
192,288,71625,1,0,
256,288,72025,1,0,
256,224,72425,1,0,
256,224,72825,1,0,
256,160,73225,5,0,
256,160,73625,1,0,
304,112,74025,1,2,
368,144,74425,1,2,
432,144,74825,2,0,B|432:144|459:429|32:112,1,420
160,128,76425,6,0,B|160:128|71:60|272:0,1,140
256,32,77225,1,0,
256,96,77625,2,0,L|256:96|256:320,8,140
112,96,105225,6,0,B|112:96|256:96,1,140
304,96,106025,2,6,B|304:96|514:197|336:336,1,280
256,304,107625,1,0,
320,224,108425,2,0,B|320:224|176:224,1,140
128,288,109225,5,0,
192,288,109625,1,0,
256,288,110025,2,0,B|256:288|391:318|336:169|256:96,1,280
192,96,111225,5,2,
128,96,111625,1,0,
166,156,112025,1,0,
208,208,112425,1,0,
251,149,112825,1,2,
291,93,113225,2,0,B|291:93|411:190|432:144,5,140
352,96,115625,5,2,
416,96,116025,1,0,
416,160,116425,2,0,B|416:160|256:197,3,140
288,96,118425,1,0,
288,96,118825,1,0,
352,64,119225,1,2,
416,64,119625,6,4,C|416:64|293:116|475:221|272:272,1,560
224,256,121625,2,0,B|224:256|110:202|-81:100|328:93,1,420
352,96,123225,2,0,B|352:96|444:192|449:269|320:372|48:80,1,560
128,96,125225,5,2,
128,96,125625,1,2,
192,96,126025,2,0,B|192:96|43:172|124:257|130:294|382:252,1,420
416,256,127625,6,0,B|416:256|441:129|336:208,1,140
352,256,128425,1,2,
352,256,128825,1,2,
288,256,129225,2,0,B|288:256|516:202|361:126|256:128,1,280
224,128,130425,1,0,
224,128,130825,2,0,B|224:128|195:210|112:224,3,140
64,224,132425,5,2,
96,176,132825,2,0,B|96:176|136:82|172:78|224:176,1,140
224,176,133625,2,0,B|224:176|199:132|259:53|352:112,1,140
352,128,134425,1,2,
352,128,134825,1,2,
352,192,135225,1,0,
256,272,136025,5,0,
256,208,136425,1,0,
256,144,136825,2,0,B|256:144|84:242|432:256,1,280
384,192,138025,2,0,B|384:192|431:133|399:60|332:25|246:10|191:7|64:48,1,420
39,72,139625,1,0,
96,160,140425,2,0,B|96:160|64:240,3,140
96,288,142025,2,0,B|96:288|149:176|240:288,1,140
256,160,143225,5,0,
256,224,143625,2,0,B|256:224|304:224,1,140
416,288,145225,2,0,C|416:288|268:293|384:195|206:224|349:101|128:144,1,840
256,192,148425,5,0,
320,192,148825,1,0,
448,192,149625,1,0,
384,128,150025,1,0,
272,64,150825,1,0,
384,64,151625,5,0,
384,128,152025,1,0,
256,192,153225,1,0,
416,256,154825,5,0,
320,192,155625,1,0,
256,192,156025,1,0,
128,192,156825,1,0,
128,128,157225,1,0,
192,128,158025,2,0,C|192:128|284:111|416:96,1,140
384,96,158825,5,0,
320,96,159625,2,0,C|320:96|318:24|192:96,1,140
224,96,160425,1,2,
224,96,160825,1,2,
160,128,161225,5,0,
160,192,161625,1,0,
160,256,162025,2,0,C|160:256|147:327|204:364|336:336,1,280
464,336,163625,1,0,
416,288,164025,1,0,
368,224,164425,1,0,
320,176,164825,5,2,
320,176,165225,1,2,
256,160,165625,1,0,
128,192,166425,5,0,
128,128,166825,1,2,
128,128,167225,1,2,
192,128,167625,1,0,
256,128,168025,1,0,
256,256,168825,1,0,
192,256,169225,2,0,C|192:256|118:228|192:128,1,140
192,128,170025,6,0,C|192:128|191:59|304:96,1,140
288,128,170825,1,0,
288,128,171225,1,2,
288,128,171625,1,2,
288,128,172025,1,0,
288,192,172425,5,0,
288,256,172825,1,2,
288,256,173225,1,2,
224,256,173625,1,0,
160,256,174025,1,2,
160,192,174425,1,2,
160,128,174825,1,2,
275,168,175625,5,2,
320,208,176025,1,2,
320,144,176425,1,2,
320,80,176825,1,0,
192,96,177225,5,0,
80,128,178025,1,0,
128,224,178825,2,0,B|128:224|120:300|120:383|368:208,1,280
256,224,180025,1,0,
320,224,180425,1,0,
384,224,180825,2,2,B|384:224|519:212|541:142|320:128,1,280
336,192,182025,2,0,B|336:192|332:119|245:59|162:119|117:210|80:288,1,280
128,320,183625,2,0,B|128:320|212:326|256:240,1,140
304,256,184425,6,0,B|304:256|367:397|432:128,1,140
384,192,185225,2,0,B|384:192|240:128,1,140
192,112,186025,5,0,
256,112,186425,2,0,B|256:112|325:3|410:123|448:176,5,140
384,160,188825,5,0,
320,160,189225,1,0,
208,160,190025,2,0,B|208:160|-7:279|160:64,1,280
208,32,191225,2,0,B|208:32|328:22|224:160,1,140
208,160,192025,2,0,B|208:160|119:210|64:96,1,140
96,64,192825,5,0,
160,64,193225,2,0,B|160:64|208:163|288:112,1,140
288,64,194025,1,0,
288,192,194825,1,0,
224,192,195225,1,0,
224,320,196025,6,0,B|224:320|219:231|352:272,1,140
448,320,197225,2,0,B|448:320|537:298|352:192,1,140
352,192,198025,2,0,B|352:192|316:79|245:140|224:144,1,140
224,192,198825,1,0,
224,128,199225,1,0,
288,128,199625,1,0,
352,128,200025,1,0,
352,128,200825,1,0,
416,128,201225,5,2,
416,192,201625,1,2,
416,288,202425,1,0,
352,288,202825,1,0,
352,224,203225,1,0,
352,160,203625,1,0,
288,160,204025,5,0,
224,128,204425,1,0,
224,64,204825,1,0,
288,64,205225,1,0,
352,64,205625,1,0,
416,64,206025,5,2,
416,128,206425,2,0,B|416:128|475:197|384:256|304:208,1,140
320,192,207225,1,4,
256,192,207625,2,0,B|256:192|191:288|112:192,1,140
128,160,208425,1,4,
96,112,208825,1,4,
160,112,209225,6,0,B|160:112|193:191|247:200|304:96,1,140
288,96,210025,2,0,B|288:96|345:14|416:80,1,140
416,128,210825,1,2,
480,128,211225,1,2,
480,192,211625,1,0,
480,256,212025,1,0,
416,256,212425,2,0,B|416:256|381:354|304:272,1,140
288,224,213225,1,4,
224,224,213625,1,0,
160,224,214025,5,0,
96,224,214425,1,2,
96,224,214825,1,2,
96,224,215225,1,2,
128,96,216025,6,0,B|128:96|157:190|256:144,1,140
256,96,216825,1,2,
256,96,217225,1,2,
192,128,217625,1,0,
192,192,218025,1,0,
256,192,218425,1,0,
320,192,218825,1,0,
384,192,219225,1,0,
416,256,219625,5,0,
416,192,220025,1,0,
416,128,220425,1,0,
352,128,220825,1,0,
288,160,221225,1,4,
192,112,222425,1,0,
256,112,222825,1,2,
256,112,223225,1,2,
320,96,223625,1,0,
384,96,224025,5,0,
448,96,224425,1,0,
448,160,224825,1,0,
448,224,225225,1,0,
256,192,225625,12,0,230425
