osu file format v4

[General]
AudioFilename: Tales of Memories - Euphoric Field (English).mp3
AudioLeadIn: 2000
AudioHash: 310661eebc087173dbfc078197d9c0a8
PreviewTime: -1
SampleSet: Normal
EditorBookmarks: 604,13555,45550,81105,105100,135856,161450,176783,201780

[Metadata]
Title:Eurphoic Field
Artist:ELISA
Creator:MaxwellDemon
Version:Easy

[Difficulty]
HPDrainRate:3
CircleSize:5
OverallDifficulty:3
SliderMultiplier: 1.4
SliderTickRate: 1

[Events]
0,0,"ef20-20a20tale20of20memories20-2-5.jpg"
2,80860,104908
3,0,0,64,64

[TimingPoints]
1225,400,4,1,0
13620,400,4,2,0
45620,400,4,1,0
135810,400,4,2,0
167800,400,4,1,0
177800,400,4,2,0
199780,400,4,1,0

[HitObjects]
32,96,425,1,0,
96,96,825,1,0,
224,96,1625,1,0,
352,96,2425,1,0,
416,96,2825,1,0,
416,160,4025,5,0,
352,160,4425,1,0,
224,160,5225,1,0,
160,160,5625,1,0,
32,160,6425,1,2,
32,160,6825,1,2,
160,64,7625,5,0,
224,64,8025,1,0,
384,64,9225,1,0,
384,128,9625,1,0,
320,128,10025,1,0,
256,128,10425,2,0,B|256:128|256:304,7,140
256,192,14025,5,0,
416,80,15625,1,0,
416,80,16825,1,0,
256,192,18825,1,0,
384,192,20025,1,0,
256,192,22025,1,0,
64,192,23625,1,0,
192,192,24825,1,0,
336,192,26025,6,0,B|336:192|400:192,1,140
256,192,28025,1,0,
64,192,29625,1,0,
256,192,31625,1,0,
384,96,33625,5,0,
320,96,34025,1,0,
160,256,35625,1,0,
96,256,36025,1,0,
96,128,36825,1,0,
64,96,38025,5,0,
352,96,39625,1,0,
224,96,40825,1,0,
352,256,42825,1,0,
224,256,44025,1,0,
128,256,45625,5,0,
192,256,46025,1,0,
320,256,46825,1,0,
320,144,47625,1,0,
256,144,48025,1,0,
256,272,49225,2,0,B|256:272|384:272|427:278|483:272|448:176,5,140
256,192,51625,5,0,
256,192,52425,1,0,
384,192,53225,1,0,
384,128,53625,1,2,
384,64,54025,1,2,
384,64,54425,1,2,
384,64,54825,1,0,
384,64,55225,1,0,
256,192,55625,5,0,
128,192,56425,1,0,
128,128,56825,1,0,
288,128,58025,1,0,
288,128,58425,1,0,
416,128,59225,1,0,
256,288,60025,5,0,
256,288,60425,1,2,
384,288,61225,1,2,
384,288,61625,1,0,
384,160,62425,1,0,
416,288,63225,5,0,
288,288,64025,1,0,
224,288,64425,1,0,
96,288,65225,1,0,
96,160,66025,1,0,
160,160,66425,5,2,
224,160,66825,1,2,
288,160,67225,1,2,
352,160,67625,1,2,
384,208,68025,1,0,
448,208,68425,1,0,
256,288,69625,5,0,
192,288,70025,1,0,
192,160,70825,1,0,
192,288,71625,1,0,
256,288,72025,1,0,
256,224,72425,1,0,
256,160,73625,1,0,
304,112,74025,1,2,
384,224,74825,2,0,B|384:224|192:96|64:320,1,280
224,128,76025,5,0,
160,128,76425,1,0,
256,32,77225,1,0,
256,96,77625,2,0,L|256:96|256:320,7,140
320,96,106025,5,0,
384,96,106425,1,0,
384,224,107625,1,0,
320,224,108425,1,0,
128,288,109225,5,0,
192,288,109625,1,0,
192,96,111225,5,2,
128,96,111625,1,0,
208,208,112425,1,0,
288,96,113225,1,0,
416,96,114025,1,2,
480,96,114425,1,0,
352,96,115625,5,2,
416,96,116025,1,0,
192,192,117225,1,2,
256,192,118025,1,0,
352,64,119225,1,2,
416,64,119625,1,0,
416,256,120825,5,0,
288,256,121625,1,0,
288,96,122825,1,2,
352,96,123225,1,0,
128,96,125225,5,2,
128,96,125625,1,2,
192,96,126025,1,2,
416,256,127625,5,0,
416,256,128425,1,0,
352,256,128825,1,0,
288,256,129225,1,0,
224,256,129625,5,0,
224,128,130825,1,0,
64,224,132425,5,0,
96,176,132825,1,0,
224,176,133625,1,2,
352,128,134425,1,2,
352,128,134825,1,2,
352,192,135225,1,0,
352,256,135625,1,0,
256,192,137225,5,0,
384,192,138025,1,0,
96,96,140425,1,0,
96,288,142025,1,0,
256,288,143625,1,0,
416,288,145225,1,0,
192,192,146825,5,0,
192,192,147625,1,0,
320,192,148425,1,0,
448,320,150025,1,0,
384,64,151625,5,0,
96,288,153225,1,0,
416,256,154825,1,0,
320,192,155625,1,0,
144,192,157225,1,0,
480,96,158825,5,0,
352,96,159625,1,0,
224,96,160425,1,0,
224,96,161225,1,0,
160,192,162025,5,0,
288,288,163225,1,0,
416,288,164025,1,0,
288,288,164825,1,0,
256,160,165225,1,0,
256,160,166025,1,0,
128,128,166825,5,0,
128,128,167225,1,0,
256,128,168025,1,0,
256,256,168825,1,0,
192,256,169225,1,0,
192,128,170025,5,0,
192,128,170825,1,0,
288,128,171225,1,0,
288,128,172025,1,0,
288,256,172825,5,0,
288,256,173225,1,0,
160,256,174025,1,0,
160,128,174825,1,0,
224,128,175225,1,0,
320,208,176025,1,0,
320,80,176825,1,0,
128,96,178025,5,0,
128,224,178825,1,0,
448,64,180025,1,0,
448,192,180825,1,0,
336,192,182025,1,0,
128,256,183225,5,0,
256,256,184025,1,0,
384,256,184825,1,0,
144,112,186025,5,0,
272,112,186825,1,0,
336,112,187225,1,0,
416,288,188825,5,0,
352,288,189225,1,0,
224,288,190025,1,0,
224,128,191225,1,0,
352,128,192025,1,0,
96,64,192825,5,0,
160,64,193225,1,0,
288,64,194025,1,0,
288,192,194825,1,0,
224,192,195225,1,0,
224,320,196025,5,0,
352,320,196825,1,0,
352,320,197225,1,0,
352,192,198025,1,0,
224,192,198825,1,0,
224,128,199225,1,0,
352,128,200025,1,0,
352,128,200825,1,0,
416,128,201225,5,0,
416,288,202425,1,0,
352,288,202825,1,0,
352,160,203625,1,0,
288,160,204025,5,0,
224,64,204825,1,0,
288,64,205225,1,0,
416,64,206025,5,0,
416,128,206425,1,0,
320,192,207225,1,0,
256,192,207625,1,0,
128,160,208425,1,0,
96,112,208825,1,0,
224,96,209625,5,0,
288,96,210025,1,0,
416,128,210825,1,0,
480,128,211225,1,0,
480,256,212025,1,0,
416,256,212425,1,0,
288,224,213225,1,0,
224,224,213625,1,0,
96,224,214425,1,0,
96,224,214825,1,0,
64,96,215625,5,0,
128,96,216025,1,0,
256,96,216825,1,0,
256,96,217225,1,0,
192,192,218025,1,0,
256,192,218425,1,0,
384,192,219225,1,0,
416,256,219625,5,0,
416,128,220425,1,0,
352,128,220825,1,0,
272,224,221625,1,0,
336,224,222025,1,0,
256,112,222825,1,0,
256,112,223225,1,0,
384,96,224025,5,0,
448,96,224425,1,0,
448,224,225225,1,0,
256,192,225625,12,0,230425
