osu file format v13

[General]
AudioFilename: The Everlasting Guilty Crown.mp3
AudioLeadIn: 2000
PreviewTime: 49009
Countdown: 0
SampleSet: Soft
StackLeniency: 0.4
Mode: 0
LetterboxInBreaks: 0
WidescreenStoryboard: 0

[Editor]
DistanceSpacing: 1
BeatDivisor: 4
GridSize: 4
TimelineZoom: 1.7

[Metadata]
Title:The Everlasting Guilty Crown -TV Edit-
TitleUnicode:The Everlasting Guilty Crown -TV Edit-
Artist:EGOIST
ArtistUnicode:EGOIST
Creator:Yauxo
Version:Karia's Insane
Source:Guilty Crown
Tags:samah ryo supercell chelly opening frostings karia
BeatmapID:456042
BeatmapSetID:173234

[Difficulty]
HPDrainRate:7
CircleSize:4
OverallDifficulty:8
ApproachRate:9
SliderMultiplier:1.8
SliderTickRate:1

[Events]
//Background and Video events
0,0,"gc.png",0,0
Video,-356,"gcv.avi"
//Break Periods
//Storyboard Layer 0 (Background)
//Storyboard Layer 1 (Fail)
//Storyboard Layer 2 (Pass)
//Storyboard Layer 3 (Foreground)
//Storyboard Sound Samples
//Background Colour Transformations
3,100,163,162,255

[TimingPoints]
168,348.837209302326,4,2,2,55,1,0
2609,-100,4,2,2,40,0,0
2958,-100,4,2,2,55,0,0
5749,-133.333333333333,4,2,3,55,0,0
17261,-133.333333333333,4,2,3,30,0,0
17348,-133.333333333333,4,2,3,55,0,0
26679,-166.666666666667,4,2,3,55,0,0
27726,-111.111111111111,4,2,3,55,0,0
28074,-100,4,2,3,65,0,0
49005,-200,4,2,3,40,0,0
50400,-100,4,2,3,75,0,1
61476,-100,4,2,3,75,0,0
61563,-100,4,2,3,75,0,1
83888,-100,4,2,1,50,0,0
86679,-100,4,2,1,30,0,0
87726,-100,4,2,1,15,0,0
88423,-100,4,2,1,10,0,0
88772,-100,4,2,1,5,0,0

[Colours]
Combo1 : 255,23,255
Combo2 : 10,146,211
Combo3 : 187,15,253
Combo4 : 128,128,255

[HitObjects]
112,120,168,5,2,0:0:0:0:
112,120,342,2,0,L|108:216,1,90,0|8,0:0|0:0,0:0:0:0:
100,88,691,1,0,0:0:0:0:
128,236,865,2,0,P|208:252|256:176,1,180,0|8,0:0|0:0,0:0:0:0:
300,52,1388,6,0,B|292:92|328:156|328:156|336:192|316:248,1,180,8|0,0:0|0:0,0:0:0:0:
388,80,1912,2,0,P|472:76|496:160,1,180,8|0,0:0|0:0,0:0:0:0:
376,100,2435,1,8,0:0:0:0:
316,248,2609,1,0,0:0:0:0:
316,248,2697,2,0,L|320:312,1,45
300,324,2958,5,2,0:0:0:0:
300,324,3133,2,0,L|292:220,1,90,0|8,0:0|0:0,0:0:0:0:
320,148,3481,1,0,0:0:0:0:
184,236,3656,2,0,P|140:232|88:200,1,90
44,112,4005,1,8,0:0:0:0:
44,112,4092,1,0,0:0:0:0:
44,112,4179,6,0,B|72:160|72:204|72:204|44:236|40:296,1,180,8|0,0:0|0:0,0:0:0:0:
148,152,4702,2,0,P|132:108|108:64,1,90,8|0,0:0|0:0,0:0:0:0:
184,236,5051,1,0,0:0:0:0:
184,236,5226,2,0,L|288:240,1,90,8|0,0:0|0:0,0:0:0:0:
304,248,5749,6,0,L|308:320,1,67.5000025749208,6|0,0:0|0:0,0:0:0:0:
384,140,6098,2,0,L|380:216,1,67.5000025749208,2|0,0:0|0:0,0:0:0:0:
244,84,6447,2,0,P|276:80|320:84,1,67.5000025749208,2|0,0:0|0:0,0:0:0:0:
152,152,6795,2,0,L|148:76,1,67.5000025749208,2|0,0:0|0:0,0:0:0:0:
232,200,7144,5,2,0:0:0:0:
112,276,7319,2,0,B|52:264|20:220|20:220|8:248,1,135.000005149842
68,144,7842,1,2,0:0:0:0:
56,52,8016,1,0,0:0:0:0:
168,140,8191,1,2,0:0:0:0:
192,48,8365,1,0,0:0:0:0:
296,132,8540,6,0,B|360:136|392:112|392:112|428:120|448:136,1,135.000005149842,2|2,0:0|0:0,0:0:0:0:
460,240,9063,1,0,0:0:0:0:
436,328,9237,1,2,0:0:0:0:
368,228,9412,2,0,L|296:232,1,67.5000025749208,0|2,0:0|0:0,0:0:0:0:
388,212,9761,1,0,0:0:0:0:
320,336,9935,5,2,0:0:0:0:
388,212,10109,2,0,L|384:136,1,67.5000025749208,0|2,0:0|0:0,0:0:0:0:
368,228,10458,1,0,0:0:0:0:
276,112,10633,1,2,0:0:0:0:
172,136,10807,1,0,0:0:0:0:
96,32,10981,1,2,0:0:0:0:
148,128,11156,1,0,0:0:0:0:
172,136,11243,1,0,0:0:0:0:
196,144,11330,6,0,B|232:140|232:140|220:192|248:256,1,135.000005149842,2|2,0:0|0:0,0:0:0:0:
308,180,11854,1,0,0:0:0:0:
148,212,12028,2,0,L|60:208,1,67.5000025749208,2|0,0:0|0:0,0:0:0:0:
248,256,12377,2,0,P|280:256|324:248,1,67.5000025749208,2|0,0:0|0:0,0:0:0:0:
388,196,12638,1,0,0:0:0:0:
388,196,12726,6,0,P|320:200|248:164,1,135.000005149842,2|2,0:0|0:0,0:0:0:0:
192,72,13249,2,0,L|196:28,1,33.7500012874604
172,100,13423,2,0,L|176:176,1,67.5000025749208,2|0,0:0|0:0,0:0:0:0:
152,256,13772,2,0,L|156:332,1,67.5000025749208,2|0,0:0|0:0,0:0:0:0:
236,360,14034,1,0,0:0:0:0:
236,360,14121,6,0,P|268:356|307:351,1,67.5000025749208,2|0,0:0|0:0,0:0:0:0:
388,320,14383,2,0,P|421:317|456:312,1,67.5000025749208
432,224,14644,2,0,L|476:220,1,33.7500012874604
472,128,14819,6,0,P|459:93|436:51,1,67.5000025749208,2|0,0:0|0:0,0:0:0:0:
368,32,15080,2,0,P|331:33|283:42,1,67.5000025749208,0|0,0:0|0:0,0:0:0:0:
216,64,15342,2,0,L|176:60,1,33.7500012874604
64,44,15516,5,2,0:0:0:0:
140,232,15778,1,0,0:0:0:0:
232,88,16040,1,0,0:0:0:0:
80,140,16214,5,2,0:0:0:0:
216,64,16476,1,0,0:0:0:0:
280,244,16737,1,0,0:0:0:0:
376,104,16912,6,0,L|372:192,1,67.5000025749208,4|0,0:0|0:0,0:0:0:0:
424,332,17261,2,0,L|420:244,1,67.5000025749208,6|0,0:0|0:0,0:0:0:0:
268,216,17609,2,0,P|200:224|180:300,1,135.000005149842,2|2,0:0|0:0,0:0:0:0:
132,164,18133,1,0,0:0:0:0:
284,228,18307,5,2,0:0:0:0:
372,108,18481,2,0,L|368:40,1,67.5000025749208,0|2,0:0|0:0,0:0:0:0:
368,40,18830,1,0,0:0:0:0:
472,156,19005,1,2,0:0:0:0:
448,296,19179,1,0,0:0:0:0:
368,212,19354,1,2,0:0:0:0:
432,316,19528,1,0,0:0:0:0:
284,360,19702,6,0,B|232:368|196:344|196:344|176:348|144:344,1,135.000005149842,2|2,0:0|0:0,0:0:0:0:
236,213,20226,2,0,P|244:246|248:280,1,67.5000025749208,0|2,0:0|0:0,0:0:0:0:
88,228,20574,2,0,P|91:194|99:161,1,67.5000025749208,0|2,0:0|0:0,0:0:0:0:
208,80,20923,1,0,0:0:0:0:
68,28,21098,5,2,0:0:0:0:
116,140,21272,1,0,0:0:0:0:
204,56,21447,1,2,0:0:0:0:
348,144,21621,2,0,L|344:220,1,67.5000025749208,0|2,0:0|0:0,0:0:0:0:
464,72,21970,2,0,L|472:156,1,67.5000025749208,0|2,0:0|0:0,0:0:0:0:
352,116,22319,1,0,0:0:0:0:
476,168,22493,6,0,L|468:260,1,67.5000025749208,2|0,0:0|0:0,0:0:0:0:
476,384,22842,2,0,L|468:316,1,67.5000025749208,2|0,0:0|0:0,0:0:0:0:
452,188,23191,6,0,L|448:340,1,135.000005149842,2|2,0:0|0:0,0:0:0:0:
352,248,23714,1,0,0:0:0:0:
224,324,23888,2,0,L|300:328,1,67.5000025749208,2|0,0:0|0:0,0:0:0:0:
128,264,24237,6,0,L|52:268,1,67.5000025749208,2|0,0:0|0:0,0:0:0:0:
216,200,24586,1,2,0:0:0:0:
280,132,24761,1,0,0:0:0:0:
260,40,24935,1,2,0:0:0:0:
168,20,25109,1,0,0:0:0:0:
348,16,25284,6,0,L|344:92,1,67.5000025749208,2|0,0:0|0:0,0:0:0:0:
248,208,25633,2,0,P|256:176|280:132,1,67.5000025749208,2|0,0:0|0:0,0:0:0:0:
336,300,25981,1,2,0:0:0:0:
176,268,26156,1,0,0:0:0:0:
248,328,26330,1,2,0:0:0:0:
280,132,26505,1,0,0:0:0:0:
432,232,26679,6,0,P|464:208|384:172,1,161.999995056153
236,244,27377,2,0,L|244:164,1,80.9999975280763
253,285,27726,6,0,L|244:164,1,121.499996292114
188,96,28074,6,0,P|144:80|88:76,1,90,6|0,0:0|0:0,0:0:0:0:
120,236,28423,1,8,0:0:0:0:
212,112,28598,2,0,L|208:16,1,90,0|2,0:0|0:0,0:0:0:0:
364,144,28947,1,0,0:0:0:0:
216,132,29121,1,8,0:0:0:0:
384,160,29295,6,0,L|484:152,1,90,0|2,0:0|0:0,0:0:0:0:
292,232,29644,2,0,P|248:228|204:208,1,90,0|8,0:0|0:0,0:0:0:0:
180,32,29993,2,0,L|172:136,1,90,0|2,0:0|0:0,0:0:0:0:
120,276,30342,1,0,0:0:0:0:
100,160,30516,1,8,0:0:0:0:
260,140,30691,1,0,0:0:0:0:
88,44,30865,6,0,L|92:148,1,90,2|0,0:0|0:0,0:0:0:0:
28,264,31214,1,8,0:0:0:0:
132,152,31388,1,0,0:0:0:0:
240,260,31563,1,2,0:0:0:0:
52,284,31737,1,0,0:0:0:0:
240,260,31912,2,0,L|332:268,1,90,8|0,0:0|0:0,0:0:0:0:
444,116,32261,5,2,0:0:0:0:
428,204,32435,1,0,0:0:0:0:
408,292,32609,2,0,L|420:408,1,90,8|0,0:0|0:0,0:0:0:0:
512,248,32958,1,2,0:0:0:0:
428,284,33133,1,0,0:0:0:0:
344,232,33307,1,8,0:0:0:0:
272,356,33481,1,0,0:0:0:0:
132,256,33656,6,0,L|136:148,1,90,2|0,0:0|0:0,0:0:0:0:
132,288,34005,1,8,0:0:0:0:
116,144,34179,2,0,L|128:40,1,90,0|2,0:0|0:0,0:0:0:0:
304,88,34528,2,0,L|292:192,1,90,0|8,0:0|0:0,0:0:0:0:
232,264,34877,5,0,0:0:0:0:
392,184,35051,1,2,0:0:0:0:
216,72,35226,2,0,L|204:176,1,90,0|8,0:0|0:0,0:0:0:0:
396,80,35574,2,0,P|356:60|304:56,1,90,0|2,0:0|0:0,0:0:0:0:
132,116,35923,1,0,0:0:0:0:
68,28,36098,1,8,0:0:0:0:
136,88,36272,1,0,0:0:0:0:
8,156,36447,6,0,L|12:248,1,90,2|0,0:0|0:0,0:0:0:0:
161,289,36795,2,0,L|168:200,1,90,8|0,0:0|0:0,0:0:0:0:
72,312,37144,1,2,0:0:0:0:
236,360,37319,1,0,0:0:0:0:
172,176,37493,1,8,0:0:0:0:
248,340,37668,1,0,0:0:0:0:
376,228,37842,6,0,P|448:232|456:344,1,180,2|8,0:0|0:0,0:0:0:0:
471,324,38365,1,0,0:0:0:0:
376,228,38540,2,0,L|380:128,1,90,2|0,0:0|0:0,0:0:0:0:
368,48,38888,1,8,0:0:0:0:
352,244,39063,1,0,0:0:0:0:
204,160,39237,6,0,P|160:164|112:192,1,90,2|0,0:0|0:0,0:0:0:0:
268,216,39586,1,8,0:0:0:0:
216,44,39761,1,0,0:0:0:0:
216,44,39935,1,2,0:0:0:0:
92,116,40109,2,0,L|96:212,1,90,0|8,0:0|0:0,0:0:0:0:
72,328,40458,6,0,P|116:330|168:336,1,90,0|2,0:0|0:0,0:0:0:0:
356,296,40807,2,0,P|312:308|264:316,1,90,0|8,0:0|0:0,0:0:0:0:
376,148,41156,1,0,0:0:0:0:
376,148,41330,1,2,0:0:0:0:
448,304,41505,1,0,0:0:0:0:
456,104,41679,1,8,0:0:0:0:
376,148,41854,1,0,0:0:0:0:
324,52,42028,6,0,L|136:72,1,180,2|8,0:0|0:0,0:0:0:0:
120,160,42551,2,0,P|123:204|141:261,1,90,0|2,0:0|0:0,0:0:0:0:
204,188,42900,1,0,0:0:0:0:
48,276,43074,1,8,0:0:0:0:
204,352,43249,6,0,P|260:284|208:196,1,180
380,232,43772,2,0,P|336:240|288:236,1,90,8|0,0:0|0:0,0:0:0:0:
444,160,44121,1,2,0:0:0:0:
380,328,44295,1,0,0:0:0:0:
312,152,44470,1,8,0:0:0:0:
312,152,44644,1,0,0:0:0:0:
116,132,44819,6,0,B|176:128|176:128|232:140|232:140|296:132,1,180,2|8,0:0|0:0,0:0:0:0:
116,44,45342,2,0,B|120:104|120:104|108:160|108:160|116:224,1,180,2|0,0:0|0:0,0:0:0:0:
192,328,45865,1,8,0:0:0:0:
192,328,46040,1,0,0:0:0:0:
324,236,46214,6,0,P|412:232|440:312,1,180,2|8,0:0|0:0,0:0:0:0:
440,156,46737,2,0,B|456:220|456:220|440:364,1,180,2|0,0:0|0:0,0:0:0:0:
284,360,47261,1,8,0:0:0:0:
204,240,47435,1,0,0:0:0:0:
44,264,47609,5,2,0:0:0:0:
39,286,47697,1,0,0:0:0:0:
37,308,47784,2,0,L|45:368,1,45
125,242,47958,1,2,0:0:0:0:
127,219,48045,1,0,0:0:0:0:
124,197,48133,1,0,0:0:0:0:
114,177,48220,1,0,0:0:0:0:
100,160,48307,6,0,L|159:165,1,45,2|0,0:0|0:0,0:0:0:0:
225,125,48481,2,0,L|283:129,1,45,0|0,0:0|0:0,0:0:0:0:
320,241,48656,1,2,0:0:0:0:
352,216,48743,1,0,0:0:0:0:
384,191,48830,1,0,0:0:0:0:
416,166,48918,1,0,0:0:0:0:
449,142,49005,6,0,L|456:309,1,157.5
352,216,49702,2,0,P|277:195|215:255,1,157.5
219,241,50400,6,0,L|224:140,1,90,6|0,0:0|0:0,0:0:0:0:
252,48,50749,1,8,0:0:0:0:
104,128,50923,1,0,0:0:0:0:
300,112,51098,2,0,L|400:100,1,90,2|0,0:0|0:0,0:0:0:0:
496,236,51447,2,0,P|448:232|396:216,1,90,8|0,0:0|0:0,0:0:0:0:
280,120,51795,5,2,0:0:0:0:
224,272,51970,1,0,0:0:0:0:
200,168,52144,1,8,0:0:0:0:
352,268,52319,1,0,0:0:0:0:
172,352,52493,2,0,L|72:344,1,90,2|0,0:0|0:0,0:0:0:0:
260,372,52842,2,0,P|304:368|356:352,1,90,8|0,0:0|0:0,0:0:0:0:
228,196,53191,6,0,L|232:300,1,90,2|0,0:0|0:0,0:0:0:0:
88,176,53540,2,0,P|76:132|80:80,1,90,8|0,0:0|0:0,0:0:0:0:
280,36,53888,2,0,P|292:80|288:132,1,90,2|0,0:0|0:0,0:0:0:0:
212,212,54237,1,8,0:0:0:0:
88,176,54412,1,0,0:0:0:0:
228,196,54586,5,2,0:0:0:0:
188,336,54761,1,0,0:0:0:0:
404,276,54935,1,8,0:0:0:0:
395,76,55109,2,0,L|388:256,1,180
316,120,55633,1,8,0:0:0:0:
480,192,55807,1,0,0:0:0:0:
304,284,55981,6,0,B|232:284|200:248|200:248|160:244|112:272,1,180,2|8,0:0|0:0,0:0:0:0:
276,192,56505,1,0,0:0:0:0:
291,175,56592,1,0,0:0:0:0:
306,159,56679,2,0,L|302:61,1,90,2|0,0:0|0:0,0:0:0:0:
456,20,57028,2,0,P|452:68|436:116,1,90,8|0,0:0|0:0,0:0:0:0:
232,84,57377,6,0,P|152:92|144:184,1,180,2|8,0:0|0:0,0:0:0:0:
284,196,57900,1,0,0:0:0:0:
148,196,58074,2,0,L|152:300,1,90,2|0,0:0|0:0,0:0:0:0:
180,376,58423,1,8,0:0:0:0:
240,308,58598,1,0,0:0:0:0:
64,264,58772,5,2,0:0:0:0:
152,380,58947,1,0,0:0:0:0:
260,204,59121,1,8,0:0:0:0:
448,312,59295,1,0,0:0:0:0:
472,224,59470,1,2,0:0:0:0:
276,224,59644,1,0,0:0:0:0:
400,120,59819,1,8,0:0:0:0:
436,332,59993,1,0,0:0:0:0:
292,248,60168,5,2,0:0:0:0:
208,316,60342,1,0,0:0:0:0:
156,108,60516,1,8,0:0:0:0:
388,144,60691,1,0,0:0:0:0:
248,16,60865,2,0,L|252:112,1,90,2|0,0:0|0:0,0:0:0:0:
144,228,61214,1,8,0:0:0:0:
114,218,61301,1,0,0:0:0:0:
84,208,61388,1,2,0:0:0:0:
53,197,61476,1,0,0:0:0:0:
23,187,61563,6,0,L|130:173,1,90,6|0,0:0|0:0,0:0:0:0:
312,168,61912,2,0,L|224:152,1,90,8|0,0:0|0:0,0:0:0:0:
488,128,62261,2,0,L|396:136,1,90,2|0,0:0|0:0,0:0:0:0:
488,36,62609,1,8,0:0:0:0:
440,220,62784,1,0,0:0:0:0:
332,80,62958,5,2,0:0:0:0:
360,296,63133,1,0,0:0:0:0:
464,208,63307,1,8,0:0:0:0:
252,172,63481,1,0,0:0:0:0:
360,296,63656,2,0,L|364:192,1,90,2|0,0:0|0:0,0:0:0:0:
216,352,64005,2,0,L|212:248,1,90,8|0,0:0|0:0,0:0:0:0:
96,136,64354,6,0,P|120:220|212:240,1,180,2|8,0:0|0:0,0:0:0:0:
183,154,64877,1,0,0:0:0:0:
36,256,65051,2,0,L|40:360,1,90,2|0,0:0|0:0,0:0:0:0:
216,352,65400,2,0,L|212:248,1,90,8|0,0:0|0:0,0:0:0:0:
136,160,65749,5,2,0:0:0:0:
348,128,65923,1,0,0:0:0:0:
168,44,66098,1,8,0:0:0:0:
116,180,66272,2,0,L|119:269,1,90,0|2,0:0|0:0,0:0:0:0:
48,104,66621,1,0,0:0:0:0:
136,160,66795,1,8,0:0:0:0:
8,244,66970,1,0,0:0:0:0:
148,308,67144,6,0,L|248:300,1,90,2|0,0:0|0:0,0:0:0:0:
444,264,67493,2,0,L|348:252,1,90,8|0,0:0|0:0,0:0:0:0:
144,332,67842,2,0,L|244:324,1,90,2|0,0:0|0:0,0:0:0:0:
40,356,68191,1,8,0:0:0:0:
92,168,68365,1,0,0:0:0:0:
92,168,68452,1,0,0:0:0:0:
92,168,68540,6,0,L|88:72,1,90,2|0,0:0|0:0,0:0:0:0:
240,204,68888,2,0,L|236:304,1,90,8|0,0:0|0:0,0:0:0:0:
296,40,69237,2,0,L|292:140,1,90,2|0,0:0|0:0,0:0:0:0:
376,236,69586,2,0,P|420:252|480:256,1,90,8|0,0:0|0:0,0:0:0:0:
292,288,69935,6,0,B|260:316|260:316|204:252|120:300,1,180,2|8,0:0|0:0,0:0:0:0:
187,366,70458,1,0,0:0:0:0:
228,184,70633,2,0,L|224:80,1,90,2|0,0:0|0:0,0:0:0:0:
316,176,70981,1,8,0:0:0:0:
140,212,71156,1,0,0:0:0:0:
344,168,71330,6,0,L|448:176,1,90,2|0,0:0|0:0,0:0:0:0:
508,224,71679,1,8,0:0:0:0:
428,264,71854,1,0,0:0:0:0:
476,100,72028,1,2,0:0:0:0:
408,248,72202,1,0,0:0:0:0:
292,76,72377,1,8,0:0:0:0:
140,212,72551,1,0,0:0:0:0:
20,104,72726,6,0,P|12:64|16:12,1,90,2|0,0:0|0:0,0:0:0:0:
184,108,73074,2,0,P|177:148|156:195,1,90,8|0,0:0|0:0,0:0:0:0:
28,128,73423,1,2,0:0:0:0:
140,212,73598,1,0,0:0:0:0:
0,272,73772,2,0,L|4:364,1,90,8|0,0:0|0:0,0:0:0:0:
156,236,74121,6,0,L|152:336,1,90,2|0,0:0|0:0,0:0:0:0:
240,180,74470,1,8,0:0:0:0:
268,276,74644,1,0,0:0:0:0:
360,152,74819,1,2,0:0:0:0:
360,252,74993,1,0,0:0:0:0:
456,80,75168,1,8,0:0:0:0:
472,188,75342,1,0,0:0:0:0:
364,56,75516,6,0,P|280:32|208:108,1,180,2|8,0:0|0:0,0:0:0:0:
214,86,76040,1,0,0:0:0:0:
284,204,76214,1,2,0:0:0:0:
284,204,76388,1,0,0:0:0:0:
160,296,76563,2,0,L|64:288,1,90,8|0,0:0|0:0,0:0:0:0:
260,352,76912,6,0,L|448:340,1,180,2|8,0:0|0:0,0:0:0:0:
439,340,77435,1,0,0:0:0:0:
492,268,77609,1,2,0:0:0:0:
348,316,77784,1,0,0:0:0:0:
392,132,77958,1,8,0:0:0:0:
408,248,78133,1,0,0:0:0:0:
248,272,78307,6,0,L|152:264,1,90,2|0,0:0|0:0,0:0:0:0:
4,192,78656,2,0,L|96:188,1,90,8|0,0:0|0:0,0:0:0:0:
208,136,79005,2,0,L|316:144,1,90,2|0,0:0|0:0,0:0:0:0:
260,292,79354,2,0,L|164:284,1,90,8|0,0:0|0:0,0:0:0:0:
84,256,79615,1,0,0:0:0:0:
84,256,79702,6,0,L|192:252,1,90,2|0,0:0|0:0,0:0:0:0:
340,208,80051,1,8,0:0:0:0:
280,308,80226,1,0,0:0:0:0:
171,227,80400,2,0,P|171:142|247:102,1,180,2|8,0:0|0:0,0:0:0:0:
336,128,80923,1,0,0:0:0:0:
424,104,81098,5,2,0:0:0:0:
441,109,81185,1,0,0:0:0:0:
458,114,81272,1,0,0:0:0:0:
475,119,81359,1,0,0:0:0:0:
492,124,81447,5,2,0:0:0:0:
466,149,81534,1,0,0:0:0:0:
448,180,81621,1,0,0:0:0:0:
448,215,81708,1,0,0:0:0:0:
461,248,81795,6,0,L|410:253,1,45,2|0,0:0|0:0,0:0:0:0:
336,296,81970,2,0,L|288:292,1,45,2|0,0:0|0:0,0:0:0:0:
280,180,82144,2,0,L|336:208,1,45,2|0,0:0|0:0,0:0:0:0:
204,248,82319,2,0,L|180:192,1,45,2|0,0:0|0:0,0:0:0:0:
125,107,82493,5,2,0:0:0:0:
112,101,82580,1,0,0:0:0:0:
99,95,82668,2,0,L|48:100,1,45
212,70,82842,1,2,0:0:0:0:
203,58,82929,1,0,0:0:0:0:
195,46,83016,2,0,L|148:24,1,45
306,66,83191,5,2,0:0:0:0:
306,66,83278,2,0,L|367:58,2,45,0|0|0,0:0|0:0|0:0,0:0:0:0:
470,112,83540,1,2,0:0:0:0:
470,112,83627,2,0,L|409:104,2,45,0|0|0,0:0|0:0|0:0,0:0:0:0:
256,192,83888,12,0,88772,0:0:0:0:
