osu file format v13

[General]
AudioFilename: The Everlasting Guilty Crown.mp3
AudioLeadIn: 2000
PreviewTime: 49009
Countdown: 0
SampleSet: Soft
StackLeniency: 0.4
Mode: 0
LetterboxInBreaks: 0
WidescreenStoryboard: 0

[Editor]
DistanceSpacing: 1
BeatDivisor: 4
GridSize: 4
TimelineZoom: 1.7

[Metadata]
Title:The Everlasting Guilty Crown -TV Edit-
TitleUnicode:The Everlasting Guilty Crown -TV Edit-
Artist:EGOIST
ArtistUnicode:EGOIST
Creator:Yauxo
Version:Insane
Source:Guilty Crown
Tags:samah ryo supercell chelly opening frostings karia
BeatmapID:418631
BeatmapSetID:173234

[Difficulty]
HPDrainRate:6
CircleSize:4
OverallDifficulty:7.5
ApproachRate:8.5
SliderMultiplier:1.6
SliderTickRate:1

[Events]
//Background and Video events
0,0,"gc.png",0,0
Video,-356,"gcv.avi"
//Break Periods
//Storyboard Layer 0 (Background)
//Storyboard Layer 1 (Fail)
//Storyboard Layer 2 (Pass)
//Storyboard Layer 3 (Foreground)
//Storyboard Sound Samples
//Background Colour Transformations
3,100,163,162,255

[TimingPoints]
168,348.837209302326,4,2,1,40,1,0
5749,-100,4,2,1,65,0,0
7144,-100,4,2,1,30,0,0
7188,-100,4,2,1,65,0,0
7842,-100,4,2,1,55,0,0
8016,-100,4,2,1,45,0,0
8540,-100,4,2,1,65,0,0
9063,-100,4,2,1,40,0,0
9106,-100,4,2,1,65,0,0
9935,-100,4,2,1,30,0,0
10153,-100,4,2,1,65,0,0
10807,-100,4,2,1,55,0,0
11025,-100,4,2,1,65,0,0
11330,-100,4,2,1,40,0,0
11374,-100,4,2,1,65,0,0
12028,-100,4,2,1,45,0,0
12072,-100,4,2,1,65,0,0
12726,-100,4,2,1,50,0,0
12769,-100,4,2,1,65,0,0
14121,-100,4,2,1,50,0,0
14208,-100,4,2,1,65,0,0
14470,-100,4,2,1,30,0,0
14528,-100,4,2,1,65,0,0
14819,-100,4,2,1,35,0,0
14906,-100,4,2,1,65,0,0
15168,-100,4,2,1,30,0,0
15226,-100,4,2,1,65,0,0
15516,-100,4,2,1,45,0,0
15574,-100,4,2,1,65,0,0
16214,-100,4,2,1,55,0,0
16258,-100,4,2,1,65,0,0
17261,-100,4,2,1,55,0,0
17493,-100,4,2,1,65,0,0
18307,-100,4,2,1,55,0,0
18481,-100,4,2,1,40,0,0
18569,-100,4,2,1,65,0,0
19005,-100,4,2,1,55,0,0
19354,-100,4,2,1,50,0,0
19572,-100,4,2,1,65,0,0
21098,-100,4,2,1,40,0,0
21272,-100,4,2,1,30,0,0
21359,-100,4,2,1,65,0,0
21795,-100,4,2,1,55,0,0
21839,-100,4,2,1,65,0,0
22842,-100,4,2,1,35,0,0
23016,-100,4,2,1,55,0,0
23060,-100,4,2,1,65,0,0
23540,-100,4,2,1,40,0,0
23714,-100,4,2,1,65,0,0
23888,-100,4,2,1,55,0,0
24106,-100,4,2,1,65,0,0
24935,-100,4,2,1,50,0,0
25109,-100,4,2,1,40,0,0
25284,-100,4,2,1,60,0,0
27028,-100,4,2,1,30,0,0
27115,-100,4,2,1,65,0,0
28423,-100,4,2,1,50,0,0
28481,-100,4,2,1,55,0,0
28656,-100,4,2,1,65,0,0
29819,-100,4,2,1,50,0,0
29935,-100,4,2,1,55,0,0
30051,-100,4,2,1,65,0,0
32609,-100,4,2,1,50,0,0
32668,-100,4,2,1,65,0,0
32784,-100,4,2,1,55,0,0
32842,-100,4,2,1,65,0,0
32958,-100,4,2,1,45,0,0
33045,-100,4,2,1,65,0,0
33307,-100,4,2,1,45,0,0
33394,-100,4,2,1,65,0,0
34005,-100,4,2,1,50,0,0
34063,-100,4,2,1,55,0,0
34237,-100,4,2,1,65,0,0
35400,-100,4,2,1,50,0,0
35458,-100,4,2,1,55,0,0
35633,-100,4,2,1,65,0,0
36011,-100,4,2,1,50,0,0
36185,-100,4,2,1,55,0,0
36447,-100,4,2,1,65,0,0
37668,-100,4,2,1,55,0,0
37755,-100,4,2,1,65,0,0
38191,-100,4,2,1,50,0,0
38249,-100,4,2,1,55,0,0
38423,-100,4,2,1,65,0,0
38845,-100,4,2,1,50,0,0
39106,-100,4,2,1,65,0,0
39586,-100,4,2,1,50,0,0
39644,-100,4,2,1,55,0,0
39819,-100,4,2,1,65,0,0
40458,-100,4,2,1,55,0,0
40545,-100,4,2,1,65,0,0
41156,-100,4,2,1,45,0,0
41243,-100,4,2,1,65,0,0
42377,-100,4,2,1,50,0,0
42435,-100,4,2,1,55,0,0
42609,-100,4,2,1,65,0,0
43772,-100,4,2,1,45,0,0
43859,-100,4,2,1,55,0,0
43990,-100,4,2,1,65,0,0
45168,-100,4,2,1,50,0,0
45226,-100,4,2,1,55,0,0
45400,-100,4,2,1,65,0,0
46563,-100,4,2,1,50,0,0
46621,-100,4,2,1,55,0,0
46795,-100,4,2,1,65,0,0
47609,-133.333333333333,4,1,1,30,0,0
48656,-133.333333333333,4,2,1,40,0,0
48961,-133.333333333333,4,2,1,30,0,0
50095,-133.333333333333,4,2,1,70,0,0
50400,-100,4,2,1,70,0,1
60865,-100,4,2,1,70,0,0
61563,-100,4,2,1,70,0,1
63307,-100,4,2,1,60,0,1
64223,-100,4,2,1,70,0,1
78307,-100,4,2,1,70,0,0
81098,-133.333333333333,4,2,1,70,0,0
82493,-100,4,2,1,60,0,0
82842,-100,4,2,1,65,0,0
83191,-100,4,2,1,70,0,0
83540,-100,4,2,1,75,0,0
83888,-100,4,2,1,5,0,0

[Colours]
Combo1 : 255,23,255
Combo2 : 10,146,211
Combo3 : 187,15,253
Combo4 : 128,128,255

[HitObjects]
400,312,168,6,0,P|407:268|425:226,1,80
364,172,516,2,0,P|343:211|313:245,1,80,8|0,0:0|0:0,0:0:0:0:
260,292,865,1,0,0:0:0:0:
124,132,1214,2,0,P|136:172|160:208,1,80,8|8,0:0|0:0,0:0:0:0:
328,84,1737,2,0,P|288:96|252:120,1,80,0|8,0:0|0:0,0:0:0:0:
376,288,2261,2,0,P|364:248|340:212,1,80,0|8,0:0|0:0,0:0:0:0:
140,88,2958,6,0,P|96:68|44:68,1,80
80,148,3307,2,0,P|113:180|159:205,1,80,8|0,0:0|0:0,0:0:0:0:
216,224,3656,1,0,0:0:0:0:
420,264,4005,2,0,P|384:285|342:296,1,80,8|8,0:0|0:0,0:0:0:0:
300,91,4528,2,0,P|321:126|332:168,1,80,0|8,0:0|0:0,0:0:0:0:
128,211,5051,2,0,P|163:189|205:178,1,80,0|8,0:0|0:0,0:0:0:0:
420,264,5749,5,4,0:0:0:0:
352,311,5923,1,0,0:0:0:0:
273,318,6098,2,0,B|229:308|194:321|194:321|167:295|116:284,2,160,0|0|0,0:0|0:0|0:0,0:0:0:0:
212,240,6970,1,0,0:0:0:0:
168,172,7144,6,0,P|148:128|152:80,1,80,2|0,0:0|0:0,0:0:0:0:
228,112,7493,2,0,P|272:91|320:95,1,80
396,120,7842,1,2,0:0:0:0:
312,188,8016,1,2,0:0:0:0:
408,232,8191,1,2,0:0:0:0:
302,90,8365,1,2,0:0:0:0:
256,244,8540,6,0,B|215:288|215:288|208:240|176:216|128:215,1,160
135,296,9063,2,0,P|174:358|257:356,1,160,2|0,0:0|0:0,0:0:0:0:
329,328,9586,1,0,0:0:0:0:
402,295,9761,6,0,P|442:287|486:291,1,80,0|2,0:0|0:0,0:0:0:0:
334,238,10109,2,0,P|295:246|256:244,1,80,2|0,0:0|0:0,0:0:0:0:
208,180,10458,1,0,0:0:0:0:
132,52,10633,1,2,0:0:0:0:
124,164,10807,1,2,0:0:0:0:
264,104,10981,1,2,0:0:0:0:
372,172,11156,1,0,0:0:0:0:
364,212,11243,1,0,0:0:0:0:
334,238,11330,6,0,P|294:245|255:243,1,80,2|0,0:0|0:0,0:0:0:0:
164,280,11679,1,0,0:0:0:0:
80,216,11854,1,0,0:0:0:0:
68,176,11941,1,0,0:0:0:0:
80,136,12028,2,0,P|124:128|168:108,1,80,2|0,0:0|0:0,0:0:0:0:
252,112,12377,1,0,0:0:0:0:
344,56,12551,5,0,0:0:0:0:
368,88,12638,1,0,0:0:0:0:
372,128,12726,2,0,P|380:176|412:224,1,80,2|0,0:0|0:0,0:0:0:0:
356,292,13074,2,0,P|294:298|243:314,1,80
240,320,13336,1,0,0:0:0:0:
204,340,13423,2,0,P|164:352|112:352,2,80,2|0|0,0:0|0:0|0:0,0:0:0:0:
136,252,13947,1,0,0:0:0:0:
120,216,14034,1,0,0:0:0:0:
108,180,14121,6,0,B|100:140|100:140|152:148|208:128,1,120,2|0,0:0|0:0,0:0:0:0:
184,96,14470,2,0,P|228:152|268:160,1,80,2|0,0:0|0:0,0:0:0:0:
308,184,14819,2,0,B|348:204|348:204|372:172|424:164,1,120,2|0,0:0|0:0,0:0:0:0:
440,196,15168,2,0,P|424:159|416:120,1,80,2|0,0:0|0:0,0:0:0:0:
344,84,15516,6,0,B|304:72|304:72|272:36|272:36|212:16,2,120,2|0|0,0:0|0:0|0:0,0:0:0:0:
228,108,16214,2,0,B|191:127|191:127|143:124|143:124|86:153,2,120,2|0|0,0:0|0:0|0:0,0:0:0:0:
160,208,16912,6,0,P|172:268|256:320,1,160,4|2,0:0|0:0,0:0:0:0:
332,308,17435,1,2,0:0:0:0:
395,260,17609,2,0,B|427:224|463:216|463:216|436:144,1,160
396,72,18133,2,0,P|358:41|311:32,1,80,0|2,0:0|0:0,0:0:0:0:
248,36,18481,1,2,0:0:0:0:
277,110,18656,2,0,P|314:140|361:149,1,80
420,176,19005,5,2,0:0:0:0:
456,248,19179,1,2,0:0:0:0:
336,336,19354,1,2,0:0:0:0:
352,256,19528,1,2,0:0:0:0:
248,292,19702,6,0,P|208:286|171:272,1,80
96,232,20051,1,0,0:0:0:0:
48,168,20226,2,0,P|60:224|40:328,2,160,2|0|0,0:0|0:0|0:0,0:0:0:0:
76,92,21098,1,2,0:0:0:0:
141,46,21272,2,0,P|184:32|240:48,1,80,2|0,0:0|0:0,0:0:0:0:
284,84,21621,5,0,0:0:0:0:
224,220,21795,1,2,0:0:0:0:
308,176,21970,1,0,0:0:0:0:
196,128,22144,1,0,0:0:0:0:
284,84,22319,1,0,0:0:0:0:
380,72,22493,2,0,P|416:93|442:136,1,80
463,199,22842,5,2,0:0:0:0:
428,272,23016,1,2,0:0:0:0:
312,304,23191,1,0,0:0:0:0:
252,252,23365,1,0,0:0:0:0:
136,224,23540,1,2,0:0:0:0:
64,256,23714,1,0,0:0:0:0:
52,96,23888,6,2,P|92:120|128:128,1,80,2|2,0:0|0:0,0:0:0:0:
276,76,24237,2,0,P|235:98|210:125,1,80
180,196,24586,1,2,0:0:0:0:
208,272,24761,1,2,0:0:0:0:
268,324,24935,2,0,P|312:348|352:352,1,80,2|2,0:0|0:0,0:0:0:0:
408,308,25284,6,0,B|423:265|453:243|453:243|446:206|464:157,1,160,2|0,0:0|0:0,0:0:0:0:
376,208,25807,1,0,0:0:0:0:
304,240,25981,2,0,P|296:192|312:160,1,80
288,52,26330,2,0,P|296:100|280:132,1,80
240,196,26679,6,0,B|209:247|209:247|195:203|155:185|112:190,2,160,0|0|0,0:0|0:0|0:0,0:0:0:0:
136,268,27551,2,0,P|95:258|58:209,1,80
134,189,27900,1,0,0:0:0:0:
162,161,27987,1,0,0:0:0:0:
188,132,28074,6,0,L|248:72,1,80,4|0,0:0|0:0,0:0:0:0:
320,52,28423,1,10,0:0:0:0:
396,76,28598,2,0,P|432:112|444:224,1,160,2|0,0:0|0:0,0:0:0:0:
380,260,29121,1,8,0:0:0:0:
312,220,29295,2,0,P|264:200|132:216,1,160
116,272,29819,6,0,P|92:312|56:340,1,80,10|2,0:0|0:0,0:0:0:0:
140,372,30168,2,0,P|179:347|224:338,1,80
276,292,30516,1,8,0:0:0:0:
312,220,30691,1,0,0:0:0:0:
296,144,30865,6,0,P|272:100|164:44,2,160,0|10|0,0:0|0:0|0:0,0:0:0:0:
356,88,31737,2,0,P|388:60|432:52,1,80,0|8,0:0|0:0,0:0:0:0:
424,140,32086,2,0,P|416:188|424:244,1,80
368,280,32435,5,0,0:0:0:0:
296,312,32609,1,10,0:0:0:0:
220,284,32784,1,2,0:0:0:0:
180,212,32958,2,0,P|172:168|184:116,1,80,2|0,0:0|0:0,0:0:0:0:
92,116,33307,2,0,P|76:158|40:197,1,80,10|0,0:0|0:0,0:0:0:0:
64,272,33656,6,0,P|103:274|141:288,1,80
220,284,34005,1,10,0:0:0:0:
280,232,34179,2,0,P|296:192|296:144,1,80,2|0,0:0|0:0,0:0:0:0:
268,80,34528,2,0,P|307:75|345:86,1,80,0|8,0:0|0:0,0:0:0:0:
384,156,34877,6,0,P|471:165|515:88,1,160
452,64,35400,1,10,0:0:0:0:
372,56,35574,1,2,0:0:0:0:
313,110,35749,2,0,P|273:115|236:104,1,80
196,88,36011,1,0,0:0:0:0:
158,76,36098,1,0,0:0:0:0:
118,81,36185,1,0,0:0:0:0:
85,103,36272,1,0,0:0:0:0:
68,140,36359,1,0,0:0:0:0:
64,176,36447,6,0,B|60:217|60:217|78:262|128:268|192:256,2,160,2|8|0,0:0|0:0|0:0,0:0:0:0:
144,176,37319,2,0,P|188:156|208:128,1,80,0|8,0:0|0:0,0:0:0:0:
272,84,37668,2,0,P|312:64|428:68,1,160,2|0,0:0|0:0,0:0:0:0:
428,148,38191,5,10,0:0:0:0:
268,228,38365,1,2,0:0:0:0:
306,157,38540,2,0,P|341:176|368:205,1,80
444,236,38888,2,2,P|416:272|372:288,1,80,10|2,0:0|0:0,0:0:0:0:
348,296,39150,1,0,0:0:0:0:
308,300,39237,6,0,L|228:300,1,80
124,260,39586,1,10,0:0:0:0:
124,260,39761,2,0,L|212:260,1,80,2|0,0:0|0:0,0:0:0:0:
272,216,40109,2,0,P|312:208|345:176,1,80,0|8,0:0|0:0,0:0:0:0:
276,136,40458,6,0,B|232:104|232:104|216:48|216:48|172:16,2,160,2|0|2,0:0|0:0|0:0,0:0:0:0:
320,221,41330,1,0,0:0:0:0:
352,312,41505,2,0,B|308:296|308:296|240:296|240:296|192:272,1,160
164,260,41941,1,0,0:0:0:0:
128,244,42028,6,0,L|56:208,1,80,2|0,0:0|0:0,0:0:0:0:
128,156,42377,2,2,L|200:192,1,80,10|2,0:0|0:0,0:0:0:0:
128,332,42726,2,0,L|56:296,1,80
128,156,43074,2,0,P|176:140|224:136,1,80,8|0,0:0|0:0,0:0:0:0:
284,128,43423,5,0,0:0:0:0:
356,164,43598,1,0,0:0:0:0:
400,232,43772,1,10,0:0:0:0:
388,312,43947,1,2,0:0:0:0:
320,352,44121,2,0,P|280:356|220:344,1,80
176,304,44470,1,8,0:0:0:0:
128,236,44644,1,0,0:0:0:0:
128,156,44819,6,0,P|140:104|160:68,1,80
208,140,45168,2,0,P|244:100|279:79,1,80,10|2,0:0|0:0,0:0:0:0:
285,166,45516,2,0,P|336:150|377:149,1,80
341,229,45865,2,0,P|393:241|429:261,1,80,8|0,0:0|0:0,0:0:0:0:
360,312,46214,6,0,P|308:300|272:280,1,80
232,225,46563,2,0,P|255:192|285:166,1,80,10|2,0:0|0:0,0:0:0:0:
364,148,46912,2,0,P|302:90|228:112,1,160,0|8,0:0|0:0,0:0:0:0:
172,152,47435,1,0,0:0:0:0:
132,224,47609,5,0,0:0:0:0:
123,252,47697,1,0,0:0:0:0:
127,281,47784,1,0,0:0:0:0:
140,308,47871,1,0,0:0:0:0:
164,328,47958,1,0,0:0:0:0:
191,338,48045,1,0,0:0:0:0:
220,342,48133,1,0,0:0:0:0:
248,344,48220,1,0,0:0:0:0:
282,344,48307,6,0,L|330:344,3,30.0000011444092
342,344,48656,2,0,P|374:340|410:324,1,60.0000022888184,0|0,0:0|0:0,0:0:0:0:
460,272,49005,6,0,B|474:233|454:183|405:183|405:183|379:224|336:236,1,210.000008010865,2|0,0:0|0:0,0:0:0:0:
292,248,49702,2,2,P|236:256|172:248,1,120.000004577637
144,240,50138,1,0,0:0:0:0:
119,223,50226,1,0,0:0:0:0:
101,199,50313,1,0,0:0:0:0:
87,171,50400,6,0,P|83:132|88:92,1,80,4|0,0:0|0:0,0:0:0:0:
247,132,50749,2,0,P|207:136|168:132,1,80,8|0,0:0|0:0,0:0:0:0:
208,52,51098,2,0,P|247:47|287:52,1,80,2|0,0:0|0:0,0:0:0:0:
360,84,51447,1,8,0:0:0:0:
404,148,51621,1,0,0:0:0:0:
420,228,51795,6,0,P|428:276|428:324,2,80,2|0|8,0:0|0:0|0:0,0:0:0:0:
344,204,52319,1,0,0:0:0:0:
264,196,52493,2,0,P|200:204|160:224,1,80,2|0,0:0|0:0,0:0:0:0:
116,252,52842,2,0,P|80:288|68:320,1,80,8|0,0:0|0:0,0:0:0:0:
116,252,53191,6,0,P|102:202|81:176,1,80,2|0,0:0|0:0,0:0:0:0:
76,68,53540,2,0,P|89:117|110:143,1,80,8|0,0:0|0:0,0:0:0:0:
176,180,53888,2,0,P|252:200|329:181,1,160,2|8,0:0|0:0,0:0:0:0:
376,116,54412,1,0,0:0:0:0:
308,72,54586,6,0,P|264:60|220:68,2,80,2|0|8,0:0|0:0|0:0,0:0:0:0:
376,116,55109,2,0,P|408:152|452:176,1,80,0|2,0:0|0:0,0:0:0:0:
452,248,55458,2,0,P|412:256|372:284,1,80,0|8,0:0|0:0,0:0:0:0:
316,328,55807,1,0,0:0:0:0:
240,356,55981,2,0,P|179:353|130:328,1,80,2|0,0:0|0:0,0:0:0:0:
100,296,56330,1,8,0:0:0:0:
68,220,56505,1,0,0:0:0:0:
84,140,56679,6,0,P|108:100|216:60,2,160,2|8|2,0:0|0:0|0:0,0:0:0:0:
144,192,57551,2,0,P|180:212|224:220,1,80,0|8,0:0|0:0,0:0:0:0:
288,184,57900,1,0,0:0:0:0:
324,168,57987,1,0,0:0:0:0:
364,164,58074,2,0,P|412:168|456:188,2,80,2|0|8,0:0|0:0|0:0,0:0:0:0:
272,88,58598,1,0,0:0:0:0:
272,88,58685,1,0,0:0:0:0:
272,88,58772,6,0,P|216:84|176:68,1,80,2|0,0:0|0:0,0:0:0:0:
116,96,59121,1,8,0:0:0:0:
68,160,59295,2,0,P|60:200|72:248,1,80,0|0,0:0|0:0,0:0:0:0:
108,308,59644,1,0,0:0:0:0:
176,352,59819,2,0,P|215:347|250:327,1,80,8|0,0:0|0:0,0:0:0:0:
308,272,60168,6,0,P|352:248|384:248,2,80,0|0|8,0:0|0:0|0:0,0:0:0:0:
368,328,60691,2,0,P|416:320|456:220,1,160
452,200,61127,1,0,0:0:0:0:
443,173,61214,1,0,0:0:0:0:
435,146,61301,1,0,0:0:0:0:
427,119,61388,1,0,0:0:0:0:
419,92,61476,1,0,0:0:0:0:
412,64,61563,6,0,P|364:53|315:62,1,80,6|0,0:0|0:0,0:0:0:0:
260,88,61912,1,8,0:0:0:0:
212,152,62086,1,0,0:0:0:0:
187,228,62261,2,0,P|180:272|188:308,1,80,2|0,0:0|0:0,0:0:0:0:
340,264,62609,2,0,P|296:256|260:264,1,80,8|0,0:0|0:0,0:0:0:0:
225,245,62871,1,0,0:0:0:0:
187,228,62958,6,0,L|107:196,1,80
20,240,63307,2,0,L|100:272,1,80,10|0,0:0|0:0,0:0:0:0:
240,164,63656,2,0,L|160:132,1,80,2|0,0:0|0:0,0:0:0:0:
48,60,64005,2,0,P|88:72|144:68,1,80,10|0,0:0|0:0,0:0:0:0:
208,63,64354,6,0,P|286:47|364:64,1,160,2|8,0:0|0:0,0:0:0:0:
428,108,64877,1,0,0:0:0:0:
360,148,65051,2,0,P|336:180|328:232,1,80,2|0,0:0|0:0,0:0:0:0:
476,244,65400,2,0,P|444:220|392:212,1,80,8|0,0:0|0:0,0:0:0:0:
327,218,65749,6,0,L|240:240,1,80,2|2,0:0|0:0,0:0:0:0:
172,256,66098,1,8,0:0:0:0:
100,220,66272,2,0,P|42:151|60:77,1,160
131,134,66795,2,0,L|215:126,1,80,8|0,0:0|0:0,0:0:0:0:
292,120,67144,5,2,0:0:0:0:
372,112,67319,1,0,0:0:0:0:
380,192,67493,1,8,0:0:0:0:
300,200,67668,1,0,0:0:0:0:
292,120,67842,5,2,0:0:0:0:
392,152,68016,1,0,0:0:0:0:
360,260,68191,1,8,0:0:0:0:
260,228,68365,1,0,0:0:0:0:
176,152,68540,6,0,P|140:132|96:124,1,80,2|0,0:0|0:0,0:0:0:0:
56,60,68888,2,0,P|32:93|19:136,1,80,8|0,0:0|0:0,0:0:0:0:
24,212,69237,2,0,P|60:232|104:240,1,80,2|0,0:0|0:0,0:0:0:0:
144,303,69586,2,0,P|167:271|179:233,1,80,8|0,0:0|0:0,0:0:0:0:
212,160,69935,6,0,P|272:140|380:160,2,160,2|8|2,0:0|0:0|0:0,0:0:0:0:
179,234,70807,2,0,P|203:266|243:286,1,80,0|8,0:0|0:0,0:0:0:0:
316,272,71156,1,0,0:0:0:0:
388,236,71330,6,0,P|424:220|472:216,2,80,2|0|8,0:0|0:0|0:0,0:0:0:0:
324,188,71854,2,0,P|280:176|248:148,1,80,0|2,0:0|0:0,0:0:0:0:
212,88,72202,1,0,0:0:0:0:
288,60,72377,2,0,P|328:52|376:56,1,80,8|0,0:0|0:0,0:0:0:0:
432,100,72726,6,0,B|468:147|468:147|420:146|391:175|380:217,2,160,2|8|0,0:0|0:0|0:0,0:0:0:0:
464,232,73598,2,0,P|436:264|372:276,1,80,0|8,0:0|0:0,0:0:0:0:
320,280,73947,1,0,0:0:0:0:
236,280,74121,6,0,B|192:280|192:280|148:256|128:208|136:160,2,160,2|8|0,0:0|0:0|0:0,0:0:0:0:
272,208,74993,1,0,0:0:0:0:
292,132,75168,2,0,P|292:92|276:56,1,80,8|0,0:0|0:0,0:0:0:0:
216,108,75516,6,0,L|128:128,1,80,2|0,0:0|0:0,0:0:0:0:
28,240,75865,2,0,L|116:220,1,80,8|0,0:0|0:0,0:0:0:0:
252,276,76214,2,0,P|208:272|164:284,1,80,2|0,0:0|0:0,0:0:0:0:
316,352,76563,2,0,P|360:356|404:344,1,80,8|0,0:0|0:0,0:0:0:0:
460,304,76912,6,0,P|488:256|448:164,2,160,2|8|2,0:0|0:0|0:0,0:0:0:0:
388,268,77784,1,0,0:0:0:0:
312,240,77958,2,0,P|268:232|212:244,1,80,8|0,0:0|0:0,0:0:0:0:
176,292,78307,6,0,P|140:332|40:360,2,160,2|8|2,0:0|0:0|0:0,0:0:0:0:
148,216,79179,1,0,0:0:0:0:
160,136,79354,1,8,0:0:0:0:
224,92,79528,1,0,0:0:0:0:
300,112,79702,6,0,B|340:128|340:128|388:188|388:188|424:204,2,160,2|8|2,0:0|0:0|0:0,0:0:0:0:
248,172,80574,1,0,0:0:0:0:
292,240,80749,1,8,0:0:0:0:
272,316,80923,1,0,0:0:0:0:
204,352,81098,5,2,0:0:0:0:
175,361,81185,1,0,0:0:0:0:
145,363,81272,1,0,0:0:0:0:
116,358,81359,1,0,0:0:0:0:
89,345,81447,1,8,0:0:0:0:
67,325,81534,1,0,0:0:0:0:
50,300,81621,1,0,0:0:0:0:
41,272,81708,1,0,0:0:0:0:
39,242,81795,6,0,L|40:184,3,30.0000011444092,2|0|0|0,0:0|0:0|0:0|0:0,0:0:0:0:
124,180,82144,2,0,L|124:121,3,30.0000011444092,8|0|0|0,0:0|0:0|0:0|0:0,0:0:0:0:
212,128,82493,6,0,L|301:108,1,80,2|0,0:0|0:0,0:0:0:0:
448,116,82842,2,0,L|358:135,1,80,8|0,0:0|0:0,0:0:0:0:
317,193,83191,2,0,P|297:234|302:277,1,80,2|0,0:0|0:0,0:0:0:0:
412,336,83540,2,0,P|431:294|426:251,1,80,8|0,0:0|0:0,0:0:0:0:
256,192,83888,12,2,86941,0:0:0:0:
