osu file format v13

[General]
AudioFilename: The Everlasting Guilty Crown.mp3
AudioLeadIn: 2000
PreviewTime: 49009
Countdown: 0
SampleSet: None
StackLeniency: 0.4
Mode: 0
LetterboxInBreaks: 0
WidescreenStoryboard: 0

[Editor]
DistanceSpacing: 0.8
BeatDivisor: 4
GridSize: 4
TimelineZoom: 1.7

[Metadata]
Title:The Everlasting Guilty Crown -TV Edit-
TitleUnicode:The Everlasting Guilty Crown -TV Edit-
Artist:EGOIST
ArtistUnicode:EGOIST
Creator:Yauxo
Version:Frostings' Insane
Source:Guilty Crown
Tags:samah ryo supercell chelly opening frostings karia
BeatmapID:455013
BeatmapSetID:173234

[Difficulty]
HPDrainRate:7
CircleSize:4
OverallDifficulty:8
ApproachRate:9
SliderMultiplier:1.6
SliderTickRate:1

[Events]
//Background and Video events
0,0,"gc.png",0,0
Video,-356,"gcv.avi"
//Break Periods
//Storyboard Layer 0 (Background)
//Storyboard Layer 1 (Fail)
//Storyboard Layer 2 (Pass)
//Storyboard Layer 3 (Foreground)
//Storyboard Sound Samples
//Background Colour Transformations
3,100,163,162,255

[TimingPoints]
168,348.837209302326,4,2,1,50,1,0
5749,-86.9565217391304,4,2,1,50,0,0
28074,-83.3333333333333,4,2,1,50,0,0
49005,-133.333333333333,4,2,1,50,0,0
49528,-133.333333333333,4,2,1,20,0,0
49702,-133.333333333333,4,2,1,50,0,0
50400,-76.9230769230769,4,2,1,50,0,1
55981,-83.3333333333333,4,2,1,50,0,1
61214,-83.3333333333333,4,2,1,50,0,0
61563,-74.0740740740741,4,2,1,50,0,1
72726,-90.9090909090909,4,2,1,50,0,1
74819,-76.9230769230769,4,2,1,50,0,1
76214,-66.6666666666667,4,2,1,50,0,1
76912,-76.9230769230769,4,2,1,50,0,1
78307,-76.9230769230769,4,2,1,50,0,0
81098,-100,4,2,1,50,0,0

[Colours]
Combo1 : 255,23,255
Combo2 : 10,146,211
Combo3 : 187,15,253
Combo4 : 128,128,255

[HitObjects]
256,268,168,6,0,P|264:224|263:166,1,80
68,184,516,2,0,P|69:223|76:263,1,80,8|0,0:0|0:0,0:0:0:0:
172,300,865,2,0,P|176:192|168:132,1,160,0|8,0:0|0:0,0:0:0:0:
88,88,1388,5,0,0:0:0:0:
88,88,1737,1,0,0:0:0:0:
80,288,1912,1,8,0:0:0:0:
80,288,2261,1,0,0:0:0:0:
256,192,2435,1,8,0:0:0:0:
184,236,2958,5,0,0:0:0:0:
214,120,3133,1,0,0:0:0:0:
327,152,3307,1,8,0:0:0:0:
296,265,3481,1,0,0:0:0:0:
256,192,3656,6,0,P|224:108|249:34,1,160,0|8,0:0|0:0,0:0:0:0:
368,224,4179,2,0,P|312:296|235:308,1,160
340,112,4702,1,8,0:0:0:0:
340,112,5051,1,0,0:0:0:0:
444,280,5226,1,8,0:0:0:0:
444,280,5749,6,0,P|464:224|453:172,1,92.0000017547608,4|0,1:0|2:0,0:0:0:0:
256,256,6098,2,0,P|294:301|345:317,1,92.0000017547608,2|0,1:2|2:0,0:0:0:0:
356,212,6447,1,0,0:0:0:0:
340,112,6621,1,0,2:0:0:0:
240,128,6795,1,0,1:0:0:0:
256,228,6970,1,0,2:0:0:0:
424,148,7144,6,0,L|440:52,1,92.0000017547608,2|0,0:0|2:0,0:0:0:0:
176,88,7493,2,0,L|192:179,1,92.0000017547608,2|0,1:2|2:0,0:0:0:0:
316,100,7842,2,0,L|315:2,1,92.0000017547608,2|0,0:0|2:0,0:0:0:0:
56,88,8191,2,0,L|87:174,1,92.0000017547608,2|0,1:2|2:0,0:0:0:0:
256,284,8540,6,0,P|251:171|161:131,1,184.000003509522,0|2,0:0|1:2,0:0:0:0:
164,328,9063,2,0,P|199:366|244:382,1,92.0000017547608,2|0,2:0|0:0,0:0:0:0:
172,232,9412,1,0,2:0:0:0:
84,272,9586,1,0,1:0:0:0:
256,284,9761,1,0,2:0:0:0:
96,176,9935,6,0,P|76:92|140:16,1,184.000003509522,2|0,0:0|1:0,0:0:0:0:
300,56,10458,1,0,2:0:0:0:
176,112,10633,2,0,P|164:64|168:20,1,92.0000017547608,2|0,0:0|2:0,0:0:0:0:
380,108,10981,2,0,P|383:153|371:197,1,92.0000017547608,2|0,1:2|2:0,0:0:0:0:
188,212,11330,5,0,0:0:0:0:
288,144,11505,1,0,2:0:0:0:
396,200,11679,2,0,L|492:220,1,92.0000017547608,0|0,1:0|2:0,0:0:0:0:
300,264,12028,1,0,0:0:0:0:
188,212,12202,1,0,2:0:0:0:
181,89,12377,2,0,L|152:1,1,92.0000017547608,0|0,1:0|2:0,0:0:0:0:
288,144,12726,5,0,0:0:0:0:
300,264,12900,1,0,2:0:0:0:
184,288,13074,2,0,L|122:357,1,92.0000017547608,0|0,1:0|2:0,0:0:0:0:
172,168,13423,1,0,0:0:0:0:
269,97,13598,1,0,2:0:0:0:
376,152,13772,1,0,1:0:0:0:
276,216,13947,1,0,2:0:0:0:
276,216,14034,1,0,2:0:0:0:
276,216,14121,6,0,P|258:146|274:99,1,92.0000017547608,0|0,0:0|2:0,0:0:0:0:
336,60,14470,1,0,1:0:0:0:
448,92,14644,2,0,P|465:161|449:208,1,92.0000017547608,0|0,2:0|0:0,0:0:0:0:
380,244,14993,1,0,2:0:0:0:
256,192,15168,2,0,P|211:182|166:192,1,92.0000017547608,0|0,1:0|0:0,0:0:0:0:
376,332,15516,6,0,P|358:265|321:233,1,92.0000017547608,2|0,2:0|2:0,0:0:0:0:
167,134,15865,2,0,P|142:97|136:52,1,92.0000017547608,0|0,0:0|2:0,0:0:0:0:
376,52,16214,2,0,P|369:97|344:134,1,92.0000017547608,2|0,0:0|2:0,0:0:0:0:
167,249,16563,2,0,P|142:286|136:332,1,92.0000017547608,0|0,2:0|2:0,0:0:0:0:
256,192,16912,5,4,0:0:0:0:
256,192,17261,2,0,L|444:160,1,184.000003509522,0|0,1:0|0:0,0:0:0:0:
340,281,17784,1,0,0:0:0:0:
168,210,17958,1,0,1:0:0:0:
316,104,18133,1,0,0:0:0:0:
424,252,18307,6,0,L|444:356,1,92.0000017547608,2|2,0:0|0:0,0:0:0:0:
316,200,18656,2,0,L|317:305,1,92.0000017547608,0|0,1:2|0:0,0:0:0:0:
218,130,19005,2,0,L|200:233,1,92.0000017547608,2|0,0:2|0:0,0:0:0:0:
132,42,19354,2,0,L|97:141,1,92.0000017547608,0|0,1:0|0:2,0:0:0:0:
316,104,19702,6,0,B|380:96|380:96|412:48|412:48|476:40,1,184.000003509522,0|0,0:0|1:0,0:0:0:0:
328,8,20226,1,2,0:2:0:0:
464,136,20400,2,0,B|480:180|480:180|468:228,1,92.0000017547608
240,152,20749,2,0,B|224:108|224:108|236:60,1,92.0000017547608,0|0,1:0|0:0,0:0:0:0:
352,188,21098,5,2,0:0:0:0:
260,288,21272,1,0,0:0:0:0:
160,196,21447,1,0,1:0:0:0:
252,96,21621,1,0,0:0:0:0:
392,144,21795,2,0,L|384:248,1,92.0000017547608,2|0,0:2|0:2,0:0:0:0:
120,240,22144,2,0,L|128:136,1,92.0000017547608,2|0,1:2|0:0,0:0:0:0:
256,192,22493,6,0,P|304:76|256:20,1,184.000003509522,0|2,0:0|1:2,0:0:0:0:
132,12,23016,1,2,0:2:0:0:
8,76,23191,2,0,P|0:164|4:180,1,92.0000017547608
196,144,23540,2,0,P|204:56|200:40,1,92.0000017547608,0|0,1:2|0:2,0:0:0:0:
88,280,23888,6,0,P|132:272|168:240,1,92.0000017547608,2|0,0:2|0:0,0:0:0:0:
340,104,24237,2,0,P|374:74|418:65,1,92.0000017547608,0|0,1:2|0:0,0:0:0:0:
424,280,24586,2,0,P|380:272|344:240,1,92.0000017547608,2|2,0:2|0:2,0:0:0:0:
172,104,24935,2,0,P|138:74|94:65,1,92.0000017547608,0|2,1:2|0:2,0:0:0:0:
144,192,25284,5,0,0:0:0:0:
256,304,25458,1,0,0:0:0:0:
368,192,25633,1,0,1:0:0:0:
256,80,25807,1,0,0:0:0:0:
191,280,25981,1,0,0:0:0:0:
360,158,26156,1,0,0:0:0:0:
151,158,26330,1,0,1:0:0:0:
320,280,26505,1,0,0:0:0:0:
256,192,26679,5,2,0:0:0:0:
256,192,27900,1,0,0:0:0:0:
124,184,28074,6,0,P|99:85|152:16,1,191.999994140625,4|0,0:0|1:0,0:0:0:0:
284,28,28598,1,0,0:0:0:0:
372,88,28772,2,0,P|380:132|372:188,1,95.9999970703126,2|0,0:0|0:0,0:0:0:0:
192,112,29121,2,0,P|192:36|204:8,1,95.9999970703126,0|0,1:0|0:0,0:0:0:0:
254,200,29470,6,0,P|211:220|164:220,1,95.9999970703126,2|0,0:0|0:0,0:0:0:0:
20,72,29819,2,0,P|88:49|123:56,1,95.9999970703126,0|0,1:0|0:0,0:0:0:0:
68,236,30168,1,2,0:0:0:0:
84,144,30342,1,0,0:0:0:0:
164,220,30516,1,0,1:0:0:0:
192,112,30691,1,0,0:0:0:0:
316,192,30865,6,0,P|388:216|428:200,1,95.9999970703126,2|0,0:0|0:0,0:0:0:0:
404,28,31214,2,0,P|356:25|314:48,1,95.9999970703126,0|0,1:0|0:0,0:0:0:0:
264,268,31563,1,2,0:0:0:0:
376,120,31737,1,0,0:0:0:0:
449,291,31912,1,0,1:0:0:0:
228,184,32086,1,0,0:0:0:0:
360,228,32261,6,0,P|412:224|460:192,1,95.9999970703126,2|0,0:0|0:0,0:0:0:0:
200,80,32609,2,0,P|148:84|100:116,1,95.9999970703126,0|0,1:0|0:0,0:0:0:0:
248,231,32958,2,0,P|268:189|269:141,1,95.9999970703126,2|0,0:0|0:0,0:0:0:0:
88,200,33307,1,0,1:0:0:0:
154,264,33481,1,0,0:0:0:0:
180,96,33656,6,0,P|260:40|360:96,1,191.999994140625,0|0,0:0|1:0,0:0:0:0:
376,176,34179,1,0,0:0:0:0:
92,160,34354,2,0,P|72:84|80:52,1,95.9999970703126,2|0,0:0|0:0,0:0:0:0:
270,141,34702,2,0,P|290:217|282:249,1,95.9999970703126,0|0,1:0|0:0,0:0:0:0:
192,204,35051,5,2,0:0:0:0:
176,100,35226,1,0,0:0:0:0:
260,36,35400,1,0,1:0:0:0:
352,80,35574,1,0,0:0:0:0:
96,168,35749,2,0,L|0:188,1,95.9999970703126,2|0,0:0|0:0,0:0:0:0:
288,244,36098,2,0,L|384:264,1,95.9999970703126,0|0,1:0|0:0,0:0:0:0:
192,204,36447,6,0,P|172:144|200:76,1,95.9999970703126,2|0,0:0|0:0,0:0:0:0:
344,88,36795,2,0,P|302:135|229:145,1,95.9999970703126,0|0,1:0|0:0,0:0:0:0:
254,48,37144,1,2,0:0:0:0:
372,200,37319,1,0,0:0:0:0:
448,120,37493,1,0,1:0:0:0:
192,204,37668,1,0,0:0:0:0:
368,288,37842,6,0,L|484:304,1,95.9999970703126,2|0,0:0|0:0,0:0:0:0:
276,186,38191,2,0,L|372:200,1,95.9999970703126,0|0,1:0|0:0,0:0:0:0:
184,86,38540,2,0,L|279:99,1,95.9999970703126,2|0,0:0|0:0,0:0:0:0:
176,180,38888,1,0,1:0:0:0:
84,68,39063,1,0,0:0:0:0:
364,64,39237,6,0,P|351:155|332:176,1,95.9999970703126
176,180,39586,1,0,1:0:0:0:
280,99,39761,1,0,0:0:0:0:
298,229,39935,2,0,L|312:332,1,95.9999970703126,2|0,0:0|0:0,0:0:0:0:
76,212,40284,2,0,L|88:116,1,95.9999970703126,0|0,1:0|0:0,0:0:0:0:
152,280,40633,5,2,0:0:0:0:
184,84,40807,1,0,0:0:0:0:
312,228,40981,2,0,L|416:252,1,95.9999970703126,0|0,1:0|0:0,0:0:0:0:
336,332,41330,1,2,0:0:0:0:
392,136,41505,1,0,0:0:0:0:
200,228,41679,2,0,L|96:252,1,95.9999970703126,0|0,1:0|0:0,0:0:0:0:
296,208,42028,5,2,0:0:0:0:
135,154,42202,1,0,0:0:0:0:
170,317,42377,1,0,1:0:0:0:
230,135,42551,1,0,0:0:0:0:
265,297,42726,2,0,P|348:320|376:312,1,95.9999970703126,2|0,0:0|0:0,0:0:0:0:
112,244,43074,2,0,P|64:244|21:265,1,95.9999970703126,0|0,1:0|0:0,0:0:0:0:
200,228,43423,6,0,P|220:124|192:40,1,191.999994140625,2|0,0:0|1:0,0:0:0:0:
135,154,43947,1,0,0:0:0:0:
300,212,44121,2,0,P|384:184|400:152,1,95.9999970703126,2|0,0:0|0:0,0:0:0:0:
340,44,44470,2,0,P|256:72|240:104,1,95.9999970703126,0|0,1:0|0:0,0:0:0:0:
198,234,44819,5,2,0:0:0:0:
226,153,44993,1,0,0:0:0:0:
172,88,45168,1,0,1:0:0:0:
196,8,45342,1,0,0:0:0:0:
84,108,45516,2,0,P|82:184|106:230,1,95.9999970703126
280,276,45865,2,0,P|281:199|257:153,1,95.9999970703126,0|0,1:0|0:0,0:0:0:0:
111,283,46214,5,2,0:0:0:0:
196,280,46388,1,0,0:0:0:0:
244,352,46563,1,0,1:0:0:0:
326,351,46737,1,0,0:0:0:0:
152,200,46912,2,0,P|140:153|146:106,1,95.9999970703126
360,184,47261,2,0,P|371:230|365:277,1,95.9999970703126,0|0,1:0|0:0,0:0:0:0:
256,192,47609,5,0,1:0:0:0:
348,80,47784,1,0,0:0:0:0:
458,174,47958,1,0,1:0:0:0:
366,284,48133,1,0,0:0:0:0:
168,256,48307,5,0,3:0:0:0:
153,229,48394,1,0,3:0:0:0:
146,200,48481,1,0,3:0:0:0:
147,170,48569,1,0,3:0:0:0:
156,142,48656,1,0,3:0:0:0:
173,117,48743,1,0,3:0:0:0:
196,98,48830,1,0,3:0:0:0:
223,85,48918,1,0,3:0:0:0:
252,81,49005,6,0,P|336:116|364:208,1,180.000006866455
259,302,49702,2,0,P|176:268|148:176,1,180.000006866455
344,276,50400,6,0,L|456:300,1,103.999995239258,4|0,0:0|0:0,0:0:0:0:
256,192,50749,2,0,L|144:216,1,103.999995239258,0|0,1:0|0:0,0:0:0:0:
368,168,51098,2,0,P|388:80|376:48,1,103.999995239258
192,52,51447,1,0,1:0:0:0:
296,104,51621,1,0,0:0:0:0:
100,216,51795,6,0,P|88:160|96:104,1,103.999995239258
296,104,52144,2,0,P|308:160|296:220,1,103.999995239258,0|0,1:0|0:0,0:0:0:0:
205,256,52493,2,0,P|187:154|192:51,1,207.999990478516,0|0,0:0|1:0,0:0:0:0:
340,188,53016,1,0,0:0:0:0:
140,328,53191,6,0,P|84:360|40:360,1,103.999995239258
48,116,53540,2,0,P|99:120|142:149,1,103.999995239258,0|0,1:0|0:0,0:0:0:0:
256,292,53888,1,0,0:0:0:0:
256,292,54063,1,0,0:0:0:0:
252,144,54237,2,0,P|244:96|252:16,1,103.999995239258,0|0,1:0|0:0,0:0:0:0:
440,68,54586,6,0,P|448:116|440:196,2,103.999995239258,0|0|0,0:0|0:0|1:0,0:0:0:0:
372,240,55109,1,0,0:0:0:0:
264,192,55284,2,0,P|208:204|168:240,1,103.999995239258
32,356,55633,2,0,P|88:344|128:308,1,103.999995239258,0|0,1:0|0:0,0:0:0:0:
76,228,55981,5,2,0:0:0:0:
76,228,56330,1,0,1:0:0:0:
208,312,56505,1,0,0:0:0:0:
164,152,56679,2,0,P|152:76|164:36,1,95.9999970703126
348,232,57028,2,0,P|360:308|348:348,1,95.9999970703126,0|0,1:0|0:0,0:0:0:0:
155,325,57377,2,0,P|151:278|164:232,1,95.9999970703126
348,152,57726,2,0,P|360:76|348:36,1,95.9999970703126,0|0,1:0|0:0,0:0:0:0:
256,192,58074,5,0,0:0:0:0:
256,192,58423,1,0,1:0:0:0:
348,232,58598,1,0,0:0:0:0:
344,140,58772,2,0,L|416:68,1,95.9999970703126
204,104,59121,2,0,L|136:36,1,95.9999970703126,0|0,1:0|0:0,0:0:0:0:
168,244,59470,2,0,L|96:316,1,95.9999970703126
308,280,59819,2,0,L|375:347,1,95.9999970703126,0|0,1:0|0:0,0:0:0:0:
148,164,60168,5,0,0:0:0:0:
284,84,60342,1,0,0:0:0:0:
364,220,60516,1,0,1:0:0:0:
228,300,60691,1,0,0:0:0:0:
156,76,60865,1,0,0:0:0:0:
356,308,61040,1,0,0:0:0:0:
256,192,61214,1,0,1:0:0:0:
276,148,61301,1,0,0:0:0:0:
313,118,61388,1,0,0:0:0:0:
359,107,61476,1,0,0:0:0:0:
406,116,61563,6,0,P|460:164|476:208,1,108.000000411987,4|0,0:0|0:0,0:0:0:0:
456,312,61912,1,0,1:0:0:0:
280,356,62086,1,0,0:0:0:0:
164,232,62261,2,0,P|152:184|152:116,1,108.000000411987
348,152,62609,2,0,P|360:200|360:268,1,108.000000411987,0|0,1:0|0:0,0:0:0:0:
256,192,62958,5,0,0:0:0:0:
304,60,63133,1,0,0:0:0:0:
436,108,63307,1,0,1:0:0:0:
388,240,63481,1,0,0:0:0:0:
348,152,63656,2,0,P|260:128|224:136,1,108.000000411987
88,312,64005,2,0,P|176:336|212:328,1,108.000000411987,0|0,1:0|0:0,0:0:0:0:
156,36,64354,6,0,P|117:133|160:229,1,216.000000823975,0|0,0:0|1:0,0:0:0:0:
320,128,64877,1,0,0:0:0:0:
228,80,65051,2,0,P|218:132|244:203,1,108.000000411987
412,172,65400,2,0,P|421:119|395:48,1,108.000000411987,0|0,1:0|0:0,0:0:0:0:
116,184,65749,5,0,0:0:0:0:
93,98,65923,1,0,0:0:0:0:
156,36,66098,1,0,1:0:0:0:
176,120,66272,2,0,P|170:203|181:269,1,108.000000411987,0|0,0:0|0:0,0:0:0:0:
256,192,66621,1,0,0:0:0:0:
244,56,66795,1,0,1:0:0:0:
104,180,66970,1,0,0:0:0:0:
336,264,67144,6,0,P|341:180|330:114,1,108.000000411987,0|0,0:0|0:0,0:0:0:0:
176,120,67493,2,0,P|170:203|181:269,1,108.000000411987,0|0,1:0|0:0,0:0:0:0:
432,308,67842,2,0,P|463:164|396:86,1,216.000000823975,0|0,0:0|1:0,0:0:0:0:
312,40,68365,1,0,0:0:0:0:
168,120,68540,6,0,P|162:203|173:269,1,108.000000411987,0|0,0:0|0:0,0:0:0:0:
344,264,68888,2,0,P|350:181|339:115,1,108.000000411987,0|0,1:0|0:0,0:0:0:0:
80,76,69237,2,0,P|48:219|115:297,1,216.000000823975,0|0,0:0|1:0,0:0:0:0:
200,344,69761,1,0,0:0:0:0:
152,228,69935,6,0,P|144:176|154:120,1,108.000000411987,0|0,0:0|0:0,0:0:0:0:
360,156,70284,2,0,P|368:208|357:263,1,108.000000411987,0|0,1:0|0:0,0:0:0:0:
256,296,70633,2,0,P|252:212|260:36,1,216.000000823975,0|0,0:0|1:0,0:0:0:0:
360,48,71156,1,0,0:0:0:0:
152,240,71330,6,0,P|100:272|16:272,1,108.000000411987
64,44,71679,2,0,P|115:57|151:95,1,108.000000411987,0|0,1:0|0:0,0:0:0:0:
360,240,72028,2,0,P|412:272|496:272,1,108.000000411987
448,44,72377,2,0,P|396:57|360:95,1,108.000000411987,0|0,1:0|0:0,0:0:0:0:
188,320,72726,5,0,0:0:0:0:
324,320,72900,1,0,0:0:0:0:
324,184,73074,1,0,1:0:0:0:
188,184,73249,1,0,0:0:0:0:
256,252,73423,6,0,L|256:40,1,176.000005371094,0|0,0:0|1:0,0:0:0:0:
356,92,73947,1,0,0:0:0:0:
164,280,74121,2,0,P|104:296|72:288,1,88.000002685547
348,280,74470,2,0,P|408:296|440:288,1,88.000002685547,0|0,1:0|0:0,0:0:0:0:
256,252,74819,6,0,B|236:208|236:208|272:176|272:176|248:136|256:64,1,207.999990478516,0|0,0:0|1:0,0:0:0:0:
356,92,75342,1,0,0:0:0:0:
324,320,75516,1,0,0:0:0:0:
188,320,75691,1,0,0:0:0:0:
188,184,75865,1,0,1:0:0:0:
324,184,76040,1,0,0:0:0:0:
256,252,76214,6,0,B|228:228|216:180|216:180|241:158|264:132|264:132|252:88|256:44,1,240.000009155274,0|0,0:0|1:0,0:0:0:0:
356,92,76737,1,0,0:0:0:0:
380,212,76912,2,0,L|392:332,1,103.999995239258
132,172,77261,2,0,L|120:52,1,103.999995239258,0|0,1:0|0:0,0:0:0:0:
200,256,77609,2,0,P|120:280|82:266,1,103.999995239258
312,128,77958,2,0,P|392:104|429:117,1,103.999995239258,0|0,1:0|0:0,0:0:0:0:
328,328,78307,5,0,0:0:0:0:
140,192,78481,1,0,0:0:0:0:
372,192,78656,1,0,1:0:0:0:
184,328,78830,1,0,0:0:0:0:
256,104,79005,1,2,0:0:0:0:
256,104,79354,1,0,1:0:0:0:
256,104,79702,5,0,0:0:0:0:
127,228,79877,1,0,0:0:0:0:
385,228,80051,1,0,1:0:0:0:
256,356,80226,1,0,0:0:0:0:
256,228,80400,1,2,0:0:0:0:
256,228,80749,1,0,1:0:0:0:
256,228,81098,6,0,L|232:168,3,40,0|0|0|0,0:0|0:0|0:0|0:0,0:0:0:0:
348,148,81447,2,0,L|324:208,3,40,0|0|0|0,3:0|3:0|3:0|3:0,0:0:0:0:
264,116,81795,2,0,L|240:56,3,40,0|0|0|0,0:0|0:0|0:0|0:0,0:0:0:0:
228,56,82144,1,0,1:0:0:0:
188,51,82231,1,0,3:0:0:0:
150,60,82319,1,0,3:0:0:0:
117,84,82406,1,0,3:0:0:0:
96,118,82493,6,0,L|100:176,3,40,0|0|0|0,0:0|0:0|0:0|0:0,0:0:0:0:
184,184,82842,2,0,L|186:144,3,40,0|0|0|0,1:0|3:0|3:0|3:0,0:0:0:0:
276,168,83191,1,0,0:0:0:0:
308,175,83278,1,0,0:0:0:0:
341,171,83365,1,0,0:0:0:0:
371,157,83452,1,0,0:0:0:0:
395,134,83540,1,0,3:0:0:0:
410,105,83627,1,0,3:0:0:0:
415,72,83714,1,0,3:0:0:0:
256,192,83888,12,2,86941,0:0:0:0:
