osu file format v12

[General]
AudioFilename: Supercell EGOIST - The Everlasting Guilty Crown (pocotan Remix) [ OP2]_mp4.mp3
AudioLeadIn: 0
PreviewTime: 109506
Countdown: 0
SampleSet: Normal
StackLeniency: 0.7
Mode: 0
LetterboxInBreaks: 0
WidescreenStoryboard: 1

[Editor]
DistanceSpacing: 0.6
BeatDivisor: 4
GridSize: 4

[Metadata]
Title:The Everlasting Guilty Crown (pocotan Remix)
TitleUnicode:The Everlasting Guilty Crown (pocotan Remix)
Artist:EGOIST
ArtistUnicode:EGOIST
Creator:BluOxy
Version:Marathon
Source:Guilty Crown
Tags:mix
BeatmapID:365733
BeatmapSetID:137165

[Difficulty]
HPDrainRate:6
CircleSize:4
OverallDifficulty:7
ApproachRate:9
SliderMultiplier:1.8
SliderTickRate:2

[Events]
//Background and Video events
0,0,"23873_guilty_crown.jpg",0,0
//Break Periods
2,131039,132906
2,240372,242239
//Storyboard Layer 0 (Background)
//Storyboard Layer 1 (Fail)
//Storyboard Layer 2 (Pass)
//Storyboard Layer 3 (Foreground)
//Storyboard Sound Samples
//Background Colour Transformations
3,100,163,162,255

[TimingPoints]
175,333.333333333333,4,1,0,65,1,0
21508,-133.333333333333,4,1,0,65,0,0
42841,-100,4,1,0,65,0,0
64174,-100,4,1,0,65,0,0
84175,-100,4,1,0,65,0,0
85508,-133.333333333333,4,1,0,65,0,0
96174,-100,4,1,0,65,0,0
101508,-100,4,1,0,65,0,0
102175,-100,4,1,0,65,0,0
102841,-100,4,1,0,65,0,0
103508,-100,4,1,0,65,0,0
104175,-100,4,1,0,65,0,0
105508,-100,4,1,0,65,0,0
106841,1333.33333333333,4,1,0,65,1,0
108173,333.333333333333,4,1,0,65,1,0
109173,-83.3333333333333,4,1,0,65,0,0
109339,-100,4,1,0,5,0,0
109506,-83.3333333333333,4,1,0,65,0,1
116172,-71.4285714285714,4,1,0,65,0,1
117172,-83.3333333333333,4,1,0,65,0,1
130839,-200,4,1,0,65,0,0
136172,-100,4,1,0,65,0,0
141508,-100,4,1,0,65,0,0
152174,-100,4,1,0,65,0,0
162841,-133.333333333333,4,1,0,65,0,0
168174,-100,4,1,0,65,0,0
173508,-100,4,1,0,65,0,0
194841,-100,4,1,0,65,0,0
214841,-100,4,1,0,65,0,0
216172,-83.3333333333333,4,1,0,65,0,1
222839,-71.4285714285714,4,1,0,65,0,1
223839,-83.3333333333333,4,1,0,65,0,1
237506,1333.33333333333,4,1,0,65,1,0
242839,333.333333333333,4,1,0,65,1,0
242839,-200,4,1,0,65,0,0
248172,-133.333333333333,4,1,0,65,0,0
258838,-100,4,1,0,65,0,0
266839,-100,4,1,0,65,0,0
270839,-200,4,1,0,65,0,0
272172,-200,4,2,0,65,0,0
292172,-100,4,1,0,65,0,0
292505,-100,4,1,0,35,0,0
292838,-100,4,1,0,65,0,0
293172,-100,4,1,0,35,0,0
293505,-133.333333333333,4,1,0,65,0,0
293838,-133.333333333333,4,1,0,65,0,1
294172,-71.4285714285714,4,1,0,65,0,1
314838,-83.3333333333333,4,1,0,65,0,1
336172,-100,4,1,0,65,0,0
357505,612.244897959184,4,2,0,55,1,0
358117,-100,4,2,0,50,0,0
358729,-100,4,2,0,47,0,0
359035,666.666666666667,4,2,0,40,1,0
359368,-100,4,2,0,37,0,0
359701,-100,4,2,0,42,0,0
360368,-100,4,2,0,47,0,0
360535,-100,4,2,0,5,0,0

[Colours]
Combo1 : 173,173,173
Combo2 : 255,170,85
Combo3 : 244,113,116
Combo4 : 234,72,198

[HitObjects]
96,80,175,1,2,0:0:0:0:
184,56,341,2,0,P|208:144|168:240,1,180
80,208,841,2,0,P|136:152|256:152,1,180,2|2,0:0|0:0,0:0:0:0:
272,224,1341,2,0,P|216:280|96:280,1,180,0|2,0:0|0:0,0:0:0:0:
80,208,1841,2,0,L|144:136,1,90,0|0,0:0|0:0,0:0:0:0:
96,64,2174,2,0,L|187:33,1,90,2|0,0:0|0:0,0:0:0:0:
432,144,2841,5,2,0:0:0:0:
472,224,3008,2,0,P|384:272|288:256,1,180
232,208,3508,2,0,P|234:107|296:32,1,180,2|2,0:0|0:0,0:0:0:0:
312,128,4008,2,0,B|280:100|230:120|230:120|212:60|168:56,1,180,0|2,0:0|0:0,0:0:0:0:
96,96,4508,2,0,P|128:136|128:192,1,90
88,256,4841,1,2,0:0:0:0:
88,256,5008,1,0,0:0:0:0:
328,136,5508,6,0,P|304:104|296:48,2,90,2|0|2,0:0|0:0|0:0,0:0:0:0:
416,168,6008,2,0,P|440:216|432:272,1,90,0|2,0:0|0:0,0:0:0:0:
400,336,6341,1,0,0:0:0:0:
336,272,6508,2,0,P|306:316|253:337,1,90,2|0,0:0|0:0,0:0:0:0:
184,344,6841,6,0,P|107:323|59:227,1,180,2|2,0:0|0:0,0:0:0:0:
56,152,7341,1,0,0:0:0:0:
104,80,7508,2,0,L|200:96,1,90,2|0,0:0|0:0,0:0:0:0:
344,320,8174,5,2,0:0:0:0:
264,272,8341,2,0,L|176:312,1,90,0|2,0:0|0:0,0:0:0:0:
128,236,8674,1,0,0:0:0:0:
184,164,8841,2,0,P|140:144|92:152,1,90,2|0,0:0|0:0,0:0:0:0:
108,60,9174,2,0,P|154:72|200:55,1,90,2|0,0:0|0:0,0:0:0:0:
280,24,9508,5,8,0:0:0:0:
296,48,9591,1,0,0:0:0:0:
304,80,9674,1,2,0:0:0:0:
304,112,9758,1,0,0:0:0:0:
296,144,9841,2,0,L|264:200,1,45,8|0,0:0|0:0,0:0:0:0:
384,88,10008,2,0,L|392:32,1,45
440,184,10174,2,0,L|448:240,2,45
320,356,10841,6,0,P|268:332|244:304,1,90,2|0,0:0|0:0,0:0:0:0:
224,220,11174,1,10,0:0:0:0:
136,256,11341,2,0,L|80:280,2,45,0|0|2,0:0|0:0|0:0,0:0:0:0:
308,184,11674,1,0,0:0:0:0:
260,108,11841,1,10,0:0:0:0:
176,76,12008,1,0,0:0:0:0:
87,106,12174,6,0,P|63:162|79:218,1,90,0|2,0:0|0:0,0:0:0:0:
95,274,12508,2,0,P|127:314|199:322,1,90,8|0,0:0|0:0,0:0:0:0:
208,324,12758,1,0,0:0:0:0:
208,324,12841,1,2,0:0:0:0:
260,252,13008,1,0,0:0:0:0:
320,320,13174,1,8,0:0:0:0:
344,304,13258,1,0,0:0:0:0:
376,296,13341,1,0,0:0:0:0:
408,296,13424,1,0,0:0:0:0:
440,304,13508,6,0,P|456:248|448:200,1,90,2|0,0:0|0:0,0:0:0:0:
424,128,13841,2,0,P|392:80|344:48,1,90,10|0,0:0|0:0,0:0:0:0:
344,84,14091,1,0,0:0:0:0:
316,100,14174,1,2,0:0:0:0:
284,108,14258,1,0,0:0:0:0:
252,108,14341,1,0,0:0:0:0:
188,48,14508,1,10,0:0:0:0:
156,48,14591,1,0,0:0:0:0:
124,64,14674,1,0,0:0:0:0:
88,144,14841,6,0,P|120:208|112:248,1,90,0|2,0:0|0:0,0:0:0:0:
112,272,15091,2,0,L|64:296,1,45,0|8,0:0|0:0,0:0:0:0:
232,216,15341,1,0,0:0:0:0:
208,304,15508,1,2,0:0:0:0:
240,306,15591,1,0,0:0:0:0:
271,296,15674,1,0,0:0:0:0:
360,336,15841,1,8,0:0:0:0:
400,320,15924,1,0,0:0:0:0:
432,288,16008,1,0,0:0:0:0:
448,248,16091,1,0,0:0:0:0:
456,200,16174,6,0,P|444:152|412:112,1,90,2|0,0:0|0:0,0:0:0:0:
344,72,16508,1,10,0:0:0:0:
264,112,16675,1,0,0:0:0:0:
264,112,16758,1,0,0:0:0:0:
264,112,16841,1,2,0:0:0:0:
208,184,17008,5,0,0:0:0:0:
344,144,17175,1,10,0:0:0:0:
232,40,17341,1,0,0:0:0:0:
120,144,17508,5,0,0:0:0:0:
160,296,17675,1,2,0:0:0:0:
304,256,17841,1,8,0:0:0:0:
372,316,18008,2,0,L|332:372,2,45,0|0|2,0:0|0:0|0:0,0:0:0:0:
424,240,18341,1,0,0:0:0:0:
468,160,18508,1,8,0:0:0:0:
432,132,18591,1,0,0:0:0:0:
392,112,18675,1,0,0:0:0:0:
348,112,18758,1,0,0:0:0:0:
304,120,18841,6,0,P|268:88|264:48,1,90,2|0,0:0|0:0,0:0:0:0:
188,144,19175,1,10,0:0:0:0:
192,232,19341,2,0,P|239:224|272:247,1,90,0|2,0:0|0:0,0:0:0:0:
188,144,19675,1,0,0:3:0:0:
119,64,19841,2,0,P|100:108|64:125,1,90,10|0,0:0|0:0,0:0:0:0:
48,276,20175,6,0,L|156:308,1,90,0|2,0:0|0:0,0:0:0:0:
256,240,20508,2,0,L|164:212,1,90,8|0,0:0|0:0,0:0:0:0:
169,213,20758,1,0,0:0:0:0:
169,213,20841,1,2,0:0:0:0:
384,172,21008,1,0,0:0:0:0:
440,212,21508,5,6,0:0:0:0:
376,240,21674,1,0,0:0:0:0:
40,80,22508,1,2,0:0:0:0:
108,56,22674,1,0,0:0:0:0:
128,360,23841,1,2,0:0:0:0:
88,232,24174,6,0,P|144:216|216:264,1,135.000005149842,2|2,0:0|0:0,0:0:0:0:
256,296,24674,2,0,P|328:336|384:328,2,135.000005149842,0|0|0,0:0|0:0|0:0,0:0:0:0:
352,192,25674,1,0,0:0:0:0:
448,88,26008,2,0,P|376:48|320:56,1,135.000005149842
112,104,26841,5,2,0:0:0:0:
164,148,27008,1,0,0:0:0:0:
448,336,27841,1,2,0:0:0:0:
396,292,28008,1,0,0:0:0:0:
400,88,28508,1,2,0:0:0:0:
268,104,28841,2,0,P|234:103|201:96,1,67.5000025749208,2|0,0:0|0:0,0:0:0:0:
312,176,29174,2,0,P|364:180|396:176,1,67.5000025749208,2|0,0:0|0:0,0:0:0:0:
464,264,29508,6,0,L|424:264|368:260,1,67.5000025749208,2|0,0:0|0:0,0:0:0:0:
60,224,30508,2,0,L|58:251|58:291,1,67.5000025749208,2|0,0:0|0:0,0:0:0:0:
364,260,31508,2,0,P|424:268|456:280,1,67.5000025749208,2|0,0:0|0:0,0:0:0:0:
404,144,31841,2,0,P|348:148|320:160,1,67.5000025749208,2|0,0:0|0:0,0:0:0:0:
460,44,32174,5,2,0:0:0:0:
460,44,32341,1,0,0:0:0:0:
144,160,33174,1,2,0:0:0:0:
144,160,33341,1,0,0:0:0:0:
252,340,34174,5,2,0:0:0:0:
252,340,34341,1,0,0:0:0:0:
316,364,34508,1,2,0:0:0:0:
384,356,34674,1,0,0:0:0:0:
436,312,34841,6,0,L|472:240,1,67.5000025749208,2|0,0:0|0:0,0:0:0:0:
384,252,35174,2,0,L|379:171,1,67.5000025749208,2|0,0:0|0:0,0:0:0:0:
292,80,35674,1,0,0:0:0:0:
232,48,35841,1,2,0:0:0:0:
164,40,36008,2,0,P|136:112|152:192,1,135.000005149842
224,280,36674,2,0,P|296:308|376:292,1,135.000005149842
408,268,37174,2,0,L|368:196,1,67.5000025749208,2|0,0:0|0:0,0:0:0:0:
344,148,37508,5,2,0:0:0:0:
344,148,37674,1,0,0:0:0:0:
168,248,38508,1,2,0:0:0:0:
168,248,38674,1,0,0:0:0:0:
172,56,39508,2,0,L|212:125,1,67.5000025749208,2|0,0:0|0:0,0:0:0:0:
100,128,39841,2,0,L|169:168,1,67.5000025749208,2|0,0:0|0:0,0:0:0:0:
64,224,40174,6,0,L|144:224,1,67.5000025749208,2|0,0:0|0:0,0:0:0:0:
456,328,41174,2,0,L|360:328,1,67.5000025749208,2|0,0:0|0:0,0:0:0:0:
320,312,41508,6,0,P|280:336|264:360,1,67.5000025749208,2|0,0:0|0:0,0:0:0:0:
136,328,42008,2,0,P|136:248|88:200,2,135.000005149842
256,256,42841,5,4,0:0:0:0:
256,256,43174,2,0,L|352:304,1,90,8|0,0:0|0:0,0:0:0:0:
360,208,43508,2,0,L|472:264,1,90
400,328,43841,1,8,0:0:0:0:
400,328,44008,2,0,P|312:352|216:320,1,180
152,280,44508,6,0,P|120:320|112:368,1,90,8|0,0:0|0:0,0:0:0:0:
8,216,44841,2,0,P|58:223|104:206,1,90
160,152,45174,1,8,0:0:0:0:
160,152,45341,1,0,0:0:0:0:
96,88,45508,6,0,B|160:56|224:88|224:88|280:64,1,180,0|8,0:0|0:0,0:0:0:0:
352,32,46008,2,0,B|384:96|352:160|352:160|376:216,1,180
416,280,46508,2,0,L|496:240,1,90,8|0,0:0|0:0,0:0:0:0:
376,368,46841,6,0,L|320:280,1,90
200,240,47174,2,0,L|256:328,1,90,8|0,0:0|0:0,0:0:0:0:
128,336,47508,2,0,P|96:288|48:272,1,90
96,96,47841,2,0,P|128:144|176:160,1,90,8|0,0:0|0:0,0:0:0:0:
180,164,48091,1,0,0:0:0:0:
204,160,48174,5,0,0:0:0:0:
328,96,48341,1,0,0:0:0:0:
312,232,48508,1,8,0:0:0:0:
312,232,48674,1,0,0:0:0:0:
168,352,48841,2,0,L|184:264,1,90
348,328,49174,2,0,P|292:336|244:304,1,90,8|0,0:0|0:0,0:0:0:0:
328,96,49508,6,0,L|400:176,1,90
396,268,49841,2,0,P|439:256|471:226,1,90
192,208,50174,2,0,P|160:160|160:112,1,90
224,48,50508,1,8,0:0:0:0:
224,48,50674,1,0,0:0:0:0:
224,48,50841,5,2,0:0:0:0:
328,224,51091,1,0,0:0:0:0:
464,72,51341,1,0,0:0:0:0:
288,88,51508,5,2,0:0:0:0:
472,176,51758,1,0,0:0:0:0:
304,296,52008,1,0,0:0:0:0:
352,128,52174,5,2,0:0:0:0:
232,296,52424,1,0,0:0:0:0:
424,240,52674,1,0,0:0:0:0:
168,184,52841,5,2,0:0:0:0:
360,328,53091,1,0,0:0:0:0:
232,96,53341,1,0,0:0:0:0:
439,157,53508,5,2,0:0:0:0:
439,157,53841,2,0,P|391:197|383:237,1,90,8|0,0:0|0:0,0:0:0:0:
439,293,54174,2,0,P|391:325|343:325,1,90
264,248,54508,1,8,0:0:0:0:
88,256,54674,2,0,P|152:232|216:136,1,180
173,59,55174,2,0,L|77:67,1,90,8|0,0:0|0:0,0:0:0:0:
328,48,55508,1,0,0:0:0:0:
296,136,55674,2,0,P|312:176|368:216,2,90,0|8|0,0:0|0:0|0:0,0:0:0:0:
472,208,56174,6,0,P|424:280|320:312,1,180,0|8,0:0|0:0,0:0:0:0:
176,232,56674,2,0,P|263:246|343:207,1,180,0|0,0:0|0:0,0:0:0:0:
328,32,57174,2,0,P|304:96|272:120,1,90,8|0,0:0|0:0,0:0:0:0:
216,160,57508,6,0,P|160:176|120:168,1,90
48,128,57841,2,0,P|16:96|8:36,1,90,8|0,0:0|0:0,0:0:0:0:
180,83,58174,2,0,P|212:123|212:179,1,90
176,240,58508,1,8,0:0:0:0:
176,240,58674,1,0,0:0:0:0:
176,240,58841,6,0,P|256:264|376:240,1,180,0|8,0:0|0:0,0:0:0:0:
448,96,59508,2,0,P|368:72|248:96,1,180,0|8,0:0|0:0,0:0:0:0:
104,288,60174,5,0,0:0:0:0:
278,334,60508,1,8,0:0:0:0:
325,160,60841,1,0,0:0:0:0:
150,113,61174,1,8,0:0:0:0:
104,288,61508,6,0,B|72:232|72:232|83:188,1,90
278,334,61841,2,0,B|222:366|222:366|178:354,1,90,8|0,0:0|0:0,0:0:0:0:
325,160,62174,2,0,B|357:215|357:215|345:259,1,90
150,113,62507,2,0,B|205:80|205:80|249:92,1,90,8|0,0:0|0:0,0:0:0:0:
16,328,62841,5,4,0:0:0:0:
208,224,63008,1,4,0:0:0:0:
208,224,63341,1,4,0:0:0:0:
272,288,63508,1,2,0:0:0:0:
304,264,63591,1,0,0:0:0:0:
344,248,63674,1,0,0:0:0:0:
392,248,63758,1,0,0:0:0:0:
432,256,63841,1,8,0:0:0:0:
448,216,63924,1,0,0:0:0:0:
448,168,64008,1,0,0:0:0:0:
432,128,64091,1,0,0:0:0:0:
400,96,64174,6,0,P|352:72|312:64,1,90,2|0,0:0|0:0,0:0:0:0:
224,64,64508,1,8,0:0:0:0:
144,96,64674,1,0,0:0:0:0:
136,184,64841,2,0,P|184:212|224:216,2,90,0|0|8,0:0|0:0|0:0,0:0:0:0:
64,56,65341,1,0,0:0:0:0:
328,208,65508,6,0,P|288:256|240:264,1,90
292,132,65841,2,0,P|354:126|393:154,1,90,8|0,0:0|0:0,0:0:0:0:
104,264,66174,2,0,P|88:208|80:152,1,90
328,352,66508,2,0,P|256:360|200:360,1,90,8|0,0:0|0:0,0:0:0:0:
328,208,66841,5,2,0:0:0:0:
392,272,67008,2,0,P|312:296|232:200,1,180,2|2,0:0|0:0,0:0:0:0:
208,144,67508,2,0,L|304:104,1,90,0|0,0:0|0:0,0:0:0:0:
272,24,67841,2,0,L|375:37,1,90,8|0,0:0|0:0,0:0:0:0:
440,80,68174,6,0,P|464:120|448:176,1,90
458,161,68508,2,0,P|482:201|466:257,1,90,8|0,0:0|0:0,0:0:0:0:
408,296,68841,2,0,P|384:256|400:200,1,90
390,215,69175,2,0,P|366:175|382:119,1,90,8|0,0:0|0:0,0:0:0:0:
320,60,69508,6,0,P|263:107|163:75,1,180,2|8,0:0|0:0,0:0:0:0:
120,156,70008,2,0,P|189:180|211:282,1,180,2|0,0:0|0:0,0:0:0:0:
152,344,70508,2,0,L|64:322,1,90,8|0,0:0|0:0,0:0:0:0:
216,276,70841,5,0,0:0:0:0:
284,333,71008,1,0,0:0:0:0:
256,248,71174,5,8,0:0:0:0:
349,301,71341,1,0,0:0:0:0:
280,208,71508,5,0,0:0:0:0:
401,251,71675,1,0,0:0:0:0:
280,160,71841,5,8,0:0:0:0:
431,186,72008,1,0,0:0:0:0:
136,136,72174,6,0,P|96:176|88:232,1,90
96,296,72508,2,0,L|-8:272,1,90,8|0,0:0|0:0,0:0:0:0:
208,320,72841,2,0,P|248:280|256:224,1,90
240,160,73175,2,0,L|344:184,1,90,8|0,0:0|0:0,0:0:0:0:
424,200,73508,5,0,0:0:0:0:
464,280,73674,2,0,L|496:336,2,45,0|0|8,0:0|0:0|0:0,0:0:0:0:
376,120,74008,1,0,0:0:0:0:
376,280,74174,1,0,0:0:0:0:
464,120,74341,1,0,0:0:0:0:
328,200,74508,1,8,0:0:0:0:
512,204,74674,1,0,0:0:0:0:
280,280,74841,6,0,P|224:256|192:224,1,90
176,152,75174,1,8,0:0:0:0:
168,64,75341,2,0,B|120:32|64:88|64:88|48:152,1,180
104,216,75841,2,0,L|208:200,1,90,8|0,0:0|0:0,0:0:0:0:
240,280,76174,5,0,0:0:0:0:
168,336,76341,2,0,P|96:312|72:272,2,90,0|8|0,0:0|0:0|0:0,0:0:0:0:
312,224,76841,5,0,0:0:0:0:
240,160,77008,1,0,0:0:0:0:
168,224,77174,1,8,0:0:0:0:
304,352,77341,1,0,0:0:0:0:
424,216,77508,6,0,B|472:160|384:88|432:40,1,180,0|8,0:0|0:0,0:0:0:0:
356,172,78008,1,0,0:0:0:0:
447,312,78174,2,0,P|418:345|376:360,1,90
259,264,78508,2,0,P|299:283|344:280,1,90,8|0,0:0|0:0,0:0:0:0:
392,144,78841,6,0,P|320:104|232:152,1,180,0|8,0:0|0:0,0:0:0:0:
120,240,79508,2,0,P|192:280|280:232,1,180,0|8,0:0|0:0,0:0:0:0:
128,80,80174,5,0,0:0:0:0:
216,96,80341,1,0,0:0:0:0:
248,176,80508,1,8,0:0:0:0:
272,24,80674,1,0,0:0:0:0:
184,248,80841,1,0,0:0:0:0:
304,112,81008,1,0,0:0:0:0:
336,192,81174,1,8,0:0:0:0:
396,128,81341,1,0,0:0:0:0:
96,232,81508,5,0,0:0:0:0:
280,260,81674,1,0,0:0:0:0:
180,264,81841,1,8,0:0:0:0:
360,288,82008,1,0,0:0:0:0:
240,172,82174,5,0,0:0:0:0:
116,40,82341,1,0,0:0:0:0:
92,128,82508,1,8,0:0:0:0:
20,72,82674,1,0,0:0:0:0:
200,44,82841,6,0,L|264:36,1,45
240,128,83008,2,0,L|291:89,1,45
324,176,83174,2,0,L|349:116,1,45,8|0,0:0|0:0,0:0:0:0:
416,184,83341,2,0,L|408:120,1,45
496,256,83508,5,0,0:0:0:0:
452,264,83591,1,0,0:0:0:0:
416,288,83674,1,0,0:0:0:0:
384,320,83758,1,0,0:0:0:0:
360,360,83841,1,8,0:0:0:0:
316,368,83924,1,0,0:0:0:0:
272,360,84008,1,0,0:0:0:0:
232,340,84091,1,0,0:0:0:0:
200,316,84174,6,0,P|156:344|136:376,1,90
52,216,84508,2,0,P|104:213|137:196,1,90
288,96,84841,2,0,P|241:71|204:70,1,90
276,236,85174,2,0,P|303:280|335:300,1,90
444,148,85508,6,0,L|360:148,1,67.5000025749208,4|0,0:0|0:0,0:0:0:0:
344,236,85841,2,0,L|260:236,1,67.5000025749208,8|0,0:0|0:0,0:0:0:0:
236,144,86174,2,0,L|152:144,1,67.5000025749208
128,236,86507,2,0,L|44:236,1,67.5000025749208,8|0,0:0|0:0,0:0:0:0:
120,356,86841,6,0,P|161:375|208:366,1,67.5000025749208
240,344,87174,1,8,0:0:0:0:
240,344,87341,1,0,0:0:0:0:
380,196,87674,1,0,0:0:0:0:
380,196,87841,1,8,0:0:0:0:
424,248,88008,1,0,0:0:0:0:
420,316,88174,6,0,P|360:328|336:320,1,67.5000025749208
296,296,88508,2,0,P|256:252|252:168,2,135.000005149842,8|0|8,0:0|0:0|0:0,0:0:0:0:
408,220,89508,5,0,0:0:0:0:
464,180,89674,1,0,0:0:0:0:
364,168,89841,1,8,0:0:0:0:
432,92,90008,1,0,0:0:0:0:
236,36,90341,1,0,0:0:0:0:
268,168,90508,2,0,P|200:168|132:124,1,135.000005149842,8|0,0:0|0:0,0:0:0:0:
372,88,91508,6,0,P|406:146|401:227,1,135.000005149842,0|8,0:0|0:0,0:0:0:0:
408,212,92174,2,0,P|374:270|301:307,1,135.000005149842,0|8,0:0|0:0,0:0:0:0:
248,308,92674,1,0,0:0:0:0:
184,284,92841,1,0,0:0:0:0:
44,140,93341,1,2,0:0:0:0:
100,180,93508,5,0,0:0:0:0:
68,48,93674,1,0,0:0:0:0:
200,20,93841,1,8,0:0:0:0:
228,152,94008,2,0,P|272:184|312:184,1,67.5000025749208
352,180,94341,2,0,P|376:224|376:256,2,67.5000025749208,0|8|0,0:0|0:0|0:0,0:0:0:0:
392,52,94841,5,0,0:0:0:0:
416,116,95008,1,0,0:0:0:0:
440,180,95174,1,8,0:0:0:0:
464,244,95341,1,0,0:0:0:0:
280,328,95841,1,8,0:0:0:0:
280,328,96008,1,0,0:0:0:0:
180,236,96174,6,0,P|144:280|16:288,1,180,0|8,0:0|0:0,0:0:0:0:
336,208,96841,2,0,P|372:252|496:264,1,180,0|8,0:0|0:0,0:0:0:0:
112,112,97508,2,0,L|216:80,1,90
400,88,97841,2,0,L|296:56,1,90,8|0,0:0|0:0,0:0:0:0:
256,128,98174,2,0,B|232:184|280:264|256:320,1,180
88,264,98841,6,0,L|184:240,1,90
264,224,99174,1,8,0:0:0:0:
328,288,99341,1,0,0:0:0:0:
200,160,99508,5,0,0:0:0:0:
232,304,99674,2,0,L|200:368,2,45,0|0|8,0:0|0:0|0:0,0:0:0:0:
312,144,100008,1,0,0:0:0:0:
376,312,100174,5,0,0:0:0:0:
376,72,100341,1,0,0:0:0:0:
440,192,100508,1,8,0:0:0:0:
256,256,100674,1,0,0:0:0:0:
192,80,100841,1,0,0:0:0:0:
192,80,101008,2,0,L|176:32,2,45,0|0|8,0:0|0:0|0:0,0:0:0:0:
72,216,101341,1,0,0:0:0:0:
168,308,101508,6,0,P|128:340|64:348,1,90,4|0,0:0|0:0,0:0:0:0:
208,176,101841,2,0,P|256:192|296:248,1,90,8|0,0:0|0:0,0:0:0:0:
104,232,102174,2,0,P|80:160|88:120,1,90,4|0,0:0|0:0,0:0:0:0:
272,328,102508,2,0,P|316:330|357:313,1,90,8|0,0:0|0:0,0:0:0:0:
303,144,102841,6,0,P|267:169|255:211,1,90,4|0,0:0|0:0,0:0:0:0:
392,215,103174,2,0,P|428:190|440:148,1,90,8|0,0:0|0:0,0:0:0:0:
336,64,103508,6,0,L|208:80,1,90,4|0,0:0|0:0,0:0:0:0:
256,208,103841,2,0,L|128:224,1,90,8|0,0:0|0:0,0:0:0:0:
96,160,104174,5,4,0:0:0:0:
32,280,104341,1,0,0:0:0:0:
160,328,104508,2,0,P|216:304|256:312,1,90,8|0,0:0|0:0,0:0:0:0:
368,352,104841,5,0,0:0:0:0:
320,224,105008,1,0,0:0:0:0:
448,176,105174,2,0,L|408:88,1,90,8|0,0:0|0:0,0:0:0:0:
336,40,105508,5,4,0:0:0:0:
280,112,105674,1,0,0:0:0:0:
208,56,105841,1,8,0:0:0:0:
168,136,106008,1,0,0:0:0:0:
88,96,106174,1,0,0:0:0:0:
72,136,106258,1,0,0:0:0:0:
64,176,106341,1,0,0:0:0:0:
72,216,106424,1,0,0:0:0:0:
96,256,106508,1,8,0:0:0:0:
128,280,106591,1,0,0:0:0:0:
168,296,106674,1,0,0:0:0:0:
216,296,106758,1,0,0:0:0:0:
264,288,106841,6,0,B|328:280|368:336|440:256,1,180
448,248,108257,1,0,0:0:0:0:
460,232,108340,1,0,0:0:0:0:
468,212,108424,1,0,0:0:0:0:
476,192,108507,1,0,0:0:0:0:
476,168,108590,1,0,0:0:0:0:
468,148,108673,1,0,0:0:0:0:
456,128,108757,1,0,0:0:0:0:
448,108,108839,2,0,L|460:80,7,22.5
436,80,109174,2,0,P|380:112|320:108,1,107.999996704102,2|0,0:0|0:0,0:0:0:0:
244,48,109506,6,0,L|208:160,1,107.999996704102,4|0,0:0|0:0,0:0:0:0:
112,192,109839,2,0,P|80:144|100:88,1,107.999996704102,8|0,0:0|0:0,0:0:0:0:
196,252,110173,2,0,L|80:292,1,107.999996704102
308,308,110506,2,0,L|192:348,1,107.999996704102,8|0,0:0|0:0,0:0:0:0:
408,272,110839,5,0,0:0:0:0:
320,208,111006,1,0,0:0:0:0:
492,340,111173,1,8,0:0:0:0:
460,180,111339,1,0,0:0:0:0:
352,360,111506,2,0,P|280:348|224:316,1,107.999996704102
460,180,111839,2,0,P|485:248|485:312,1,107.999996704102,8|0,0:0|0:0,0:0:0:0:
208,192,112173,6,0,P|254:135|310:103,1,107.999996704102
384,76,112506,1,8,0:0:0:0:
384,76,112673,1,0,0:0:0:0:
304,296,112839,6,0,P|232:304|176:288,1,107.999996704102
336,208,113173,2,0,P|408:200|464:216,1,107.999996704102,8|0,0:0|0:0,0:0:0:0:
472,312,113506,5,0,0:0:0:0:
196,144,113673,1,0,0:0:0:0:
260,228,113839,1,8,0:0:0:0:
58,104,114006,2,0,L|168:168,1,107.999996704102
64,216,114339,5,0,0:0:0:0:
154,68,114506,1,8,0:0:0:0:
38,192,114673,1,0,0:0:0:0:
173,83,114839,2,0,P|204:128|208:196,1,107.999996704102
180,284,115173,2,0,P|144:325|79:347,1,107.999996704102,8|0,0:0|0:0,0:0:0:0:
76,240,115506,6,0,P|148:204|284:240,1,215.999993408203,0|8,0:0|0:0,0:0:0:0:
336,324,116006,1,0,0:0:0:0:
468,208,116172,6,0,P|388:104|268:72,1,251.999992309571,0|8,0:0|0:0,0:0:0:0:
140,204,116672,1,0,0:0:0:0:
276,336,116839,2,0,P|376:356|408:348,1,125.999996154785
352,252,117172,2,0,P|436:195|452:172,1,107.999996704102,8|0,0:0|0:0,0:0:0:0:
340,144,117506,5,0,0:0:0:0:
264,68,117672,1,0,0:0:0:0:
436,104,117839,1,8,0:0:0:0:
200,156,118006,1,0,0:0:0:0:
364,40,118172,1,0,0:0:0:0:
280,224,118339,1,0,0:0:0:0:
420,192,118506,1,8,0:0:0:0:
152,256,118672,1,0,0:0:0:0:
364,304,118839,5,0,0:0:0:0:
320,336,119006,1,0,0:0:0:0:
268,348,119172,1,8,0:0:0:0:
216,332,119339,1,0,0:0:0:0:
172,300,119506,2,0,L|60:344,1,107.999996704102
176,192,119839,2,0,P|240:212|268:252,1,107.999996704102,8|0,0:0|0:0,0:0:0:0:
52,184,120172,6,0,P|92:128|276:96,1,215.999993408203,0|8,0:0|0:0,0:0:0:0:
320,136,120672,1,0,0:0:0:0:
376,44,120839,1,0,0:0:0:0:
264,228,121006,1,0,0:0:0:0:
372,224,121172,1,8,0:0:0:0:
224,128,121339,1,0,0:0:0:0:
456,168,121506,6,0,P|476:224|460:284,1,107.999996704102
400,356,121839,2,0,P|348:385|286:380,1,107.999996704102,8|0,0:0|0:0,0:0:0:0:
208,332,122172,2,0,B|160:288|168:236|168:236|112:200|60:224,1,215.999993408203,0|8,0:0|0:0,0:0:0:0:
76,328,122672,1,0,0:0:0:0:
296,255,122839,6,0,P|348:267|387:303,1,107.999996704102
364,172,123172,2,0,P|311:160|260:176,1,107.999996704102,8|0,0:0|0:0,0:0:0:0:
181,123,123506,2,0,P|217:84|268:68,1,107.999996704102
124,32,123839,2,0,P|87:71|76:123,1,107.999996704102,8|0,0:0|0:0,0:0:0:0:
96,232,124172,5,0,0:0:0:0:
172,308,124339,1,0,0:0:0:0:
276,332,124506,2,0,P|344:324|388:288,1,107.999996704102,8|0,0:0|0:0,0:0:0:0:
412,200,124839,1,0,0:0:0:0:
308,164,125006,2,0,L|252:144,2,53.9999983520508,0|0|8,0:0|0:0|0:0,0:0:0:0:
448,284,125339,1,0,0:0:0:0:
464,104,125506,5,0,0:0:0:0:
464,104,125672,1,0,0:0:0:0:
360,72,125839,1,8,0:0:0:0:
360,72,126005,1,0,0:0:0:0:
216,216,126172,2,0,P|236:280|308:308,1,107.999996704102
96,204,126506,2,0,L|32:292,1,107.999996704102,8|0,0:0|0:0,0:0:0:0:
128,368,126839,5,0,0:0:0:0:
272,112,127006,2,0,L|300:64,2,53.9999983520508,0|0|8,0:0|0:0|0:0,0:0:0:0:
64,296,127339,5,0,0:0:0:0:
64,296,127506,1,0,0:0:0:0:
338,192,127673,2,0,L|390:173,2,53.9999983520508,0|0|8,0:0|0:0|0:0,0:0:0:0:
72,196,128006,1,0,0:0:0:0:
184,316,128172,6,0,L|147:266,1,53.9999983520508,8|0,0:0|0:0,0:0:0:0:
244,332,128339,2,0,L|280:381,1,53.9999983520508
256,248,128506,6,0,L|217:185,1,53.9999983520508,8|0,0:0|0:0,0:0:0:0:
328,300,128673,2,0,L|366:362,1,53.9999983520508
352,192,128839,6,0,L|325:123,1,53.9999983520508,8|0,0:0|0:0,0:0:0:0:
444,332,129006,2,0,L|470:400,1,53.9999983520508
496,164,129172,1,8,0:0:0:0:
472,116,129256,1,0,0:0:0:0:
432,80,129339,1,0,0:0:0:0:
384,56,129422,1,0,0:0:0:0:
328,52,129506,5,8,0:0:0:0:
316,56,129589,1,0,0:0:0:0:
304,60,129672,1,0,0:0:0:0:
292,64,129756,1,0,0:0:0:0:
280,68,129839,1,8,0:0:0:0:
268,72,129922,1,0,0:0:0:0:
256,76,130006,1,0,0:0:0:0:
244,80,130089,1,0,0:0:0:0:
232,84,130172,1,8,0:0:0:0:
220,88,130256,1,0,0:0:0:0:
208,92,130339,1,0,0:0:0:0:
196,96,130422,1,0,0:0:0:0:
184,100,130506,1,8,0:0:0:0:
172,104,130589,1,0,0:0:0:0:
160,108,130672,1,0,0:0:0:0:
148,112,130756,1,0,0:0:0:0:
136,116,130839,5,8,0:0:0:0:
368,144,133506,5,0,0:0:0:0:
196,200,134839,5,0,0:0:0:0:
384,280,135506,5,0,0:0:0:0:
340,268,135672,1,0,0:0:0:0:
316,308,135839,1,2,0:0:0:0:
272,304,136006,1,0,0:0:0:0:
244,336,136172,6,0,P|196:352|144:344,1,90
84,292,136506,2,0,P|68:244|76:192,1,90,8|0,0:0|0:0,0:0:0:0:
128,136,136839,2,0,P|173:158|204:201,1,90
92,44,137172,2,0,P|41:40|-6:62,1,90,8|0,0:0|0:0,0:0:0:0:
268,120,137506,2,0,P|313:97|344:54,1,90
196,268,137839,2,0,P|241:290|272:333,1,90,8|0,0:0|0:0,0:0:0:0:
304,236,138172,5,0,0:0:0:0:
340,152,138339,1,0,0:0:0:0:
384,228,138506,1,8,0:0:0:0:
440,160,138672,1,0,0:0:0:0:
488,236,138839,5,0,0:0:0:0:
488,260,138922,1,0,0:0:0:0:
484,284,139006,1,0,0:0:0:0:
476,304,139089,1,0,0:0:0:0:
468,324,139172,2,0,P|448:348|424:360,3,45,8|0|0|0,0:0|0:0|0:0|0:0,0:0:0:0:
416,360,139506,5,0,0:0:0:0:
392,364,139589,1,0,0:0:0:0:
368,360,139672,1,0,0:0:0:0:
348,352,139756,1,0,0:0:0:0:
328,344,139839,2,0,P|292:344|268:352,3,45,8|0|0|0,0:0|0:0|0:0|0:0,0:0:0:0:
264,352,140172,5,0,0:0:0:0:
212,224,140839,5,0,0:0:0:0:
156,156,141005,1,0,0:0:0:0:
112,232,141172,1,2,0:0:0:0:
76,148,141339,1,0,0:0:0:0:
40,292,141506,6,0,P|76:324|116:328,1,90,4|0,0:0|0:0,0:0:0:0:
208,296,141839,2,0,B|276:260|312:332|388:296,2,180,8|0|8,0:0|0:0|0:0,0:0:0:0:
272,164,142839,2,0,P|328:196|344:244,1,90
428,236,143172,2,0,P|456:176|400:60,1,180,8|0,0:0|0:0,0:0:0:0:
340,36,143672,1,0,0:0:0:0:
252,32,143839,1,10,0:0:0:0:
176,80,144006,1,0,0:0:0:0:
148,164,144172,6,0,P|104:204|48:204,1,90
24,136,144506,2,0,P|68:96|124:96,1,90,8|0,0:0|0:0,0:0:0:0:
244,196,145006,1,0,0:0:0:0:
244,196,145172,1,8,0:0:0:0:
328,164,145339,1,0,0:0:0:0:
412,132,145506,2,0,P|452:180|452:240,1,90
372,312,145839,2,0,P|361:250|391:198,1,90,8|0,0:0|0:0,0:0:0:0:
460,328,146172,6,0,P|344:312|252:336,1,180,0|10,0:0|0:0,0:0:0:0:
108,280,146839,1,0,0:0:0:0:
156,204,147006,1,0,0:0:0:0:
136,116,147172,1,8,0:0:0:0:
60,68,147339,1,0,0:0:0:0:
0,236,147672,6,0,P|72:272|100:264,1,90,0|8,0:0|0:0,0:0:0:0:
164,252,148006,1,0,0:0:0:0:
220,180,148172,2,0,P|300:152|380:200,1,180,0|8,0:0|0:0,0:0:0:0:
236,308,148839,2,0,P|156:336|76:288,1,180,0|8,0:0|0:0,0:0:0:0:
380,356,149506,5,2,0:0:0:0:
380,356,149672,1,0,0:0:0:0:
264,220,150006,1,0,0:0:0:0:
472,156,150339,1,0,0:0:0:0:
188,112,150672,1,0,0:0:0:0:
76,204,150839,5,0,0:0:0:0:
212,152,151006,1,0,0:0:0:0:
68,224,151172,1,8,0:0:0:0:
248,236,151339,1,0,0:0:0:0:
64,244,151506,1,0,0:0:0:0:
84,284,151589,1,0,0:0:0:0:
116,316,151672,1,0,0:0:0:0:
160,332,151756,1,0,0:0:0:0:
204,328,151839,1,8,0:0:0:0:
244,304,151922,1,0,0:0:0:0:
288,292,152006,1,0,0:0:0:0:
332,288,152089,1,0,0:0:0:0:
376,296,152172,6,0,P|424:328|444:360,1,90,4|0,0:0|0:0,0:0:0:0:
388,180,152506,2,0,P|336:205|298:206,1,90,8|0,0:0|0:0,0:0:0:0:
416,68,152839,2,0,P|464:100|484:132,1,90
492,216,153172,1,8,0:0:0:0:
464,304,153339,2,0,P|388:352|300:360,1,180
200,336,153839,2,0,P|196:272|164:224,1,90,8|0,0:0|0:0,0:0:0:0:
108,292,154172,2,0,P|59:249|3:238,1,90
44,152,154506,2,0,P|104:131|142:88,1,90,8|0,0:0|0:0,0:0:0:0:
424,152,154838,6,0,P|368:168|264:100,1,180,0|8,0:0|0:0,0:0:0:0:
212,40,155339,2,0,P|132:12|40:44,2,180,2|2|2,0:0|0:0|0:0,0:0:0:0:
269,110,156172,2,0,L|233:198,1,90,8|0,0:0|0:0,0:0:0:0:
300,256,156506,1,2,0:0:0:0:
68,316,156672,2,0,P|140:356|236:336,1,180,0|2,0:0|0:0,0:0:0:0:
392,132,157172,1,8,0:0:0:0:
392,132,157338,1,0,0:0:0:0:
456,300,157506,6,0,P|400:316|356:316,1,90
268,224,157839,2,0,P|311:236|356:237,1,90,8|0,0:0|0:0,0:0:0:0:
324,152,158172,2,0,P|282:135|246:108,1,90
416,104,158505,1,8,0:0:0:0:
416,104,158672,1,0,0:0:0:0:
184,44,158839,6,0,P|136:104|136:208,1,180,0|8,0:0|0:0,0:0:0:0:
168,288,159339,1,0,0:0:0:0:
244,340,159506,5,0,0:0:0:0:
88,236,159672,1,0,0:0:0:0:
208,204,159839,1,8,0:0:0:0:
124,368,160006,1,0,0:0:0:0:
296,284,160172,6,0,P|340:296|388:336,1,90
440,256,160506,2,0,P|396:192|428:88,1,180,8|0,0:0|0:0,0:0:0:0:
244,48,161172,2,0,P|184:56|136:56,1,90,8|0,0:0|0:0,0:0:0:0:
64,44,161506,5,0,0:0:0:0:
64,44,161672,1,0,0:0:0:0:
192,184,161839,2,0,P|136:160|94:136,1,90,8|0,0:0|0:0,0:0:0:0:
276,144,162172,5,0,0:0:0:0:
352,280,162339,1,0,0:0:0:0:
200,248,162506,5,8,0:0:0:0:
344,292,162672,1,0,0:0:0:0:
208,364,162839,5,0,0:0:0:0:
144,160,163838,1,8,0:0:0:0:
208,176,164005,1,0,0:0:0:0:
444,64,164505,6,0,P|356:92|300:76,1,135.000005149842,0|8,0:0|0:0,0:0:0:0:
260,44,165005,1,0,0:0:0:0:
196,20,165172,1,0,0:0:0:0:
128,24,165338,1,0,0:0:0:0:
76,68,165505,6,0,L|40:140,1,67.5000025749208
112,148,165839,2,0,L|117:229,1,67.5000025749208,8|0,0:0|0:0,0:0:0:0:
220,372,166338,1,0,0:0:0:0:
288,376,166505,1,8,0:0:0:0:
348,344,166672,2,0,P|376:272|360:192,1,135.000005149842
288,104,167338,2,0,P|216:76|136:92,1,135.000005149842,2|2,0:0|0:0,0:0:0:0:
104,128,167839,2,0,L|144:200,1,67.5000025749208,8|0,0:0|0:0,0:0:0:0:
168,248,168172,5,2,0:0:0:0:
168,248,168338,1,0,0:0:0:0:
344,136,169172,1,8,0:0:0:0:
344,136,169338,1,0,0:0:0:0:
208,120,170172,6,0,P|205:195|185:225,1,90,8|0,0:0|0:0,0:0:0:0:
48,304,170506,2,0,P|114:268|150:270,1,90,8|0,0:0|0:0,0:0:0:0:
288,344,170839,6,0,P|224:304|208:272,1,90,8|0,0:0|0:0,0:0:0:0:
208,272,171089,1,0,0:0:0:0:
204,244,171172,1,0,0:0:0:0:
212,220,171256,1,0,0:0:0:0:
232,204,171339,1,0,0:0:0:0:
256,196,171422,1,0,0:0:0:0:
288,196,171506,5,8,0:0:0:0:
312,212,171589,1,0,0:0:0:0:
332,236,171672,1,0,0:0:0:0:
360,252,171756,1,0,0:0:0:0:
396,264,171839,1,0,0:0:0:0:
432,260,171922,1,0,0:0:0:0:
460,236,172006,1,0,0:0:0:0:
472,204,172089,1,0,0:0:0:0:
472,164,172172,5,8,0:0:0:0:
460,124,172256,1,0,0:0:0:0:
436,92,172339,1,0,0:0:0:0:
404,68,172422,1,0,0:0:0:0:
368,52,172506,1,8,0:0:0:0:
328,40,172589,1,0,0:0:0:0:
288,40,172672,1,0,0:0:0:0:
248,56,172756,1,0,0:0:0:0:
216,80,172839,5,8,0:0:0:0:
184,104,172922,1,0,0:0:0:0:
144,120,173005,1,8,0:0:0:0:
96,120,173089,1,8,0:0:0:0:
56,112,173172,1,8,0:0:0:0:
376,300,173506,5,4,0:0:0:0:
288,144,173839,2,0,L|192:96,1,90,8|0,0:0|0:0,0:0:0:0:
152,176,174173,2,0,L|40:120,1,90
112,56,174506,1,8,0:0:0:0:
112,56,174673,2,0,P|200:32|296:64,1,180
360,104,175173,6,0,P|392:64|400:16,1,90,8|0,0:0|0:0,0:0:0:0:
504,168,175506,2,0,P|454:161|408:178,1,90
352,232,175839,1,8,0:0:0:0:
352,232,176006,1,0,0:0:0:0:
264,212,176173,6,0,P|240:136|300:60,1,180,0|8,0:0|0:0,0:0:0:0:
224,8,176673,2,0,P|170:66|74:52,1,180,2|2,0:0|0:0,0:0:0:0:
60,140,177173,2,0,L|116:228,1,90,8|0,0:0|0:0,0:0:0:0:
168,99,177506,6,0,L|120:24,1,90
272,64,177839,2,0,L|320:139,1,90,8|0,0:0|0:0,0:0:0:0:
443,109,178173,2,0,P|405:86|384:48,1,90
368,240,178506,2,0,P|406:262|427:301,1,90,8|0,0:0|0:0,0:0:0:0:
304,360,178840,5,0,0:0:0:0:
184,288,179006,1,0,0:0:0:0:
200,152,179173,1,8,0:0:0:0:
200,152,179339,1,0,0:0:0:0:
344,32,179506,2,0,L|328:120,1,90
160,56,179839,2,0,P|216:48|268:80,1,90,8|0,0:0|0:0,0:0:0:0:
176,272,180173,6,0,L|104:192,1,90
56,136,180506,1,8,0:0:0:0:
56,136,180673,1,0,0:0:0:0:
320,176,180839,2,0,P|352:224|352:272,1,90
288,336,181173,5,8,0:0:0:0:
288,336,181339,1,0,0:0:0:0:
176,196,181506,5,2,0:0:0:0:
372,240,181756,1,0,0:0:0:0:
464,72,182006,1,0,0:0:0:0:
288,88,182173,5,2,0:0:0:0:
472,176,182423,1,0,0:0:0:0:
304,296,182673,1,0,0:0:0:0:
352,128,182839,5,2,0:0:0:0:
232,296,183089,1,0,0:0:0:0:
424,240,183339,1,0,0:0:0:0:
168,184,183506,5,2,0:0:0:0:
360,328,183756,1,0,0:0:0:0:
232,96,184006,1,0,0:0:0:0:
64,272,184172,5,2,0:0:0:0:
64,272,184505,2,0,P|112:232|120:192,1,90,8|0,0:0|0:0,0:0:0:0:
88,120,184839,2,0,P|136:88|184:88,1,90
248,136,185172,1,8,0:0:0:0:
424,128,185338,2,0,P|360:152|296:248,1,180
336,320,185839,2,0,L|432:312,1,90,8|0,0:0|0:0,0:0:0:0:
200,176,186172,1,0,0:0:0:0:
144,248,186338,2,0,P|137:290|166:353,2,90,0|8|0,0:0|0:0|0:0,0:0:0:0:
40,176,186838,6,0,P|88:104|192:72,1,180,0|8,0:0|0:0,0:0:0:0:
336,152,187338,2,0,P|249:138|169:177,1,180,2|2,0:0|0:0,0:0:0:0:
184,352,187839,2,0,P|208:288|240:264,1,90,8|0,0:0|0:0,0:0:0:0:
296,224,188172,6,0,P|352:208|392:216,1,90
464,256,188505,2,0,P|496:288|504:344,1,90,8|0,0:0|0:0,0:0:0:0:
333,301,188839,2,0,P|301:261|301:205,1,90
336,144,189172,1,8,0:0:0:0:
296,64,189338,1,0,0:0:0:0:
208,72,189505,6,0,P|144:144|48:128,1,180,0|8,0:0|0:0,0:0:0:0:
208,312,190005,1,0,0:0:0:0:
208,312,190172,2,0,P|144:240|48:256,1,180,0|8,0:0|0:0,0:0:0:0:
240,192,190672,1,0,0:0:0:0:
328,192,190839,6,0,B|360:176|392:200|424:192,1,90
472,320,191172,2,0,B|440:336|408:312|376:320,1,90,8|0,0:0|0:0,0:0:0:0:
128,318,191505,2,0,B|104:312|72:336|40:320,1,90
95,193,191839,2,0,B|120:200|152:176|184:192,1,90,8|0,0:0|0:0,0:0:0:0:
244,260,192172,5,0,0:0:0:0:
224,104,192339,1,0,0:0:0:0:
144,264,192506,1,8,0:0:0:0:
276,176,192672,1,0,0:0:0:0:
316,332,192839,2,0,P|268:356|216:364,1,90,8|0,0:0|0:0,0:0:0:0:
376,252,193172,2,0,P|400:300|408:352,1,90
464,176,193506,5,8,0:0:0:0:
304,160,193673,1,2,0:0:0:0:
304,160,194006,1,2,0:0:0:0:
240,96,194173,1,0,0:0:0:0:
200,80,194256,1,0,0:0:0:0:
156,80,194339,1,0,0:0:0:0:
116,96,194423,1,0,0:0:0:0:
80,124,194506,1,8,0:0:0:0:
60,164,194589,1,0,0:0:0:0:
56,208,194673,1,0,0:0:0:0:
72,252,194756,1,0,0:0:0:0:
104,284,194839,6,0,P|148:312|192:320,1,90,4|0,0:0|0:0,0:0:0:0:
288,320,195173,1,8,0:0:0:0:
368,288,195339,1,0,0:0:0:0:
376,200,195506,2,0,P|304:176|272:184,2,90,0|0|8,0:0|0:0|0:0,0:0:0:0:
448,328,196006,1,0,0:0:0:0:
184,176,196172,6,0,P|224:128|272:120,1,90
220,252,196505,2,0,P|158:258|119:230,1,90,8|0,0:0|0:0,0:0:0:0:
408,120,196839,2,0,P|424:176|432:232,1,90
184,32,197172,2,0,P|256:24|312:24,1,90,8|0,0:0|0:0,0:0:0:0:
184,176,197505,5,2,0:0:0:0:
120,112,197672,2,0,P|200:88|280:184,1,180,2|2,0:0|0:0,0:0:0:0:
304,240,198172,2,0,L|208:280,1,90,0|0,0:0|0:0,0:0:0:0:
240,360,198505,2,0,L|137:347,1,90,8|0,0:0|0:0,0:0:0:0:
76,300,198839,6,0,P|96:260|88:216,1,90
32,148,199172,1,8,0:0:0:0:
104,100,199339,1,0,0:0:0:0:
12,228,199506,5,0,0:0:0:0:
176,208,199672,1,0,0:0:0:0:
100,256,199839,1,8,0:0:0:0:
196,124,200006,1,0,0:0:0:0:
208,312,200173,6,0,P|256:256|360:272,1,180,0|8,0:0|0:0,0:0:0:0:
392,184,200673,2,0,P|320:171|282:73,1,180,2|2,0:0|0:0,0:0:0:0:
360,40,201173,2,0,L|448:62,1,90,8|0,0:0|0:0,0:0:0:0:
328,120,201506,5,0,0:0:0:0:
284,200,201672,1,0,0:0:0:0:
236,24,201839,5,8,0:0:0:0:
130,54,202005,1,0,0:0:0:0:
400,116,202172,5,0,0:0:0:0:
383,247,202338,1,0,0:0:0:0:
268,88,202506,5,8,0:0:0:0:
142,184,202672,1,0,0:0:0:0:
383,247,202839,6,0,P|423:207|431:151,1,90
415,86,203173,2,0,L|519:110,1,90,8|0,0:0|0:0,0:0:0:0:
304,64,203506,2,0,P|264:104|256:160,1,90
264,224,203840,2,0,L|160:200,1,90,8|0,0:0|0:0,0:0:0:0:
88,184,204173,5,0,0:0:0:0:
48,104,204339,2,0,L|16:48,2,45,0|0|8,0:0|0:0|0:0,0:0:0:0:
136,264,204673,1,0,0:0:0:0:
136,104,204839,1,0,0:0:0:0:
48,264,205006,1,0,0:0:0:0:
184,184,205172,1,8,0:0:0:0:
0,180,205338,1,0,0:0:0:0:
232,104,205506,6,0,P|288:128|320:160,1,90,4|0,0:0|0:0,0:0:0:0:
336,232,205839,1,8,0:0:0:0:
344,320,206006,2,0,B|392:352|448:296|448:296|464:232,1,180,2|2,0:0|0:0,0:0:0:0:
408,168,206506,2,0,L|304:184,1,90,8|0,0:0|0:0,0:0:0:0:
272,104,206839,5,0,0:0:0:0:
344,48,207006,2,0,P|416:72|440:112,2,90,0|8|0,0:0|0:0|0:0,0:0:0:0:
200,160,207506,5,0,0:0:0:0:
272,224,207673,1,0,0:0:0:0:
364,84,207839,1,8,0:0:0:0:
176,24,208006,1,0,0:0:0:0:
88,168,208173,6,0,B|40:224|128:296|80:344,1,180,0|8,0:0|0:0,0:0:0:0:
156,212,208672,1,0,0:0:0:0:
64,72,208839,2,0,P|104:32|160:24,1,90
253,120,209173,2,0,P|213:101|168:104,1,90,8|0,0:0|0:0,0:0:0:0:
196,192,209506,6,0,P|260:252|264:348,1,180,0|8,0:0|0:0,0:0:0:0:
104,296,210172,2,0,P|68:300|8:324,1,90
104,216,210506,2,0,P|69:204|5:200,1,90,8|0,0:0|0:0,0:0:0:0:
156,152,210839,5,0,0:0:0:0:
88,92,211006,1,0,0:0:0:0:
88,92,211172,1,8,0:0:0:0:
220,216,211339,1,0,0:0:0:0:
200,76,211506,5,0,0:0:0:0:
304,244,211672,1,0,0:0:0:0:
296,104,211839,1,8,0:0:0:0:
364,308,212006,1,0,0:0:0:0:
400,132,212172,5,0,0:0:0:0:
256,296,212339,1,0,0:0:0:0:
440,240,212506,1,8,0:0:0:0:
220,184,212672,1,0,0:0:0:0:
324,12,212839,5,0,0:0:0:0:
212,188,213006,1,0,0:0:0:0:
272,308,213172,5,8,0:0:0:0:
212,176,213339,1,0,0:0:0:0:
308,80,213506,5,0,0:0:0:0:
348,96,213589,1,0,0:0:0:0:
380,128,213672,1,0,0:0:0:0:
392,172,213756,1,0,0:0:0:0:
388,216,213839,1,8,0:0:0:0:
364,252,213922,1,0,0:0:0:0:
328,280,214006,1,0,0:0:0:0:
284,292,214089,1,0,0:0:0:0:
240,288,214172,1,0,0:0:0:0:
196,272,214256,1,0,0:0:0:0:
168,236,214339,1,0,0:0:0:0:
152,196,214422,1,0,0:0:0:0:
164,152,214506,1,8,0:0:0:0:
184,112,214589,1,0,0:0:0:0:
220,88,214672,1,0,0:0:0:0:
264,76,214756,1,0,0:0:0:0:
308,80,214839,6,0,B|380:92|364:168|464:168,1,180
96,264,215506,2,0,B|108:192|184:208|184:108,1,180
268,336,216172,6,0,L|304:224,1,107.999996704102,4|0,0:0|0:0,0:0:0:0:
400,192,216505,2,0,P|432:240|412:296,1,107.999996704102,8|0,0:0|0:0,0:0:0:0:
316,132,216839,2,0,L|432:92,1,107.999996704102
204,76,217172,2,0,L|320:36,1,107.999996704102,8|0,0:0|0:0,0:0:0:0:
104,112,217505,5,0,0:0:0:0:
192,176,217672,1,0,0:0:0:0:
20,44,217839,1,8,0:0:0:0:
52,204,218005,1,0,0:0:0:0:
160,16,218172,2,0,P|232:28|288:60,1,107.999996704102
52,204,218505,2,0,P|27:136|27:72,1,107.999996704102,8|0,0:0|0:0,0:0:0:0:
304,192,218839,6,0,P|258:249|202:281,1,107.999996704102
128,308,219172,1,8,0:0:0:0:
128,308,219339,1,0,0:0:0:0:
208,88,219505,6,0,P|280:80|336:96,1,107.999996704102
176,176,219839,2,0,P|104:184|48:168,1,107.999996704102,8|0,0:0|0:0,0:0:0:0:
40,72,220172,5,0,0:0:0:0:
316,240,220339,1,0,0:0:0:0:
252,156,220505,1,8,0:0:0:0:
454,280,220672,2,0,L|344:216,1,107.999996704102
448,168,221005,5,0,0:0:0:0:
358,316,221172,1,8,0:0:0:0:
474,192,221339,1,0,0:0:0:0:
339,301,221505,2,0,P|308:256|304:188,1,107.999996704102
332,100,221839,2,0,P|368:52|420:40,1,107.999996704102,8|0,0:0|0:0,0:0:0:0:
436,144,222172,6,0,P|364:180|228:144,1,215.999993408203,0|8,0:0|0:0,0:0:0:0:
172,64,222672,1,0,0:0:0:0:
44,176,222839,6,0,P|124:280|244:312,1,251.999992309571,0|8,0:0|0:0,0:0:0:0:
372,180,223338,1,0,0:0:0:0:
236,48,223505,2,0,P|136:28|104:36,1,125.999996154785,0|0,0:0|0:0,0:0:0:0:
160,132,223839,2,0,P|76:189|60:212,1,107.999996704102,8|0,0:0|0:0,0:0:0:0:
172,240,224172,5,0,0:0:0:0:
248,316,224338,1,0,0:0:0:0:
76,280,224505,1,8,0:0:0:0:
312,228,224672,1,0,0:0:0:0:
100,184,224838,1,0,0:0:0:0:
152,344,225005,1,0,0:0:0:0:
220,128,225172,1,8,0:0:0:0:
356,328,225338,1,0,0:0:0:0:
148,80,225505,5,0,0:0:0:0:
192,48,225672,1,0,0:0:0:0:
244,36,225838,1,8,0:0:0:0:
296,52,226005,1,0,0:0:0:0:
340,84,226172,2,0,L|452:40,1,107.999996704102
352,180,226505,2,0,P|288:168|256:128,1,107.999996704102,8|0,0:0|0:0,0:0:0:0:
460,200,226838,6,0,P|420:256|236:288,1,215.999993408203,4|8,0:0|0:0,0:0:0:0:
192,248,227338,1,0,0:0:0:0:
136,340,227505,1,0,0:0:0:0:
248,156,227672,1,0,0:0:0:0:
140,160,227838,1,8,0:0:0:0:
288,256,228005,1,0,0:0:0:0:
56,216,228172,6,0,P|36:160|52:100,1,107.999996704102
112,28,228505,2,0,P|163:-1|225:3,1,107.999996704102,8|0,0:0|0:0,0:0:0:0:
304,52,228838,2,0,B|352:96|344:148|344:148|400:184|452:160,1,215.999993408203,0|8,0:0|0:0,0:0:0:0:
436,56,229338,1,0,0:0:0:0:
216,129,229505,6,0,P|164:117|125:81,1,107.999996704102
148,212,229839,2,0,P|201:224|252:208,1,107.999996704102,8|0,0:0|0:0,0:0:0:0:
331,261,230172,2,0,P|295:300|244:316,1,107.999996704102
388,352,230505,2,0,P|425:313|436:261,1,107.999996704102,8|0,0:0|0:0,0:0:0:0:
416,152,230838,5,0,0:0:0:0:
340,76,231005,1,0,0:0:0:0:
236,52,231172,2,0,P|168:60|124:96,1,107.999996704102,8|0,0:0|0:0,0:0:0:0:
100,184,231505,1,0,0:0:0:0:
204,220,231672,2,0,L|260:240,2,53.9999983520508,0|0|8,0:0|0:0|0:0,0:0:0:0:
64,100,232005,1,0,0:0:0:0:
48,280,232172,5,0,0:0:0:0:
48,280,232338,1,0,0:0:0:0:
152,312,232505,1,8,0:0:0:0:
152,312,232671,1,0,0:0:0:0:
296,168,232839,2,0,P|276:104|204:76,1,107.999996704102
416,180,233172,2,0,L|480:92,1,107.999996704102,8|0,0:0|0:0,0:0:0:0:
336,256,233506,5,0,0:0:0:0:
76,204,233672,2,0,L|16:192,2,53.9999983520508,0|0|8,0:0|0:0|0:0,0:0:0:0:
328,260,234006,5,0,0:0:0:0:
352,48,234172,1,0,0:0:0:0:
196,316,234339,2,0,L|164:368,2,53.9999983520508,0|0|8,0:0|0:0|0:0,0:0:0:0:
176,156,234672,1,0,0:0:0:0:
328,212,234839,6,0,L|268:232,1,53.9999983520508,8|0,0:0|0:0,0:0:0:0:
384,220,235006,2,0,L|444:200,1,53.9999983520508,0|0,0:0|0:0,0:0:0:0:
328,140,235172,6,0,L|266:85,1,53.9999983520508,8|0,0:0|0:0,0:0:0:0:
320,280,235339,2,0,L|381:334,1,53.9999983520508,0|0,0:0|0:0,0:0:0:0:
412,128,235506,6,0,L|428:47,1,53.9999983520508,8|0,0:0|0:0,0:0:0:0:
228,232,235673,2,0,L|211:312,1,53.9999983520508,0|0,0:0|0:0,0:0:0:0:
428,284,235839,5,8,0:0:0:0:
384,316,235922,1,0,0:0:0:0:
332,324,236006,1,0,0:0:0:0:
280,308,236089,1,0,0:0:0:0:
240,272,236172,5,8,0:0:0:0:
244,260,236256,1,0,0:0:0:0:
248,248,236339,1,0,0:0:0:0:
252,236,236422,1,0,0:0:0:0:
256,224,236506,1,8,0:0:0:0:
260,212,236589,1,0,0:0:0:0:
264,200,236672,1,0,0:0:0:0:
268,188,236756,1,0,0:0:0:0:
272,176,236839,1,8,0:0:0:0:
276,168,236922,1,0,0:0:0:0:
280,156,237006,1,0,0:0:0:0:
284,144,237089,1,0,0:0:0:0:
288,132,237172,1,8,0:0:0:0:
292,120,237256,1,0,0:0:0:0:
296,108,237339,1,0,0:0:0:0:
300,96,237422,1,0,0:0:0:0:
304,84,237506,6,0,P|364:60|400:268,1,360
100,184,242839,5,2,0:0:0:0:
192,284,243339,2,0,P|224:280|288:288,1,90
364,324,244005,2,0,P|408:276|424:208,1,135,0|2,0:0|0:0,0:0:0:0:
396,124,244839,2,0,P|356:80|312:60,1,90,2|2,0:0|0:0,0:0:0:0:
244,44,245505,6,0,P|220:56|184:64,1,45,2|0,0:0|0:0,0:0:0:0:
156,60,245839,2,0,P|128:68|100:84,1,45,2|0,0:0|0:0,0:0:0:0:
56,144,246339,1,0,0:0:0:0:
104,220,246672,2,0,P|152:204|244:212,1,135,0|2,0:0|0:0,0:0:0:0:
320,244,247505,1,2,0:0:0:0:
328,247,247672,1,0,0:0:0:0:
336,249,247839,1,0,0:0:0:0:
344,249,248005,1,0,0:0:0:0:
357,246,248172,6,0,P|381:278|377:326,1,67.5000025749208,0|0,0:0|0:0,0:0:0:0:
280,296,248505,2,0,P|274:335|237:366,1,67.5000025749208,2|0,0:0|0:0,0:0:0:0:
188,284,248839,1,0,0:0:0:0:
120,272,249005,1,0,0:0:0:0:
68,228,249172,1,2,0:0:0:0:
44,164,249339,1,0,0:0:0:0:
52,96,249505,6,0,L|132:72,1,67.5000025749208,0|0,0:0|0:0,0:0:0:0:
188,152,249839,2,0,L|123:171,1,67.5000025749208,2|0,0:0|0:0,0:0:0:0:
200,60,250172,2,0,P|252:88|268:116,1,67.5000025749208,0|0,0:0|0:0,0:0:0:0:
272,172,250505,1,2,0:0:0:0:
272,172,250672,1,0,0:0:0:0:
220,236,250839,6,0,P|284:272|384:272,1,135.000005149842,0|2,0:0|0:0,0:0:0:0:
440,184,251339,1,0,0:0:0:0:
295,198,251505,2,0,P|265:213|232:216,1,67.5000025749208
348,152,251839,2,0,P|368:120|372:84,1,67.5000025749208,2|0,0:0|0:0,0:0:0:0:
396,320,252172,6,0,P|324:320|292:296,1,67.5000025749208
388,240,252505,2,0,P|460:240|492:264,1,67.5000025749208,2|0,0:0|0:0,0:0:0:0:
252,260,253005,1,2,0:0:0:0:
448,80,253339,1,2,0:0:0:0:
392,116,253505,6,0,P|336:132|312:132,1,67.5000025749208,2|0,0:0|0:0,0:0:0:0:
260,124,253839,2,0,P|224:112|184:72,1,67.5000025749208,2|0,0:0|0:0,0:0:0:0:
348,68,254172,2,0,P|384:100|396:144,1,67.5000025749208
396,184,254505,1,2,0:0:0:0:
352,236,254672,1,0,0:0:0:0:
288,260,254839,6,0,P|304:300|336:344,1,67.5000025749208
224,360,255172,1,2,0:0:0:0:
200,264,255339,2,0,P|200:184|224:120,1,135.000005149842,0|2,0:0|0:0,0:0:0:0:
424,304,256005,2,0,P|364:356|288:368,1,135.000005149842,2|2,0:0|0:0,0:0:0:0:
224,360,256505,1,2,0:0:0:0:
224,360,256672,1,0,0:0:0:0:
272,208,257005,2,0,P|320:240|336:264,2,67.5000025749208,0|2|0,0:0|0:0|0:0,0:0:0:0:
48,64,257838,5,2,0:0:0:0:
104,96,258005,2,0,P|184:96|272:80,1,135.000005149842
456,248,258838,6,0,P|392:272|352:272,1,90,4|0,0:0|0:0,0:0:0:0:
280,248,259172,1,2,0:0:0:0:
216,312,259338,2,0,L|160:360,2,45
256,160,259672,1,0,0:0:0:0:
344,172,259838,2,0,P|372:212|376:268,1,90,10|0,0:0|0:0,0:0:0:0:
320,312,260172,5,0,0:0:0:0:
320,312,260338,1,0,0:0:0:0:
232,328,260505,1,2,0:0:0:0:
232,328,260672,2,0,L|120:344,2,90
408,336,261172,2,0,L|464:352,2,45,2|0|0,0:0|0:0|0:0,0:0:0:0:
232,232,261505,6,0,P|272:200|320:192,1,90,8|0,0:0|0:0,0:0:0:0:
400,208,261838,1,2,0:0:0:0:
400,208,262005,1,0,0:0:0:0:
456,136,262172,6,0,P|432:104|376:72,1,90
208,64,262505,2,0,L|160:80,2,45,10|0|0,0:0|0:0|0:0,0:0:0:0:
376,136,262839,6,0,P|320:176|288:184,1,90
208,192,263172,1,2,0:0:0:0:
120,160,263339,2,0,P|80:208|72:328,1,180
160,344,263839,2,0,P|216:336|272:344,1,90,10|0,0:0|0:0,0:0:0:0:
336,352,264172,6,0,P|376:312|392:264,1,90,8|0,0:0|0:0,0:0:0:0:
376,192,264505,1,2,0:0:0:0:
464,160,264672,2,0,L|512:144,2,45
296,224,265005,2,0,P|240:200|216:168,2,90,0|10|0,0:0|0:0|0:0,0:0:0:0:
208,64,265505,5,8,0:0:0:0:
400,112,265672,1,0,0:0:0:0:
320,56,265839,1,2,0:0:0:0:
424,224,266005,2,0,P|400:272|368:296,1,90,8|0,0:0|0:0,0:0:0:0:
280,312,266339,1,8,0:0:0:0:
280,312,266505,1,10,0:0:0:0:
88,120,266839,6,0,P|144:120|192:112,1,90,4|0,0:0|0:0,0:0:0:0:
144,248,267172,2,0,P|88:248|40:256,1,90,8|0,0:0|0:0,0:0:0:0:
272,272,267505,2,0,P|280:216|272:176,1,90
440,264,267839,2,0,P|415:301|381:330,1,90,8|0,0:0|0:0,0:0:0:0:
328,104,268172,6,0,P|400:96|440:104,1,90
200,224,268505,2,0,P|160:176|144:120,1,90,8|0,0:0|0:0,0:0:0:0:
296,216,268839,1,0,0:0:0:0:
152,304,269005,1,0,0:0:0:0:
328,280,269172,2,0,P|368:260|401:229,1,90,8|0,0:0|0:0,0:0:0:0:
440,96,269505,5,0,0:0:0:0:
264,48,269672,1,0,0:0:0:0:
296,184,269839,1,8,0:0:0:0:
120,200,270005,1,0,0:0:0:0:
256,320,270172,5,0,0:0:0:0:
272,328,270255,1,0,0:0:0:0:
284,332,270339,1,0,0:0:0:0:
296,332,270422,1,0,0:0:0:0:
308,332,270505,1,8,0:0:0:0:
320,328,270589,1,0,0:0:0:0:
332,324,270672,1,0,0:0:0:0:
344,320,270755,1,0,0:0:0:0:
356,320,270839,6,0,P|384:324|448:352,1,90
304,232,271505,2,0,P|259:224|240:228,1,45
216,240,271755,1,0,0:0:0:0:
176,264,271838,1,0,0:0:0:0:
132,276,271922,1,0,0:0:0:0:
88,264,272005,1,0,0:0:0:0:
56,232,272088,1,0,0:0:0:0:
48,184,272172,6,0,P|56:144|96:100,1,90,2|2,0:0|0:0,0:0:0:0:
156,52,272838,2,0,P|194:38|252:51,1,90,2|2,0:0|0:0,0:0:0:0:
308,148,273505,5,2,0:0:0:0:
348,164,273672,1,0,0:0:0:0:
392,168,273838,1,2,0:0:0:0:
436,152,274005,1,0,0:0:0:0:
468,120,274172,2,0,P|496:152|504:216,1,90,2|2,0:0|0:0,0:0:0:0:
444,260,274838,6,0,P|416:256|384:260,1,45,2|0,0:0|0:0,0:0:0:0:
348,332,275172,2,0,P|376:336|408:332,1,45,2|0,0:0|0:0,0:0:0:0:
280,244,275505,2,0,P|240:260|204:304,1,90,2|2,0:0|0:0,0:0:0:0:
120,292,276172,1,2,0:0:0:0:
120,292,276338,1,0,0:0:0:0:
128,248,276505,1,2,0:0:0:0:
112,208,276672,2,0,P|88:184|60:176,1,45,0|0,0:0|0:0,0:0:0:0:
88,136,277005,2,0,P|120:127|141:106,1,45,0|2,0:0|0:0,0:0:0:0:
152,80,277338,1,0,0:0:0:0:
152,80,277505,5,2,0:0:0:0:
332,96,278172,2,0,P|376:80|424:76,1,90,2|2,0:0|0:0,0:0:0:0:
484,140,278838,5,2,0:0:0:0:
300,224,279338,2,0,P|280:220|256:212,1,45,0|2,0:0|0:0,0:0:0:0:
100,84,280005,1,0,0:0:0:0:
64,112,280172,5,2,0:0:0:0:
88,152,280338,1,0,0:0:0:0:
96,196,280505,1,2,0:0:0:0:
80,236,280672,2,0,P|128:264|172:260,1,90,2|2,0:0|0:0,0:0:0:0:
200,240,281172,1,2,0:0:0:0:
244,228,281338,1,0,0:0:0:0:
288,240,281505,5,2,0:0:0:0:
148,188,281672,1,0,0:0:0:0:
244,324,281838,1,2,0:0:0:0:
344,192,282005,1,0,0:0:0:0:
452,248,282505,6,0,P|404:260|372:264,1,45,2|0,0:0|0:0,0:0:0:0:
368,96,282838,2,0,P|424:88|484:104,1,90,2|2,0:0|0:0,0:0:0:0:
264,220,283505,2,0,P|224:188|208:144,1,90,0|2,0:0|0:0,0:0:0:0:
208,108,284005,1,0,0:0:0:0:
232,68,284172,5,2,0:0:0:0:
300,128,284338,1,0,0:0:0:0:
388,140,284505,1,2,0:0:0:0:
472,108,284672,1,0,0:0:0:0:
376,260,285338,1,0,0:0:0:0:
340,288,285505,6,0,P|312:304|280:312,1,45,2|0,0:0|0:0,0:0:0:0:
212,304,286005,1,0,0:0:0:0:
212,304,286172,2,0,P|188:324|168:348,1,45,0|2,0:0|0:0,0:0:0:0:
96,296,286505,2,0,P|116:286|137:279,1,45,0|2,0:0|0:0,0:0:0:0:
112,208,286839,5,0,0:0:0:0:
68,196,287005,2,0,P|56:168|56:144,1,45,2|0,0:0|0:0,0:0:0:0:
88,72,287338,2,0,P|120:44|204:52,1,90,2|2,0:0|0:0,0:0:0:0:
208,48,287838,1,2,0:0:0:0:
248,68,288005,1,0,0:0:0:0:
292,64,288172,1,2,0:0:0:0:
256,192,288255,12,0,289505,0:0:0:0:
208,104,290338,6,2,P|256:100|304:104,1,90
256,192,290838,12,0,291838,0:0:0:0:
100,344,292172,6,0,P|68:300|56:168,1,180,0|2,0:0|0:0,0:0:0:0:
144,24,292838,2,0,P|128:120|168:216,1,180,0|2,0:0|0:0,0:0:0:0:
248,296,293505,6,0,P|296:284|384:300,1,135.000005149842,2|8,0:0|0:0,0:0:0:0:
444,208,294172,5,4,0:0:0:0:
444,208,294338,1,0,0:0:0:0:
388,96,294505,2,0,P|336:176|284:180,1,125.999996154785,8|0,0:0|0:0,0:0:0:0:
188,168,294838,1,0,0:0:0:0:
132,56,295005,2,0,L|104:0,2,62.9999980773926,0|0|8,0:0|0:0|0:0,0:0:0:0:
104,268,295338,1,0,0:0:0:0:
272,56,295505,1,0,0:0:0:0:
48,144,295672,1,0,0:0:0:0:
236,276,295838,2,0,P|212:348|168:380,1,125.999996154785,8|0,0:0|0:0,0:0:0:0:
16,180,296172,6,0,B|56:168|100:188|144:172,1,125.999996154785
212,72,296505,2,0,B|172:84|128:64|84:80,1,125.999996154785,8|0,0:0|0:0,0:0:0:0:
176,256,296838,2,0,P|236:296|420:284,1,251.999992309571,0|8,0:0|0:0,0:0:0:0:
472,180,297338,1,0,0:0:0:0:
348,200,297505,5,0,0:0:0:0:
396,84,297672,2,0,L|424:24,2,62.9999980773926,0|0|8,0:0|0:0|0:0,0:0:0:0:
224,224,298005,1,0,0:0:0:0:
424,296,298172,1,0,0:0:0:0:
256,324,298338,1,0,0:0:0:0:
260,104,298505,1,8,0:0:0:0:
72,216,298672,1,0,0:0:0:0:
148,80,298838,6,0,P|184:120|184:196,1,125.999996154785
116,292,299172,1,8,0:0:0:0:
116,292,299338,1,0,0:0:0:0:
424,296,299505,2,0,P|356:240|180:240,1,251.999992309571,0|8,0:0|0:0,0:0:0:0:
128,340,300005,1,0,0:0:0:0:
28,108,300172,6,0,P|124:56|292:64,1,251.999992309571,0|8,0:0|0:0,0:0:0:0:
372,124,300672,1,0,0:0:0:0:
168,136,300838,1,0,0:0:0:0:
316,220,301005,1,0,0:0:0:0:
312,48,301172,1,8,0:0:0:0:
220,216,301338,1,0,0:0:0:0:
396,300,301505,6,0,P|444:264|468:200,2,125.999996154785,0|0|8,0:0|0:0|0:0,0:0:0:0:
276,336,302005,2,0,P|204:332|76:192,1,251.999992309571
60,92,302505,1,8,0:0:0:0:
208,244,302672,1,0,0:0:0:0:
0,288,302838,5,0,0:0:0:0:
136,136,303005,1,0,0:0:0:0:
100,232,303172,1,0,0:0:0:0:
236,80,303339,1,0,0:0:0:0:
360,104,303505,2,0,P|356:168|396:220,1,125.999996154785
268,184,303838,1,8,0:0:0:0:
452,144,304005,1,0,0:0:0:0:
396,308,304172,6,0,P|300:352|236:348,1,125.999996154785
276,228,304505,2,0,P|323:186|352:131,1,125.999996154785,8|0,0:0|0:0,0:0:0:0:
180,48,304838,2,0,P|182:110|161:169,1,125.999996154785
48,240,305172,2,0,P|35:178|2:125,1,125.999996154785,8|0,0:0|0:0,0:0:0:0:
252,216,305505,5,0,0:0:0:0:
148,292,305672,2,0,L|88:336,2,62.9999980773926,0|0|8,0:0|0:0|0:0,0:0:0:0:
364,140,306005,1,0,0:0:0:0:
136,172,306172,1,0,0:0:0:0:
272,340,306338,1,0,0:0:0:0:
364,140,306505,1,8,0:0:0:0:
138,91,306672,1,0,0:0:0:0:
218,289,306838,5,0,0:0:0:0:
364,140,307005,2,0,L|408:92,2,62.9999980773926,0|0|8,0:0|0:0|0:0,0:0:0:0:
180,224,307338,5,0,0:0:0:0:
180,224,307505,1,0,0:0:0:0:
398,202,307672,2,0,L|462:193,2,62.9999980773926,0|0|8,0:0|0:0|0:0,0:0:0:0:
288,212,308005,1,0,0:0:0:0:
76,236,308172,5,0,0:0:0:0:
248,312,308338,1,0,0:0:0:0:
228,124,308505,1,8,0:0:0:0:
72,240,308672,1,0,0:0:0:0:
207,370,308838,1,0,0:0:0:0:
253,186,309005,1,0,0:0:0:0:
104,340,309172,1,8,0:0:0:0:
144,168,309338,1,0,0:0:0:0:
284,284,309505,5,0,0:0:0:0:
284,284,309672,1,0,0:0:0:0:
340,172,309838,1,8,0:0:0:0:
340,172,310005,1,0,0:0:0:0:
440,248,310172,2,0,P|440:292|392:360,1,125.999996154785
344,68,310505,2,0,P|268:40|216:56,1,125.999996154785,8|0,0:0|0:0,0:0:0:0:
120,116,310838,5,0,0:0:0:0:
272,316,311005,2,0,L|312:368,2,62.9999980773926,0|0|0,0:0|0:0|0:0,0:0:0:0:
372,156,311338,1,0,0:0:0:0:
16,272,311505,5,0,0:0:0:0:
288,56,311672,2,0,L|344:8,2,62.9999980773926,0|0|8,0:0|0:0|0:0,0:0:0:0:
336,252,312005,1,0,0:0:0:0:
116,192,312172,6,0,L|48:204,1,62.9999980773926,8|0,0:0|0:0,0:0:0:0:
168,156,312338,2,0,L|230:145,1,62.9999980773926,0|0,0:0|0:0,0:0:0:0:
80,120,312505,2,0,L|16:108,1,62.9999980773926,8|0,0:0|0:0,0:0:0:0:
156,220,312672,2,0,L|232:236,1,62.9999980773926
168,72,312838,2,0,L|136:16,1,62.9999980773926,8|0,0:0|0:0,0:0:0:0:
104,236,313005,2,0,L|144:300,1,62.9999980773926
264,168,313172,2,0,L|244:104,1,62.9999980773926,8|0,0:0|0:0,0:0:0:0:
8,204,313338,2,0,L|26:264,1,62.9999980773926
104,328,313505,5,8,0:0:0:0:
132,312,313588,1,0,0:0:0:0:
164,304,313672,1,0,0:0:0:0:
196,304,313755,1,0,0:0:0:0:
224,316,313838,1,8,0:0:0:0:
252,332,313922,1,0,0:0:0:0:
280,340,314005,1,0,0:0:0:0:
312,340,314088,1,0,0:0:0:0:
344,324,314172,1,8,0:0:0:0:
364,292,314255,1,0,0:0:0:0:
368,256,314338,1,0,0:0:0:0:
352,220,314422,1,0,0:0:0:0:
320,192,314505,1,8,0:0:0:0:
280,172,314588,1,0,0:0:0:0:
248,144,314672,1,0,0:0:0:0:
228,104,314755,1,0,0:0:0:0:
216,68,314838,6,0,P|266:49|320:46,1,107.999996704102,4|0,0:0|0:0,0:0:0:0:
36,224,315172,2,0,P|108:216|152:196,1,107.999996704102,8|0,0:0|0:0,0:0:0:0:
224,128,315505,1,0,0:0:0:0:
160,288,315672,1,0,0:0:0:0:
56,152,315838,1,8,0:0:0:0:
240,228,316005,1,0,0:0:0:0:
320,156,316172,6,0,P|404:144|452:160,1,107.999996704102
240,228,316505,2,0,P|202:189|181:140,1,107.999996704102,8|0,0:0|0:0,0:0:0:0:
344,264,316838,2,0,P|329:315|297:358,1,107.999996704102
444,132,317172,2,0,P|405:94|356:73,1,107.999996704102,8|0,0:0|0:0,2:0:0:0:
100,192,317505,6,0,P|160:208|228:196,1,107.999996704102
296,144,317838,1,8,0:0:0:0:
296,144,318005,1,0,0:0:0:0:
196,320,318172,2,0,P|249:288|289:232,1,107.999996704102
296,144,318505,1,8,0:0:0:0:
296,144,318672,1,0,0:0:0:0:
444,312,318838,6,0,L|364:228,1,107.999996704102
296,144,319172,2,0,L|248:92,2,53.9999983520508,8|0|0,0:0|0:0|0:0,0:0:0:0:
472,216,319505,1,0,0:0:0:0:
332,336,319672,1,0,0:0:0:0:
404,128,319838,1,0,0:0:0:0:
216,352,320005,1,0,0:0:0:0:
336,44,320172,6,0,L|288:168,1,107.999996704102
268,264,320505,1,8,0:0:0:0:
268,264,320672,1,0,0:0:0:0:
420,144,320838,5,0,0:0:0:0:
192,180,321005,2,0,L|132:188,2,53.9999983520508,0|0|8,0:0|0:0|0:0,0:0:0:0:
384,244,321338,1,0,0:0:0:0:
228,80,321505,5,0,0:0:0:0:
228,80,321672,1,0,0:0:0:0:
228,80,321838,2,0,P|216:136|176:184,1,107.999996704102,8|0,0:0|0:0,0:0:0:0:
64,224,322172,2,0,P|144:292|272:308,1,215.999993408203,0|8,0:0|0:0,0:0:0:0:
432,192,322838,6,0,P|468:244|476:328,1,107.999996704102
368,292,323172,2,0,P|316:328|232:336,1,107.999996704102,8|0,0:0|0:0,0:0:0:0:
276,232,323505,2,0,P|261:180|229:137,1,107.999996704102
148,204,323838,2,0,P|96:218|53:250,1,107.999996704102,8|0,0:0|0:0,0:0:0:0:
196,332,324172,6,0,P|248:352|316:344,1,107.999996704102
396,300,324505,2,0,L|452:272,2,53.9999983520508,8|0|0,0:0|0:0|0:0,0:0:0:0:
220,284,324838,1,0,0:0:0:0:
392,384,325005,1,0,0:0:0:0:
304,232,325172,1,8,0:0:0:0:
460,140,325338,1,0,0:0:0:0:
312,140,325505,6,0,P|264:112|228:64,1,107.999996704102
212,176,325838,2,0,P|157:166|107:133,1,107.999996704102,8|0,0:0|0:0,0:0:0:0:
148,244,326172,2,0,P|93:253|34:239,1,107.999996704102
116,324,326505,2,0,P|67:351|8:358,1,107.999996704102,8|0,0:0|0:0,0:0:0:0:
172,204,326838,5,0,0:0:0:0:
248,280,327005,2,0,L|300:328,2,53.9999983520508,0|0|8,0:0|0:0|0:0,0:0:0:0:
76,252,327338,1,0,0:0:0:0:
192,112,327505,6,0,P|248:104|300:80,1,107.999996704102
448,140,327838,2,0,P|392:148|340:172,1,107.999996704102,8|0,0:0|0:0,0:0:0:0:
260,240,328172,1,0,0:0:0:0:
316,332,328338,2,0,L|344:380,2,53.9999983520508,0|0|8,0:0|0:0|0:0,0:0:0:0:
156,220,328672,1,0,0:0:0:0:
300,136,328838,5,0,0:0:0:0:
216,336,329005,2,0,L|192:384,2,53.9999983520508,0|0|8,0:0|0:0|0:0,0:0:0:0:
372,252,329338,1,0,0:0:0:0:
188,120,329505,5,0,0:0:0:0:
368,172,329672,1,0,0:0:0:0:
320,0,329838,1,8,0:0:0:0:
320,0,330005,1,0,0:0:0:0:
188,120,330172,5,0,0:0:0:0:
317,255,330339,1,0,0:0:0:0:
372,76,330505,1,8,0:0:0:0:
212,232,330672,1,0,0:0:0:0:
80,160,330838,6,0,P|56:112|60:56,1,107.999996704102
176,240,331172,2,0,P|156:304|116:348,1,107.999996704102,8|0,0:0|0:0,0:0:0:0:
168,124,331505,2,0,P|196:72|232:36,1,107.999996704102
296,244,331838,2,0,P|260:304|220:332,1,107.999996704102,8|0,0:0|0:0,0:0:0:0:
292,116,332172,6,0,L|408:96,1,107.999996704102
236,228,332505,1,8,0:0:0:0:
224,28,332672,1,0,0:0:0:0:
432,252,332838,5,0,0:0:0:0:
432,252,333005,1,0,0:0:0:0:
328,224,333172,1,8,0:0:0:0:
288,324,333338,1,0,0:0:0:0:
216,240,333505,6,0,L|232:184,1,53.9999983520508,8|0,0:0|0:0,0:0:0:0:
164,276,333672,2,0,L|149:327,1,53.9999983520508,0|0,0:0|0:0,0:0:0:0:
280,280,333838,2,0,L|321:239,1,53.9999983520508,8|0,0:0|0:0,0:0:0:0:
132,256,334005,2,0,L|93:293,1,53.9999983520508,0|0,0:0|0:0,0:0:0:0:
332,336,334172,6,0,L|388:321,1,53.9999983520508,8|0,0:0|0:0,0:0:0:0:
112,232,334339,2,0,L|59:245,1,53.9999983520508,0|0,0:0|0:0,0:0:0:0:
344,164,334505,2,0,L|400:149,1,53.9999983520508,8|0,0:0|0:0,0:0:0:0:
204,336,334672,2,0,L|151:349,1,53.9999983520508
128,136,334838,5,8,0:0:0:0:
156,88,334922,1,0,0:0:0:0:
200,60,335005,1,0,0:0:0:0:
252,48,335088,1,0,0:0:0:0:
300,44,335172,5,8,0:0:0:0:
348,48,335255,1,0,0:0:0:0:
396,60,335338,1,0,0:0:0:0:
440,84,335422,1,0,0:0:0:0:
472,116,335505,5,8,0:0:0:0:
492,156,335588,1,0,0:0:0:0:
500,192,335672,1,0,0:0:0:0:
504,228,335755,1,0,0:0:0:0:
496,260,335838,2,0,P|480:296|464:320,3,53.9999983520508
452,328,336172,5,10,0:0:0:0:
328,328,336338,2,0,P|304:240|344:144,1,180
432,176,336838,2,0,P|376:232|256:232,1,180,2|2,0:0|0:0,0:0:0:0:
240,160,337338,2,0,P|296:104|416:104,1,180,0|2,0:0|0:0,0:0:0:0:
432,176,337838,2,0,L|368:248,1,90
416,320,338171,2,0,L|325:351,1,90,2|0,0:0|0:0,0:0:0:0:
80,240,338838,5,2,0:0:0:0:
40,160,339005,2,0,P|128:112|224:128,1,180,0|0,0:0|0:0,0:0:0:0:
280,176,339505,2,0,P|278:277|216:352,1,180,2|2,0:0|0:0,0:0:0:0:
200,256,340005,2,0,B|232:284|282:264|282:264|300:324|344:328,1,180,0|2,0:0|0:0,0:0:0:0:
416,288,340505,2,0,P|384:248|384:192,1,90
424,128,340838,1,2,0:0:0:0:
424,128,341005,1,0,0:0:0:0:
184,248,341505,6,0,P|208:280|216:336,2,90,2|0|2,0:0|0:0|0:0,0:0:0:0:
96,216,342005,2,0,P|72:168|80:112,1,90,0|2,0:0|0:0,0:0:0:0:
112,48,342338,1,0,0:0:0:0:
176,112,342505,2,0,P|206:68|259:47,1,90,2|0,0:0|0:0,0:0:0:0:
328,40,342838,6,0,P|405:61|453:157,1,180,2|2,0:0|0:0,0:0:0:0:
456,232,343338,1,0,0:0:0:0:
408,304,343505,2,0,L|312:288,1,90,2|0,0:0|0:0,0:0:0:0:
168,64,344171,5,2,0:0:0:0:
248,112,344338,2,0,L|336:72,1,90,0|2,0:0|0:0,0:0:0:0:
408,128,344671,1,0,0:0:0:0:
352,200,344838,2,0,P|392:232|432:248,1,90,2|0,0:0|0:0,0:0:0:0:
408,336,345171,6,0,P|360:328|304:336,1,90,2|0,0:0|0:0,0:0:0:0:
232,360,345505,1,0,0:0:0:0:
216,336,345588,1,0,0:0:0:0:
208,304,345671,1,2,0:0:0:0:
208,272,345755,1,0,0:0:0:0:
216,240,345838,2,0,L|248:184,1,45
128,296,346005,2,0,L|120:352,1,45
72,200,346171,2,0,L|64:144,2,45
176,32,346838,6,0,P|248:72|272:104,1,90,2|0,0:0|0:0,0:0:0:0:
288,160,347171,1,10,0:0:0:0:
376,128,347338,2,0,L|432:104,2,45,0|0|2,0:0|0:0|0:0,0:0:0:0:
200,192,347671,1,0,0:0:0:0:
256,264,347838,1,10,0:0:0:0:
344,296,348005,1,0,0:0:0:0:
432,272,348171,6,0,P|456:216|440:160,1,90,0|2,0:0|0:0,0:0:0:0:
424,104,348505,2,0,P|392:64|320:56,1,90,8|0,0:0|0:0,0:0:0:0:
312,72,348755,1,0,0:0:0:0:
312,72,348838,1,2,0:0:0:0:
248,136,349005,1,0,0:0:0:0:
192,64,349171,1,8,0:0:0:0:
168,80,349255,1,0,0:0:0:0:
136,88,349338,1,0,0:0:0:0:
104,88,349421,1,0,0:0:0:0:
72,80,349505,6,0,P|56:136|64:184,1,90,2|0,0:0|0:0,0:0:0:0:
88,256,349838,2,0,P|120:304|168:336,1,90,10|0,0:0|0:0,0:0:0:0:
168,300,350088,1,0,0:0:0:0:
196,284,350171,1,2,0:0:0:0:
228,276,350255,1,0,0:0:0:0:
260,276,350338,1,0,0:0:0:0:
328,336,350505,1,10,0:0:0:0:
360,336,350588,1,0,0:0:0:0:
392,320,350671,1,0,0:0:0:0:
424,240,350838,6,0,P|392:176|400:136,1,90,0|2,0:0|0:0,0:0:0:0:
400,112,351088,2,0,L|448:88,1,45,0|8,0:0|0:0,0:0:0:0:
280,168,351338,1,0,0:0:0:0:
304,80,351505,1,2,0:0:0:0:
272,72,351588,1,0,0:0:0:0:
240,76,351671,1,0,0:0:0:0:
152,48,351838,1,8,0:0:0:0:
112,64,351921,1,0,0:0:0:0:
80,96,352005,1,0,0:0:0:0:
64,136,352088,1,0,0:0:0:0:
56,184,352171,6,0,P|72:240|96:272,1,90,2|0,0:0|0:0,0:0:0:0:
168,312,352505,1,10,0:0:0:0:
248,272,352672,1,0,0:0:0:0:
248,272,352755,1,0,0:0:0:0:
248,272,352838,1,2,0:0:0:0:
304,200,353005,5,0,0:0:0:0:
168,240,353172,1,10,0:0:0:0:
280,344,353338,1,0,0:0:0:0:
392,240,353505,5,0,0:0:0:0:
352,88,353672,1,2,0:0:0:0:
208,128,353838,1,8,0:0:0:0:
132,80,354005,2,0,L|176:36,2,45,0|0|2,0:0|0:0|0:0,0:0:0:0:
76,148,354338,1,0,0:0:0:0:
40,232,354505,1,8,0:0:0:0:
76,256,354588,1,0,0:0:0:0:
120,272,354672,1,0,0:0:0:0:
164,272,354755,1,0,0:0:0:0:
208,264,354838,6,0,P|244:296|248:336,1,90,2|0,0:0|0:0,0:0:0:0:
324,240,355172,1,10,0:0:0:0:
324,136,355338,2,0,P|279:152|242:135,1,90,0|2,0:0|0:0,0:0:0:0:
324,240,355672,1,0,0:3:0:0:
424,288,355838,2,0,P|434:241|467:218,1,90,10|0,0:0|0:0,0:0:0:0:
464,108,356172,6,0,L|356:76,1,90,0|2,0:0|0:0,0:0:0:0:
256,144,356505,2,0,L|348:172,1,90,8|0,0:0|0:0,0:0:0:0:
343,171,356755,1,0,0:0:0:0:
343,171,356838,1,2,0:0:0:0:
128,212,357005,5,0,0:0:0:0:
68,176,357505,6,0,P|92:140|136:108,1,90
212,300,358117,6,0,P|168:297|119:275,1,90
268,116,358729,6,0,P|287:154|292:208,1,90
372,308,359368,6,0,P|391:269|396:216,1,90
256,112,360368,1,0,0:0:0:0:
256,192,360535,12,0,364368,0:0:0:0:
