osu file format v13

[General]
AudioFilename: everlasting guilty crown.mp3
AudioLeadIn: 1500
PreviewTime: 71736
Countdown: 0
SampleSet: Soft
StackLeniency: 0.7
Mode: 0
LetterboxInBreaks: 1
WidescreenStoryboard: 0

[Editor]
Bookmarks: 218335
DistanceSpacing: 1
BeatDivisor: 4
GridSize: 4
TimelineZoom: 2.58

[Metadata]
Title:The Everlasting Guilty Crown
TitleUnicode:The Everlasting Guilty Crown
Artist:EGOIST
ArtistUnicode:EGOIST
Creator:captin1
Version:Heart
Source:ギルティクラウン
Tags:chelly ryo supercell opening full
BeatmapID:512707
BeatmapSetID:218766

[Difficulty]
HPDrainRate:7
CircleSize:4.2
OverallDifficulty:8
ApproachRate:9
SliderMultiplier:1.8
SliderTickRate:2

[Events]
//Background and Video events
0,0,"crown.jpg",0,0
//Break Periods
2,210163,217561
//Storyboard Layer 0 (Background)
//Storyboard Layer 1 (Fail)
//Storyboard Layer 2 (Pass)
//Storyboard Layer 3 (Foreground)
//Storyboard Sound Samples
//Background Colour Transformations
3,100,163,162,255

[TimingPoints]
661,348.837209302326,4,2,3,40,1,0
661,-166.666666666667,4,2,3,40,0,0
6242,-125,4,2,1,50,0,0
6591,-125,4,2,1,40,0,0
6678,-125,4,2,1,50,0,0
28219,-125,4,2,1,5,0,0
28567,-100,4,2,1,50,0,0
32056,-100,4,2,11,50,0,0
32143,-100,4,2,1,50,0,0
37288,-100,4,2,11,50,0,0
37376,-100,4,2,1,50,0,0
37986,-100,4,2,11,50,0,0
38073,-100,4,2,1,50,0,0
38684,-100,4,2,11,50,0,0
38771,-100,4,2,1,50,0,0
43219,-100,4,2,11,50,0,0
43306,-100,4,2,1,50,0,0
46009,-100,4,2,11,50,0,0
46097,-100,4,2,1,50,0,0
49498,-166.666666666667,4,2,1,40,0,0
50893,-100,4,1,1,60,0,0
70428,-100,4,1,1,50,0,0
71823,-200,4,2,3,30,0,0
72521,-200,4,2,3,50,0,0
73131,-200,4,2,1,5,0,0
73219,-100,4,1,2,70,0,1
95544,-142.857142857143,4,2,1,50,0,0
106707,-125,4,2,1,50,0,0
112288,-125,4,2,1,60,0,0
115079,-100,4,1,1,40,0,0
116126,-100,4,1,1,50,0,0
116474,-100,4,1,1,30,0,0
116823,-100,4,1,1,40,0,0
117172,-100,4,1,1,50,0,0
117870,-142.857142857143,4,2,1,50,0,0
129033,-125,4,2,1,50,0,0
134614,-111.111111111111,4,2,1,60,0,0
140195,-100,4,2,1,70,0,0
143684,-100,4,2,11,70,0,0
143771,-100,4,2,1,70,0,0
144381,-100,4,2,11,70,0,0
144469,-100,4,2,1,70,0,0
148916,-100,4,2,11,70,0,0
149004,-100,4,2,1,70,0,0
149614,-100,4,2,11,70,0,0
149701,-100,4,2,1,70,0,0
150312,-100,4,2,11,70,0,0
150399,-100,4,2,1,70,0,0
154847,-100,4,2,11,70,0,0
154934,-100,4,2,1,70,0,0
156242,-100,4,2,11,70,0,0
156329,-100,4,2,1,70,0,0
157637,-100,4,2,11,70,0,0
157724,-100,4,2,1,70,0,0
158684,-100,4,2,11,70,0,0
158771,-100,4,2,1,70,0,0
161126,-166.666666666667,4,2,1,70,0,0
162521,-100,4,1,1,60,0,0
182056,-100,4,1,1,50,0,0
183451,-200,4,2,3,30,0,0
184149,-200,4,2,3,50,0,0
184759,-200,4,2,1,5,0,0
184847,-100,4,1,2,70,0,1
204381,-100,4,1,2,50,0,1
205777,-100,4,1,2,60,0,1
207172,-142.857142857143,4,2,1,60,0,0
207259,-142.857142857143,4,2,1,30,0,0
218161,-142.857142857143,4,2,1,50,0,0
229498,-142.857142857143,4,2,2,60,0,0
237870,-111.111111111111,4,2,1,60,0,0
243451,-142.857142857143,4,2,1,40,0,0
264381,-100,4,1,1,50,0,0
265777,-142.857142857143,4,2,1,60,0,0
265951,-142.857142857143,4,2,1,30,0,0
266126,-111.111111111111,4,2,1,60,0,0
266474,-90.9090909090909,4,1,2,70,0,1
307637,-90.9090909090909,4,1,2,50,0,1
309033,-90.9090909090909,4,1,2,60,0,1
310428,428.571428571429,4,2,1,60,1,8
310428,-142.857142857143,4,2,1,60,0,0
310642,447.761194029851,4,2,1,30,1,0
310642,-125,4,2,1,30,0,0
312433,476.190476190476,4,2,1,20,1,0
312433,-125,4,2,1,20,0,0
313385,535.714285714286,4,2,1,20,1,8
313385,-125,4,2,1,20,0,0
314456,571.428571428571,4,2,1,20,1,0
315598,705.882352941176,4,2,1,10,1,0
316303,1071.42857142857,4,2,1,5,1,0

[Colours]
Combo1 : 0,128,192
Combo2 : 255,0,128
Combo3 : 20,200,252
Combo4 : 128,0,128

[HitObjects]
116,276,661,5,0,0:0:0:0:
116,276,835,2,0,L|240:288,1,107.999996704102,2|0,0:0|0:0,0:0:0:0:
396,108,1358,2,0,L|272:96,1,107.999996704102,2|0,0:0|0:0,0:0:0:0:
92,292,1881,2,0,L|216:304,1,107.999996704102,2|0,0:0|0:0,0:0:0:0:
420,92,2405,2,0,L|296:80,1,107.999996704102,2|0,0:0|0:0,0:0:0:0:
116,276,2928,1,0,0:0:0:0:
340,332,3451,5,0,0:0:0:0:
340,332,3626,2,0,L|352:208,1,107.999996704102,2|0,0:0|0:0,0:0:0:0:
172,52,4149,2,0,L|160:176,1,107.999996704102,2|0,0:0|0:0,0:0:0:0:
356,356,4672,2,0,L|368:232,1,107.999996704102,2|0,0:0|0:0,0:0:0:0:
156,28,5195,2,0,L|144:152,1,107.999996704102,2|0,0:0|0:0,0:0:0:0:
340,332,5719,1,0,0:0:0:0:
489,93,6242,6,0,P|445:98|404:97,1,72,4|0,0:0|0:0,0:0:0:0:
245,144,6591,1,4,0:0:0:0:
225,246,6765,1,0,0:0:0:0:
161,120,6940,2,0,P|183:84|281:64,1,144
328,171,7463,1,0,0:0:0:0:
380,278,7637,6,0,L|386:353,1,72,2|0,0:0|0:0,0:0:0:0:
28,176,8335,1,2,0:0:0:0:
113,122,8509,1,0,0:0:0:0:
203,171,8684,2,0,L|276:161,1,72
383,315,9033,6,0,P|373:274|368:239,1,72
260,88,9381,1,2,0:0:0:0:
203,171,9556,2,0,L|41:158,1,144
127,269,10079,2,0,P|128:308|128:346,1,72
296,363,10428,5,2,0:0:0:0:
383,315,10602,2,0,P|395:263|391:168,1,144,0|0,0:0|0:0,0:0:0:0:
245,57,11126,1,2,0:0:0:0:
146,79,11300,1,0,0:0:0:0:
137,179,11474,1,2,0:0:0:0:
230,219,11649,1,0,0:0:0:0:
296,142,11823,6,0,P|309:105|316:69,1,72
365,222,12172,1,2,0:0:0:0:
459,263,12347,2,0,P|412:259|319:280,1,144
176,368,12870,2,0,L|172:288,1,72
90,238,13219,5,2,0:0:0:0:
130,146,13393,1,0,0:0:0:0:
405,13,13916,1,2,0:0:0:0:
416,113,14091,1,0,0:0:0:0:
427,213,14265,2,0,P|477:218|507:217,1,72
341,274,14614,6,0,P|291:279|261:278,1,72,0|0,0:0|0:0,0:0:0:0:
155,353,14963,1,2,0:0:0:0:
99,269,15137,2,0,B|110:222|110:222|97:175|97:175|110:122,1,144
204,14,15661,2,0,L|227:104,1,72
186,232,16009,5,2,0:0:0:0:
262,297,16184,2,0,P|303:305|333:303,1,72
391,197,16533,2,0,P|432:189|462:191,1,72,0|2,0:0|0:0,0:0:0:0:
433,275,16881,1,0,0:0:0:0:
291,210,17056,1,2,0:0:0:0:
418,120,17230,1,0,0:0:0:0:
433,275,17405,6,0,L|437:353,1,72
262,297,17754,1,2,0:0:0:0:
186,232,17928,1,0,0:0:0:0:
241,145,18102,2,0,P|287:132|370:189,1,144
438,248,18626,1,0,0:0:0:0:
506,175,18800,6,0,L|512:97,1,72,2|0,0:0|0:0,0:0:0:0:
213,73,19498,1,2,0:0:0:0:
113,58,19672,1,0,0:0:0:0:
13,43,19847,2,0,P|15:80|14:120,1,72,2|0,0:0|0:0,0:0:0:0:
23,257,20195,6,0,P|50:225|79:205,1,72
214,193,20544,1,2,0:0:0:0:
264,282,20719,2,0,P|258:220|268:137,1,144
377,47,21242,2,0,P|336:60|303:66,1,72
170,33,21591,5,2,0:0:0:0:
95,99,21765,2,0,B|87:136|87:136|102:257,1,144
283,307,22288,1,2,0:0:0:0:
268,145,22463,1,0,0:0:0:0:
184,285,22637,1,2,0:0:0:0:
175,185,22812,1,0,0:0:0:0:
334,222,22986,6,0,P|373:227|423:224,1,72
505,200,23335,1,2,0:0:0:0:
463,291,23509,2,0,P|424:303|316:297,1,144
189,353,24033,2,0,P|178:315|176:276,1,72
84,238,24381,5,2,0:0:0:0:
97,137,24556,1,0,0:0:0:0:
395,106,25079,1,2,0:0:0:0:
332,184,25254,1,0,0:0:0:0:
296,89,25428,2,0,P|294:46|289:14,1,72
477,75,25777,6,0,P|476:110|471:146,1,72,0|0,0:0|0:0,0:0:0:0:
382,267,26126,1,2,0:0:0:0:
283,255,26300,2,0,L|134:238,1,144
20,226,26823,2,0,L|25:305,1,72
88,155,27172,5,2,0:0:0:0:
256,192,27259,12,0,28219,0:0:0:0:
162,49,28567,6,0,P|170:105|170:144,1,90,4|0,1:0|0:0,0:0:0:0:
62,272,28916,2,0,P|63:227|70:182,1,90,8|2,0:0|0:0,0:0:0:0:
242,110,29265,2,0,P|296:107|396:194,1,180,8|8,0:0|0:0,0:0:0:0:
259,288,29788,1,0,0:0:0:0:
187,183,29963,5,10,0:0:0:0:
313,173,30137,1,0,0:0:0:0:
248,20,30312,2,0,P|243:65|242:110,1,90,8|0,0:0|0:0,0:0:0:0:
291,355,30661,1,10,0:0:0:0:
257,247,30835,1,0,0:0:0:0:
180,330,31009,1,8,0:0:0:0:
291,355,31184,1,0,0:0:0:0:
366,270,31358,6,0,P|371:221|372:164,1,90,8|0,0:0|0:0,0:0:0:0:
323,48,31707,1,8,0:0:0:0:
187,132,31881,2,0,P|238:141|364:106,1,180,2|0,0:0|0:0,0:0:0:0:
158,45,32405,1,8,0:0:0:0:
98,154,32579,1,0,0:0:0:0:
176,252,32754,6,0,P|225:260|272:259,1,90,10|0,0:0|0:0,0:0:0:0:
463,152,33102,2,0,P|414:160|367:159,1,90,8|0,0:0|0:0,0:0:0:0:
284,41,33451,1,10,0:0:0:0:
158,45,33626,1,0,0:0:0:0:
98,154,33800,1,8,0:0:0:0:
38,263,33974,5,0,0:0:0:0:
38,263,34062,1,0,0:0:0:0:
38,263,34149,2,8,P|92:239|217:259,1,180,10|8,0:0|0:0,0:0:0:0:
476,210,34672,5,0,0:0:0:0:
476,210,34759,1,0,0:0:0:0:
476,210,34847,2,8,P|422:186|297:206,1,180,10|8,0:0|0:0,0:0:0:0:
75,79,35370,5,0,0:0:0:0:
75,79,35457,1,0,0:0:0:0:
75,79,35544,2,8,P|133:89|225:175,1,180,10|8,0:0|0:0,0:0:0:0:
439,38,36067,5,0,0:0:0:0:
439,38,36155,1,0,0:0:0:0:
439,38,36242,2,8,P|380:48|288:134,1,180,10|8,0:0|0:0,0:0:0:0:
256,344,36765,5,0,0:0:0:0:
256,344,36852,1,0,0:0:0:0:
256,344,36940,2,0,L|256:208,2,135,10|0|0,0:0|0:0|0:0,0:0:0:0:
344,220,37637,6,0,P|368:171|376:87,2,135,10|0|0,0:0|0:0|0:0,0:0:0:0:
168,220,38335,6,0,P|144:171|136:87,2,135,10|0|0,0:0|0:0|0:0,0:0:0:0:
319,357,39033,6,0,L|321:258,1,90,10|0,0:0|0:0,0:0:0:0:
386,215,39294,1,0,0:0:0:0:
386,215,39381,2,0,L|384:116,1,90,8|0,0:0|0:0,0:0:0:0:
129,25,39730,6,0,L|127:114,1,90,12|0,0:0|0:0,0:0:0:0:
131,308,40079,1,8,0:0:0:0:
198,128,40254,1,2,0:0:0:0:
26,224,40428,2,8,P|85:235|204:197,1,180
255,19,40951,1,0,0:0:0:0:
370,69,41126,6,0,P|381:118|382:172,1,90,10|0,0:0|0:0,0:0:0:0:
246,254,41474,2,0,P|248:209|258:165,1,90,8|0,0:0|0:0,0:0:0:0:
449,88,41823,1,10,0:0:0:0:
420,239,41998,1,0,0:0:0:0:
296,98,42172,2,0,P|244:102|201:99,1,90,8|0,0:0|0:0,0:0:0:0:
19,140,42521,6,0,P|59:115|106:101,1,90,8|0,0:0|0:0,0:0:0:0:
255,19,42870,1,8,0:0:0:0:
249,173,43044,2,0,L|260:355,1,180,2|0,0:0|0:0,0:0:0:0:
178,256,43567,1,8,0:0:0:0:
325,204,43742,1,0,0:0:0:0:
415,330,43916,6,0,L|412:237,1,90,10|0,0:0|0:0,0:0:0:0:
466,69,44265,2,0,L|463:162,1,90,8|0,0:0|0:0,0:0:0:0:
267,286,44614,1,10,0:0:0:0:
157,169,44788,1,0,0:0:0:0:
325,204,44963,1,8,0:0:0:0:
323,374,45137,1,0,0:0:0:0:
155,338,45312,6,0,L|61:340,1,90,8|0,0:0|0:0,0:0:0:0:
70,162,45661,1,10,0:0:0:0:
169,83,45835,2,0,P|189:137|183:263,1,180,0|0,0:0|0:0,0:0:0:0:
290,358,46358,2,0,P|286:307|290:257,1,90,8|0,0:0|0:0,0:0:0:0:
403,154,46707,5,10,0:0:0:0:
489,246,46881,2,0,P|436:240|380:241,1,90,0|8,0:0|0:0,0:0:0:0:
120,332,47405,1,10,0:0:0:0:
75,217,47579,1,0,0:0:0:0:
154,120,47754,2,0,P|158:70|154:19,1,90,8|0,0:0|0:0,0:0:0:0:
166,212,48102,6,0,P|235:231|285:230,1,90,10|0,0:0|0:0,0:0:0:0:
346,172,48451,2,0,P|277:153|227:154,1,90,8|0,0:0|0:0,0:0:0:0:
130,312,48800,2,0,P|189:311|233:298,1,90,8|0,0:0|0:0,0:0:0:0:
382,72,49149,2,0,P|323:73|279:86,1,90,8|0,0:0|0:0,0:0:0:0:
256,219,49498,6,0,L|256:155,2,53.9999983520508,2|0|0,0:0|0:0|0:0,0:0:0:0:
202,285,50021,1,0,0:0:0:0:
173,183,50195,2,0,P|136:181|109:184,1,53.9999983520508,2|0,0:0|0:0,0:0:0:0:
275,90,50544,2,0,P|298:103|319:120,1,53.9999983520508,2|0,0:0|0:0,0:0:0:0:
312,322,50893,6,0,P|364:345|470:288,1,180,6|8,0:0|0:0,0:0:0:0:
387,102,51416,1,2,0:0:0:0:
280,201,51591,2,0,L|378:208,1,90
283,46,51940,2,0,L|185:39,1,90,8|0,0:0|0:0,0:0:0:0:
136,240,52288,5,2,0:0:0:0:
226,129,52463,1,0,0:0:0:0:
54,186,52637,1,8,0:0:0:0:
189,309,52812,2,0,P|248:320|370:286,1,180,2|0,0:0|0:0,0:0:0:0:
501,165,53335,2,0,P|452:175|411:198,1,90,8|0,0:0|0:0,0:0:0:0:
249,97,53684,6,0,P|255:147|271:199,2,90,2|0|8,0:0|0:0|0:0,0:0:0:0:
389,221,54207,2,0,P|329:214|202:248,1,180,2|0,0:0|0:0,0:0:0:0:
92,354,54730,1,8,0:0:0:0:
11,261,54905,1,0,0:0:0:0:
176,322,55079,6,0,P|220:322|277:329,1,90,2|0,0:0|0:0,0:0:0:0:
383,372,55428,1,8,0:0:0:0:
483,297,55602,2,0,P|506:242|506:111,1,180,2|0,0:0|0:0,0:0:0:0:
379,25,56126,2,0,P|370:83|371:114,1,90,8|0,0:0|0:0,0:0:0:0:
433,225,56474,5,2,0:0:0:0:
447,79,56649,1,0,0:0:0:0:
302,166,56823,1,8,0:0:0:0:
371,320,56998,2,0,P|324:343|191:355,1,180,2|0,0:0|0:0,0:0:0:0:
40,338,57521,1,8,0:0:0:0:
117,172,57695,6,0,P|126:219|126:264,1,90
21,137,58044,2,0,P|22:92|31:48,1,90,0|8,0:0|0:0,0:0:0:0:
186,101,58393,2,0,B|231:104|231:104|280:82|280:82|374:89,1,180,2|0,0:0|0:0,0:0:0:0:
382,103,58829,1,0,0:0:0:0:
398,124,58916,1,8,0:0:0:0:
408,149,59004,1,0,0:0:0:0:
410,175,59091,1,0,0:0:0:0:
406,201,59178,1,0,0:0:0:0:
392,224,59265,1,2,0:0:0:0:
197,178,59440,6,0,L|301:188,1,90,0|8,0:0|0:0,0:0:0:0:
446,306,59788,2,0,P|399:328|303:254,1,180,2|0,0:0|0:0,0:0:0:0:
266,95,60312,1,8,0:0:0:0:
392,224,60486,1,0,0:0:0:0:
216,268,60661,6,0,L|112:278,1,90,2|0,0:0|0:0,0:0:0:0:
74,114,61009,1,8,0:0:0:0:
216,19,61184,2,0,B|217:71|211:109|211:109|219:201,1,180,2|0,0:0|0:0,0:0:0:0:
296,365,61707,2,0,P|297:317|301:264,1,90,8|0,0:0|0:0,0:0:0:0:
415,202,62056,5,2,0:0:0:0:
216,268,62230,2,0,P|170:275|123:272,1,90,0|8,0:0|0:0,0:0:0:0:
0,137,62579,2,0,P|54:133|167:189,1,180,2|0,0:0|0:0,0:0:0:0:
330,339,63102,1,8,0:0:0:0:
419,251,63277,6,0,B|425:202|425:202|399:160|399:160|411:68,1,180,0|0,0:0|0:0,0:0:0:0:
503,191,63800,1,8,0:0:0:0:
399,339,63974,2,0,P|343:343|300:338,1,90,2|0,0:0|0:0,0:0:0:0:
119,311,64323,1,0,0:0:0:0:
237,262,64498,2,0,P|253:217|258:157,1,90,8|0,0:0|0:0,0:0:0:0:
120,85,64847,6,0,P|72:84|28:75,1,90,2|0,0:0|0:0,0:0:0:0:
221,42,65195,1,8,0:0:0:0:
297,165,65370,2,0,L|311:347,1,180,2|0,0:0|0:0,0:0:0:0:
394,272,65893,1,8,0:0:0:0:
212,252,66067,1,0,0:0:0:0:
54,346,66242,6,0,P|50:296|54:231,1,90,2|0,0:0|0:0,0:0:0:0:
157,74,66591,2,0,P|158:118|154:163,1,90,10|0,0:0|0:0,0:0:0:0:
177,334,66940,2,0,P|226:315|281:310,1,90,2|0,0:0|0:0,0:0:0:0:
398,362,67288,1,10,0:0:0:0:
487,86,67637,6,0,P|444:75|398:72,1,90,2|0,0:0|0:0,0:0:0:0:
256,145,67986,1,8,0:0:0:0:
373,195,68161,2,0,P|377:138|354:6,1,180,2|0,0:0|0:0,0:0:0:0:
154,17,68684,2,0,P|142:66|136:112,1,90,8|0,0:0|0:0,0:0:0:0:
256,292,69033,6,0,L|256:193,1,90,2|0,0:0|0:0,0:0:0:0:
113,71,69381,1,8,0:0:0:0:
14,239,69556,2,0,P|19:293|108:383,1,180,2|0,0:0|0:0,0:0:0:0:
256,292,70079,2,0,P|312:284|348:288,1,90,8|0,0:0|0:0,0:0:0:0:
484,340,70428,6,0,L|494:297,3,45,0|0|0|0,0:0|0:0|0:0|0:0,0:0:0:0:
447,223,70777,2,0,L|437:180,3,45,8|0|0|0,0:0|0:0|0:0|0:0,0:0:0:0:
354,154,71126,1,0,0:0:0:0:
328,161,71213,1,0,0:0:0:0:
301,161,71300,1,0,0:0:0:0:
273,153,71387,1,0,0:0:0:0:
250,138,71474,1,8,0:0:0:0:
230,119,71562,1,0,0:0:0:0:
219,94,71649,1,0,0:0:0:0:
214,67,71736,1,0,0:0:0:0:
218,40,71823,6,0,B|301:94|253:197|253:197|288:158|341:186|348:237|297:271,1,337.5,2|0,0:0|0:0,0:0:0:0:
278,281,73219,6,0,B|232:286|232:286|183:275,1,90,6|0,0:0|0:0,0:0:0:0:
42,102,73567,2,0,B|88:97|88:97|137:108,1,90,8|0,0:0|0:0,0:0:0:0:
100,292,73916,2,0,B|54:297|54:297|5:286,1,90,2|0,0:0|0:0,0:0:0:0:
219,137,74265,2,0,B|265:132|265:132|314:143,1,90,8|0,0:0|0:0,0:0:0:0:
381,298,74614,5,2,0:0:0:0:
260,218,74788,1,0,0:0:0:0:
387,149,74963,1,8,0:0:0:0:
503,234,75137,2,0,L|509:329,1,90,2|0,0:0|0:0,0:0:0:0:
343,224,75486,1,0,0:0:0:0:
289,110,75661,2,0,L|295:15,1,90,10|0,0:0|0:0,0:0:0:0:
428,225,76009,6,0,B|421:296|389:341|389:341|354:332|326:301,1,180,2|8,0:0|0:0,0:0:0:0:
154,243,76533,1,0,0:0:0:0:
200,92,76707,2,0,L|209:184,1,90,2|0,0:0|0:0,0:0:0:0:
410,141,77056,2,0,L|401:233,1,90,8|0,0:0|0:0,0:0:0:0:
300,341,77405,5,2,0:0:0:0:
264,220,77579,2,0,P|257:173|256:124,1,90,0|8,0:0|0:0,0:0:0:0:
432,108,77928,2,0,P|443:164|417:296,1,180,2|0,0:0|0:0,0:0:0:0:
232,295,78451,2,0,P|194:293|139:309,1,90,10|0,0:0|0:0,0:0:0:0:
13,191,78800,6,0,P|51:217|180:207,1,180,2|8,0:0|0:0,0:0:0:0:
75,124,79323,1,0,0:0:0:0:
169,289,79498,2,0,B|227:288|227:288|286:263|286:263|350:263,1,180,2|8,0:0|0:0,0:0:0:0:
475,340,80021,1,0,0:0:0:0:
499,193,80195,6,0,P|461:167|332:177,1,180,2|8,0:0|0:0,0:0:0:0:
232,295,80719,1,0,0:0:0:0:
136,175,80893,2,0,L|129:81,1,90,2|0,0:0|0:0,0:0:0:0:
307,22,81242,2,0,L|300:116,1,90,8|0,0:0|0:0,0:0:0:0:
145,279,81591,5,2,0:0:0:0:
240,198,81765,1,0,0:0:0:0:
319,296,81940,1,8,0:0:0:0:
160,198,82114,2,0,P|111:198|0:268,1,180,2|0,0:0|0:0,0:0:0:0:
312,219,82637,2,0,P|349:183|371:143,1,90,10|0,0:0|0:0,0:0:0:0:
430,12,82986,5,2,0:0:0:0:
286,71,83161,1,0,0:0:0:0:
479,165,83335,1,8,0:0:0:0:
492,83,83509,2,0,P|442:82|324:153,1,180,2|0,0:0|0:0,0:0:0:0:
246,320,84033,1,10,0:0:0:0:
215,301,84120,1,0,0:0:0:0:
192,273,84207,1,0,0:0:0:0:
178,239,84294,1,0,0:0:0:0:
172,203,84381,6,0,P|167:156|171:104,1,90,6|0,0:0|0:0,0:0:0:0:
295,240,84730,2,0,P|272:198|255:149,1,90,8|0,0:0|0:0,0:0:0:0:
52,170,85079,2,0,P|65:124|89:78,1,90,2|0,0:0|0:0,0:0:0:0:
235,20,85428,1,8,0:0:0:0:
153,160,85602,1,0,0:0:0:0:
295,240,85777,6,0,P|341:226|385:200,1,90,2|0,0:0|0:0,0:0:0:0:
246,122,86126,1,8,0:0:0:0:
159,250,86300,2,0,P|173:308|288:372,1,180,2|0,0:0|0:0,0:0:0:0:
430,226,86823,2,0,P|382:230|333:245,1,90,10|0,0:0|0:0,0:0:0:0:
102,320,87172,6,0,B|82:268|82:268|79:135,1,180,2|8,0:0|0:0,0:0:0:0:
204,33,87695,1,0,0:0:0:0:
299,170,87870,2,0,P|254:177|204:171,1,90,2|0,0:0|0:0,0:0:0:0:
26,67,88219,2,0,P|70:56|120:57,1,90,8|0,0:0|0:0,0:0:0:0:
323,93,88567,5,2,0:0:0:0:
302,260,88742,1,0,0:0:0:0:
245,104,88916,1,8,0:0:0:0:
409,64,89091,2,0,B|415:106|415:106|392:152|392:152|406:246,1,180,2|0,0:0|0:0,0:0:0:0:
451,336,89614,1,10,0:0:0:0:
469,167,89788,1,0,0:0:0:0:
316,238,89963,6,0,P|273:250|142:217,1,180,2|8,0:0|0:0,0:0:0:0:
111,68,90486,1,0,0:0:0:0:
73,208,90661,2,0,P|70:253|74:298,2,90,2|0|8,0:0|0:0|0:0,0:0:0:0:
226,158,91184,5,0,0:0:0:0:
226,158,91271,1,0,0:0:0:0:
226,158,91358,2,0,B|266:180|266:180|409:166,1,180,2|8,0:0|0:0,0:0:0:0:
504,238,91881,1,0,0:0:0:0:
348,277,92056,2,0,L|169:258,1,180,2|8,0:0|0:0,0:0:0:0:
40,150,92579,1,0,0:0:0:0:
63,300,92754,6,0,P|104:354|220:360,1,180,2|8,0:0|0:0,0:0:0:0:
256,192,93277,1,0,0:0:0:0:
449,300,93451,2,0,P|408:354|292:360,1,180,2|8,0:0|0:0,0:0:0:0:
256,192,93974,1,0,0:0:0:0:
200,63,94149,6,0,B|155:74|155:74|117:109,1,90,2|0,0:0|0:0,0:0:0:0:
312,63,94498,2,0,B|357:74|357:74|395:109,1,90,0|0,0:0|0:0,0:0:0:0:
124,45,94847,6,0,B|99:84|99:84|97:136,1,90,2|0,0:0|0:0,0:0:0:0:
388,45,95195,2,0,B|412:84|412:84|414:136,1,90,2|0,0:0|0:0,0:0:0:0:
376,200,95457,1,0,0:0:0:0:
376,200,95544,5,0,1:0:0:0:
318,317,95719,2,0,L|313:246,1,62.9999980773926,0|2,0:0|0:0,0:0:0:0:
334,131,96067,1,0,0:0:0:0:
235,225,96242,2,0,L|162:233,1,62.9999980773926,0|0,0:0|0:0,0:0:0:0:
248,148,96591,2,0,L|175:141,1,62.9999980773926
77,20,96940,5,2,0:0:0:0:
64,107,97114,2,0,P|66:139|67:171,1,62.9999980773926,0|0,0:0|0:0,0:0:0:0:
148,76,97463,1,0,0:0:0:0:
188,153,97637,2,0,P|186:185|185:217,1,62.9999980773926,2|0,0:0|0:0,0:0:0:0:
306,316,97986,2,0,P|304:284|302:253,1,62.9999980773926,2|0,0:0|0:0,0:0:0:0:
409,280,98335,6,0,L|482:283,1,62.9999980773926
364,200,98684,1,2,0:0:0:0:
368,111,98858,1,0,0:0:0:0:
504,157,99033,2,0,L|437:159,1,62.9999980773926
268,211,99381,2,0,P|280:181|288:146,1,62.9999980773926
168,37,99730,5,2,0:0:0:0:
147,122,99905,2,0,P|154:152|166:181,1,62.9999980773926
249,216,100254,1,0,0:0:0:0:
299,289,100428,2,0,P|299:320|303:351,1,62.9999980773926,2|0,0:0|0:0,0:0:0:0:
219,288,100777,1,2,0:0:0:0:
326,216,100951,2,0,L|356:215,3,20.9999993591309,0|0|0|0,0:0|0:0|0:0|0:0,0:0:0:0:
234,195,101300,5,0,0:0:0:0:
146,246,101474,2,0,P|140:276|145:321,1,62.9999980773926,2|0,0:0|0:0,0:0:0:0:
50,212,101823,2,0,L|48:140,1,62.9999980773926
103,71,102172,2,0,L|40:66,1,62.9999980773926
180,126,102521,5,2,0:0:0:0:
261,92,102695,2,0,P|268:132|271:167,1,62.9999980773926
248,240,103044,1,0,0:0:0:0:
297,315,103219,2,0,P|338:309|365:309,1,62.9999980773926,2|0,0:0|0:0,0:0:0:0:
438,348,103567,2,0,P|479:354|506:354,1,62.9999980773926,2|0,0:0|0:0,0:0:0:0:
471,257,103916,6,0,P|461:214|457:185,2,62.9999980773926,0|0|2,0:0|0:0|0:0,0:0:0:0:
376,225,104440,1,0,0:0:0:0:
307,171,104614,2,0,P|268:164|231:162,1,62.9999980773926
100,205,104963,2,0,P|102:242|101:268,1,62.9999980773926
11,136,105312,5,2,0:0:0:0:
87,89,105486,1,0,0:0:0:0:
163,135,105661,2,0,P|199:134|231:126,1,62.9999980773926
319,40,106009,1,2,0:0:0:0:
377,106,106184,1,0,0:0:0:0:
376,194,106358,1,2,0:0:0:0:
318,260,106533,1,0,0:0:0:0:
226,269,106707,6,0,L|229:342,1,72,0|0,0:0|0:0,0:0:0:0:
288,178,107056,1,8,0:1:0:0:
210,114,107230,1,0,0:0:0:0:
77,191,107405,2,0,L|150:188,1,72,0|0,0:0|0:0,0:0:0:0:
291,93,107754,1,8,0:1:0:0:
419,185,107928,6,0,P|384:159|363:135,1,72
253,257,108277,2,0,P|288:231|309:207,1,72,0|8,0:0|0:1,0:0:0:0:
489,142,108626,2,0,L|496:233,1,72
434,342,108974,1,0,0:0:0:0:
338,235,109149,2,0,L|345:144,1,72,8|0,0:1|0:0,0:0:0:0:
216,46,109498,5,0,0:0:0:0:
123,137,109672,1,0,0:0:0:0:
123,137,109759,1,0,0:0:0:0:
123,137,109847,2,0,L|211:131,1,72,8|0,0:1|0:0,0:0:0:0:
365,80,110195,1,0,0:0:0:0:
400,175,110370,2,0,L|312:169,1,72,0|8,0:0|0:1,0:0:0:0:
194,252,110719,6,0,P|232:221|249:198,1,72
183,54,111067,2,0,P|165:99|162:128,1,72,0|8,0:0|0:1,0:0:0:0:
345,217,111416,2,0,P|337:168|325:142,1,72,0|0,0:0|0:0,0:0:0:0:
127,199,111765,1,0,0:0:0:0:
292,293,111940,2,0,L|376:297,1,72,8|0,0:1|0:0,0:0:0:0:
474,182,112288,5,0,0:0:0:0:
480,153,112376,1,0,0:0:0:0:
479,124,112463,1,0,0:0:0:0:
473,95,112550,1,0,0:0:0:0:
459,69,112637,2,0,L|376:77,1,72,8|0,0:1|0:0,0:0:0:0:
205,82,112986,1,0,0:0:0:0:
315,148,113161,2,0,L|398:156,1,72,0|8,0:0|0:1,0:0:0:0:
490,271,113509,6,0,P|441:265|417:253,1,72
252,190,113858,2,0,P|285:176|321:174,1,72,0|8,0:0|0:1,0:0:0:0:
297,320,114207,1,0,0:0:0:0:
297,320,114294,1,0,0:0:0:0:
297,320,114381,2,0,L|194:330,1,72
208,170,114730,2,0,L|105:160,1,72,8|0,0:1|0:0,0:0:0:0:
30,231,115079,5,2,0:0:0:0:
30,259,115166,1,0,0:0:0:0:
40,286,115254,1,0,0:0:0:0:
57,308,115341,1,0,0:0:0:0:
81,322,115428,2,0,L|128:317,1,45,2|0,0:0|0:0,0:0:0:0:
191,260,115602,2,0,L|232:277,1,45,2|0,0:0|0:0,0:0:0:0:
248,366,115777,2,0,L|290:349,1,45
344,276,115951,2,0,L|338:226,1,45,2|0,0:0|0:0,0:0:0:0:
299,136,116126,1,2,0:0:0:0:
323,109,116213,1,0,0:0:0:0:
356,94,116300,1,0,0:0:0:0:
391,91,116387,1,0,0:0:0:0:
426,98,116474,6,0,L|459:84,14,22.5,2|0|0|0|2|0|0|0|0|0|0|0|2|0|0,0:0|0:0|0:0|0:0|0:0|0:0|0:0|0:0|0:0|0:0|0:0|0:0|0:0|0:0|0:0,0:0:0:0:
429,115,117172,5,0,0:0:0:0:
432,132,117259,1,0,0:0:0:0:
435,149,117347,1,0,0:0:0:0:
438,166,117434,1,0,0:0:0:0:
441,183,117521,1,2,0:0:0:0:
444,200,117608,1,0,0:0:0:0:
447,217,117695,1,0,0:0:0:0:
450,234,117783,1,0,0:0:0:0:
454,251,117870,1,12,0:0:0:0:
279,332,118219,6,0,P|245:311|146:308,2,125.999996154785,2|0|0,0:0|0:0|0:0,0:0:0:0:
365,350,119091,1,0,0:0:0:0:
375,264,119265,6,0,L|366:200,1,62.9999980773926,2|0,0:0|0:0,0:0:0:0:
98,182,119963,2,0,P|129:182|160:180,1,62.9999980773926,2|0,0:0|0:0,0:0:0:0:
235,127,120312,2,0,P|266:126|297:128,1,62.9999980773926,0|0,0:0|0:0,0:0:0:0:
378,169,120661,6,0,P|406:151|436:140,2,62.9999980773926,0|0|2,0:0|0:0|0:0,0:0:0:0:
316,234,121184,2,0,P|306:278|259:351,1,125.999996154785
144,325,121707,2,0,P|140:291|139:262,1,62.9999980773926
51,278,122056,6,0,P|55:244|56:215,1,62.9999980773926,2|0,0:0|0:0,0:0:0:0:
229,58,122754,2,0,P|199:51|168:37,2,62.9999980773926,2|0|0,0:0|0:0|0:0,0:0:0:0:
316,46,123277,1,8,0:0:0:0:
376,111,123451,6,0,L|383:257,1,125.999996154785,8|2,0:0|0:0,0:0:0:0:
430,313,123974,2,0,P|390:331|307:321,1,125.999996154785
222,335,124498,2,0,P|177:342|155:350,1,62.9999980773926
169,248,124847,6,0,P|124:241|102:233,1,62.9999980773926,2|0,0:0|0:0,0:0:0:0:
317,96,125544,1,2,0:0:0:0:
405,92,125719,2,0,P|439:77|462:60,2,62.9999980773926,0|0|0,0:0|0:0|0:0,0:0:0:0:
363,172,126242,6,0,P|360:203|360:240,1,62.9999980773926
415,304,126591,1,2,0:0:0:0:
327,315,126765,2,0,L|175:305,1,125.999996154785
113,324,127288,2,0,P|120:275|121:254,1,62.9999980773926
64,194,127637,5,2,0:0:0:0:
125,132,127812,1,0,0:0:0:0:
377,105,128335,2,0,P|384:135|389:171,1,62.9999980773926,2|0,0:0|0:0,0:0:0:0:
316,265,128684,2,0,P|309:235|304:199,1,62.9999980773926
348,88,129033,6,0,P|387:96|490:69,1,144,12|2,0:0|0:0,0:0:0:0:
479,231,129556,1,0,0:0:0:0:
479,231,129730,2,0,L|474:159,1,72
512,327,130079,1,0,0:0:0:0:
416,360,130254,6,0,P|372:335|330:251,1,144,2|0,0:0|0:0,0:0:0:0:
217,335,130777,2,0,P|177:340|134:355,1,72
157,212,131126,2,0,P|118:198|79:175,1,72
103,13,131474,1,0,0:0:0:0:
181,134,131649,1,8,0:0:0:0:
11,99,131823,6,0,P|48:101|161:61,1,144,12|2,0:0|0:0,0:0:0:0:
279,57,132347,2,0,P|312:72|348:96,1,72
475,133,132695,2,0,P|442:148|406:172,1,72
309,298,133044,6,0,P|323:264|334:222,1,72,0|2,0:0|0:0,0:0:0:0:
208,132,133393,2,0,P|193:98|182:56,1,72
378,18,133742,2,0,P|368:52|354:85,1,72,0|2,0:0|0:0,0:0:0:0:
225,235,134091,2,0,L|63:220,1,144,0|8,0:0|0:0,0:0:0:0:
271,335,134614,6,0,P|322:309|427:313,1,161.999995056153,12|0,0:0|0:0,0:0:0:0:
480,235,135137,2,0,L|470:154,1,80.9999975280763
291,212,135486,2,0,L|301:131,1,80.9999975280763
396,69,135835,1,8,0:0:0:0:
215,174,136009,6,0,P|170:184|131:185,1,80.9999975280763,14|0,0:0|0:0,0:0:0:0:
394,168,136533,1,0,0:0:0:0:
252,282,136707,2,0,P|205:282|167:275,2,80.9999975280763,2|0|0,0:0|0:0|0:0,0:0:0:0:
409,192,137230,1,8,0:0:0:0:
273,70,137405,6,0,P|184:50|109:71,1,161.999995056153,12|0,0:0|0:0,0:0:0:0:
297,172,137928,1,8,0:0:0:0:
107,195,138102,2,0,B|98:235|98:235|109:273|109:273|96:313|106:358,1,161.999995056153,12|0,0:0|0:0,0:0:0:0:
218,328,138626,1,8,0:0:0:0:
179,151,138800,6,0,L|174:63,1,80.9999975280763,12|0,0:0|0:0,0:0:0:0:
333,233,139149,2,0,L|338:321,1,80.9999975280763,12|0,0:0|0:0,0:0:0:0:
282,95,139498,1,4,0:0:0:0:
282,95,139585,1,0,0:0:0:0:
282,95,139672,2,0,L|303:103,4,20.2499993820191,0|0|0|0|0,0:0|0:0|0:0|0:0|0:0,0:0:0:0:
179,151,140021,1,8,0:0:0:0:
385,39,140195,6,0,L|481:32,1,90,14|0,0:0|0:0,0:0:0:0:
496,196,140544,2,0,L|400:189,1,90,8|2,0:0|0:0,0:0:0:0:
259,81,140893,2,0,P|208:63|86:97,1,180,8|8,0:0|0:0,0:0:0:0:
250,203,141416,1,0,0:0:0:0:
153,284,141591,5,10,0:0:0:0:
131,160,141765,1,0,0:0:0:0:
250,203,141940,2,0,P|295:202|343:211,1,90,8|0,0:0|0:0,0:0:0:0:
458,302,142288,1,10,0:0:0:0:
417,169,142463,1,0,0:0:0:0:
304,274,142637,1,8,0:0:0:0:
345,141,142812,1,0,0:0:0:0:
385,261,142986,6,0,L|388:362,1,90,8|0,0:0|0:0,0:0:0:0:
445,198,143335,1,8,0:0:0:0:
423,92,143509,2,0,P|369:83|242:115,1,180,2|0,0:0|0:0,0:0:0:0:
151,188,144033,1,8,0:0:0:0:
89,292,144207,6,0,P|143:301|270:269,1,180
288,98,144730,1,8,0:0:0:0:
152,118,144905,1,0,0:0:0:0:
172,255,145079,1,10,0:0:0:0:
307,232,145254,2,0,P|351:234|394:248,1,90,0|8,0:0|0:0,0:0:0:0:
214,178,145602,5,0,0:0:0:0:
214,178,145690,1,0,0:0:0:0:
214,178,145777,2,8,P|157:196|30:180,1,180,10|8,0:0|0:0,0:0:0:0:
236,90,146300,5,0,0:0:0:0:
236,90,146388,1,0,0:0:0:0:
236,90,146475,2,8,P|295:84|416:126,1,180,10|8,0:0|0:0,0:0:0:0:
276,294,146998,5,0,0:0:0:0:
276,294,147086,1,0,0:0:0:0:
275,294,147173,2,8,P|186:296|103:263,1,180,10|8,0:0|0:0,0:0:0:0:
298,206,147696,5,0,0:0:0:0:
298,206,147784,1,0,0:0:0:0:
298,205,147871,2,8,P|384:184|472:200,1,180,10|8,0:0|0:0,0:0:0:0:
187,303,148393,5,0,0:0:0:0:
187,303,148480,1,0,0:0:0:0:
187,303,148567,2,0,P|181:247|141:158,2,135,10|0|0,0:0|0:0|0:0,0:0:0:0:
325,303,149265,6,0,P|331:247|371:158,2,135,10|0|0,0:0|0:0|0:0,0:0:0:0:
256,164,149963,6,0,L|256:24,2,135,10|0|0,0:0|0:0|0:0,0:0:0:0:
185,230,150661,6,0,L|79:219,1,90,10|0,0:0|0:0,0:0:0:0:
43,297,150922,1,0,0:0:0:0:
43,297,151009,2,0,L|149:308,1,90,8|0,0:0|0:0,0:0:0:0:
379,306,151358,6,0,L|469:297,1,90,12|0,0:0|0:0,0:0:0:0:
459,171,151707,1,8,0:0:0:0:
305,249,151881,1,2,0:0:0:0:
387,93,152056,2,0,P|382:156|400:280,1,180,8|8,0:0|0:0,0:0:0:0:
208,358,152579,1,0,0:0:0:0:
217,173,152754,6,0,P|221:225|219:266,1,90,10|0,0:0|0:0,0:0:0:0:
71,350,153102,2,0,P|69:305|73:260,1,90,8|0,0:0|0:0,0:0:0:0:
175,107,153451,1,10,0:0:0:0:
220,263,153626,1,0,0:0:0:0:
93,152,153800,1,8,0:0:0:0:
211,32,153974,5,0,0:0:0:0:
211,32,154062,1,0,0:0:0:0:
211,32,154149,2,0,P|270:43|317:39,2,90,8|0|8,0:0|0:0|0:0,0:0:0:0:
57,94,154672,2,0,P|46:184|65:271,1,180,2|0,0:0|0:0,0:0:0:0:
211,352,155195,2,0,P|270:341|317:345,1,90,8|0,0:0|0:0,0:0:0:0:
454,358,155544,5,10,0:0:0:0:
349,241,155719,1,0,0:0:0:0:
257,368,155893,1,8,0:0:0:0:
419,275,156067,2,0,P|446:231|464:96,1,180
252,78,156591,2,0,P|248:122|256:166,1,90,8|0,0:0|0:0,0:0:0:0:
441,122,156940,6,0,L|321:117,1,90,10|0,0:0|0:0,0:0:0:0:
200,24,157288,1,8,0:0:0:0:
169,148,157463,2,0,P|170:216|199:330,1,180,2|0,0:0|0:0,0:0:0:0:
351,326,157986,2,0,P|367:276|375:227,1,90,8|0,0:0|0:0,0:0:0:0:
256,128,158335,5,10,0:0:0:0:
126,226,158509,2,0,P|190:217|297:263,1,180,0|0,0:0|0:0,0:0:0:0:
437,358,159033,1,10,0:0:0:0:
409,186,159207,1,0,0:0:0:0:
507,292,159381,1,8,0:0:0:0:
338,251,159556,5,0,0:0:0:0:
338,251,159643,1,0,0:0:0:0:
338,251,159730,2,0,L|330:156,1,90,10|0,0:0|0:0,0:0:0:0:
183,36,160079,2,0,L|174:131,1,90,8|0,0:0|0:0,0:0:0:0:
254,329,160428,2,0,L|245:233,1,90,8|0,0:0|0:0,0:0:0:0:
112,246,160777,2,0,L|120:341,1,90,8|0,0:0|0:0,0:0:0:0:
335,330,161126,6,0,L|391:333,2,53.9999983520508,0|0|2,0:0|0:0|0:0,0:0:0:0:
221,203,161649,1,0,0:0:0:0:
361,240,161823,2,0,L|417:243,1,53.9999983520508,0|2,0:0|0:0,0:0:0:0:
194,294,162172,2,0,L|138:297,1,53.9999983520508,0|2,0:0|0:0,0:0:0:0:
132,106,162521,6,0,P|174:80|301:101,1,180,6|8,0:0|0:0,0:0:0:0:
308,267,163044,1,2,0:0:0:0:
196,325,163219,2,0,L|192:235,1,90
387,347,163567,2,0,L|390:257,1,90,8|0,0:0|0:0,0:0:0:0:
242,168,163916,5,2,0:0:0:0:
273,341,164091,1,0,0:0:0:0:
379,176,164265,1,8,0:0:0:0:
205,267,164440,2,0,P|149:275|17:239,1,180,2|0,0:0|0:0,0:0:0:0:
76,95,164963,2,0,P|84:143|84:191,1,90,8|0,0:0|0:0,0:0:0:0:
137,347,165312,6,0,P|194:342|227:344,2,90,2|0|8,0:0|0:0|0:0,0:0:0:0:
294,224,165835,2,0,P|352:221|446:300,1,180,2|0,0:0|0:0,0:0:0:0:
277,295,166358,1,8,0:0:0:0:
248,129,166533,1,0,0:0:0:0:
414,149,166707,6,0,P|468:168|505:199,1,90,2|0,0:0|0:0,0:0:0:0:
311,220,167056,1,8,0:0:0:0:
188,214,167230,2,0,B|183:168|183:168|153:136|153:136|142:32,1,180,2|0,0:0|0:0,0:0:0:0:
106,219,167754,2,0,L|95:315,1,90,8|0,0:0|0:0,0:0:0:0:
294,344,168102,5,2,0:0:0:0:
444,284,168277,1,0,0:0:0:0:
284,248,168451,1,8,0:0:0:0:
152,346,168626,2,0,P|106:340|17:215,1,180,2|0,0:0|0:0,0:0:0:0:
35,78,169149,1,8,0:0:0:0:
197,49,169323,6,0,B|210:92|210:92|204:144,1,90
156,316,169672,2,0,B|143:273|143:273|149:221,1,90,0|8,0:0|0:0,0:0:0:0:
287,170,170021,2,0,B|354:181|354:181|396:165|396:165|469:178,1,180,2|0,0:0|0:0,0:0:0:0:
445,155,170457,1,0,0:0:0:0:
437,130,170544,1,8,0:0:0:0:
433,104,170631,1,0,0:0:0:0:
430,77,170719,1,0,0:0:0:0:
430,51,170806,1,0,0:0:0:0:
433,25,170893,1,2,0:0:0:0:
259,13,171067,6,0,P|256:60|246:108,1,90,0|8,0:0|0:0,0:0:0:0:
77,201,171416,2,0,P|127:186|268:193,1,180,2|0,0:0|0:0,0:0:0:0:
349,350,171940,1,8,0:0:0:0:
208,259,172114,1,0,0:0:0:0:
376,259,172288,6,0,P|425:265|467:278,1,90,2|0,0:0|0:0,0:0:0:0:
241,349,172637,1,8,0:0:0:0:
114,274,172812,2,0,B|92:229|92:229|105:92,1,180,2|0,0:0|0:0,0:0:0:0:
250,22,173335,2,0,P|246:75|236:114,1,90,8|0,0:0|0:0,0:0:0:0:
50,213,173684,6,0,P|39:169|37:124,1,90,2|0,0:0|0:0,0:0:0:0:
175,27,174033,1,8,0:0:0:0:
331,88,174207,2,0,L|510:104,1,180,2|0,0:0|0:0,0:0:0:0:
377,183,174730,1,8,0:0:0:0:
441,348,174905,6,0,B|452:308|452:308|443:277|443:277|462:218|452:165,1,180
286,164,175428,1,8,0:0:0:0:
233,278,175602,2,0,P|280:290|325:282,1,90,2|0,0:0|0:0,0:0:0:0:
394,120,175951,1,0,0:0:0:0:
257,37,176126,2,0,P|216:91|205:115,1,90,8|0,0:0|0:0,0:0:0:0:
105,255,176474,6,0,L|116:150,1,90,2|0,0:0|0:0,0:0:0:0:
154,340,176823,1,8,0:0:0:0:
15,280,176998,2,0,L|1:91,1,180,2|0,0:0|0:0,0:0:0:0:
181,89,177521,1,8,0:0:0:0:
179,270,177695,1,0,0:0:0:0:
77,152,177870,6,0,P|123:163|166:165,1,90,2|0,0:0|0:0,0:0:0:0:
324,77,178219,2,0,P|313:123|311:166,1,90,10|0,0:0|0:0,0:0:0:0:
368,335,178567,2,0,P|379:289|381:246,1,90,2|0,0:0|0:0,0:0:0:0:
239,132,178916,1,10,0:0:0:0:
481,226,179265,6,0,P|425:235|361:228,1,90,2|0,0:0|0:0,0:0:0:0:
325,63,179614,1,8,0:0:0:0:
464,137,179788,2,0,P|403:157|280:130,1,180,2|0,0:0|0:0,0:0:0:0:
256,246,180312,2,0,L|256:348,1,90,8|0,0:0|0:0,0:0:0:0:
31,226,180661,6,0,P|87:235|151:228,1,90,2|0,0:0|0:0,0:0:0:0:
187,63,181010,1,8,0:0:0:0:
48,137,181184,2,0,P|109:157|232:130,1,180,2|0,0:0|0:0,0:0:0:0:
325,63,181707,1,8,0:0:0:0:
256,246,181881,1,0,0:0:0:0:
142,196,182056,6,0,L|98:188,3,45,0|0|0|0,0:0|0:0|0:0|0:0,0:0:0:0:
95,282,182405,2,0,L|51:291,3,45,0|0|0|0,0:0|0:0|0:0|0:0,0:0:0:0:
177,332,182754,1,0,0:0:0:0:
202,340,182841,1,0,0:0:0:0:
228,341,182928,1,0,0:0:0:0:
254,335,183015,1,0,0:0:0:0:
278,323,183102,1,0,0:0:0:0:
300,307,183190,1,0,0:0:0:0:
315,285,183277,1,0,0:0:0:0:
324,259,183364,1,0,0:0:0:0:
326,232,183451,6,0,B|252:239|196:124|196:124|181:171|143:187|111:186|105:229|123:248,1,337.5,2|0,0:0|0:0,0:0:0:0:
144,273,184847,6,0,B|150:319|150:319|142:366,1,90,6|0,0:0|0:0,0:0:0:0:
38,193,185195,2,0,B|32:147|32:147|40:100,1,90,8|0,0:0|0:0,0:0:0:0:
243,48,185544,2,0,B|225:90|225:90|194:127,1,90,2|0,0:0|0:0,0:0:0:0:
115,308,185893,2,0,B|72:300|72:300|26:306,1,90,8|0,0:0|0:0,0:0:0:0:
130,155,186242,5,2,0:0:0:0:
228,309,186416,1,0,0:0:0:0:
83,230,186591,1,8,0:0:0:0:
136,75,186765,2,0,P|196:58|317:87,1,180,2|0,0:0|0:0,0:0:0:0:
490,185,187288,2,0,L|401:192,1,90,10|0,0:0|0:0,0:0:0:0:
207,178,187637,6,0,P|232:244|235:359,1,180,2|8,0:0|0:0,0:0:0:0:
123,231,188161,1,0,0:0:0:0:
308,251,188335,2,0,L|397:258,1,90,2|0,0:0|0:0,0:0:0:0:
189,100,188684,2,0,L|278:93,1,90,8|0,0:0|0:0,0:0:0:0:
241,299,189033,5,2,0:0:0:0:
207,178,189207,2,0,P|251:170|307:170,1,90,0|8,0:0|0:0,0:0:0:0:
445,286,189556,2,0,B|419:262|419:262|396:186|414:104,1,180,2|0,0:0|0:0,0:0:0:0:
329,253,190079,2,0,P|323:309|323:344,1,90,10|0,0:0|0:0,0:0:0:0:
191,259,190428,6,0,L|3:246,1,180,2|8,0:0|0:0,0:0:0:0:
122,340,190951,1,0,0:0:0:0:
259,217,191126,2,0,P|275:168|273:30,1,180,2|8,0:0|0:0,0:0:0:0:
176,171,191649,1,0,0:0:0:0:
357,142,191823,6,0,B|372:193|372:193|361:266|361:266|380:328,1,180,2|8,0:0|0:0,0:0:0:0:
250,353,192347,1,0,0:0:0:0:
150,266,192521,2,0,B|135:224|135:224|137:176,1,90,2|0,0:0|0:0,0:0:0:0:
256,55,192870,2,0,B|258:100|258:100|243:142,1,90,8|0,0:0|0:0,0:0:0:0:
62,114,193219,5,2,0:0:0:0:
168,38,193393,1,0,0:0:0:0:
44,102,193567,1,8,0:0:0:0:
43,242,193742,2,0,P|66:313|168:348,1,180,2|0,0:0|0:0,0:0:0:0:
299,256,194265,2,0,L|303:148,1,90,10|0,0:0|0:0,0:0:0:0:
400,35,194614,5,2,0:0:0:0:
374,189,194788,1,0,0:0:0:0:
214,188,194963,1,8,0:0:0:0:
348,105,195137,2,0,P|403:115|501:189,1,180,2|0,0:0|0:0,0:0:0:0:
355,330,195661,1,10,0:0:0:0:
328,335,195748,1,0,0:0:0:0:
301,340,195835,1,0,0:0:0:0:
274,346,195922,1,0,0:0:0:0:
247,352,196009,6,0,P|242:306|243:256,1,90,6|0,0:0|0:0,0:0:0:0:
284,73,196358,1,8,0:0:0:0:
374,189,196533,1,0,0:0:0:0:
199,126,196707,2,0,L|108:114,1,90,2|0,0:0|0:0,0:0:0:0:
289,242,197056,2,0,L|200:266,1,90,8|0,0:0|0:0,0:0:0:0:
339,125,197405,5,2,0:0:0:0:
421,255,197579,2,0,P|423:305|417:352,1,90,0|8,0:0|0:0,0:0:0:0:
265,293,197928,2,0,B|179:317|179:317|92:279,1,180,2|0,0:0|0:0,0:0:0:0:
29,146,198451,2,0,L|25:50,1,90,10|0,0:0|0:0,0:0:0:0:
190,120,198800,6,0,L|186:216,1,90,2|0,0:0|0:0,0:0:0:0:
94,352,199149,1,8,0:0:0:0:
102,195,199323,1,0,0:0:0:0:
257,229,199498,2,0,P|313:231|355:226,1,90,2|0,0:0|0:0,0:0:0:0:
481,117,199847,2,0,P|425:115|383:120,1,90,8|0,0:0|0:0,0:0:0:0:
331,303,200195,5,2,0:0:0:0:
410,186,200370,1,0,0:0:0:0:
257,229,200544,1,8,0:0:0:0:
411,298,200719,2,0,P|426:243|432:98,1,180,2|0,0:0|0:0,0:0:0:0:
224,29,201242,2,0,P|224:88|227:128,1,90,10|0,0:0|0:0,0:0:0:0:
318,260,201591,6,0,P|264:241|139:245,1,180,2|8,0:0|0:0,0:0:0:0:
297,362,202114,1,0,0:0:0:0:
313,179,202288,2,0,P|303:121|302:88,2,90,2|0|8,0:0|0:0|0:0,0:0:0:0:
425,294,202812,5,0,0:0:0:0:
425,294,202899,1,0,0:0:0:0:
425,294,202986,2,0,P|470:249|459:117,1,180,2|8,0:0|0:0,0:0:0:0:
328,246,203509,1,0,0:0:0:0:
213,194,203684,2,0,B|129:227|120:160|38:194,1,180,2|8,0:0|0:0,0:0:0:0:
85,293,204207,1,0,0:0:0:0:
225,271,204381,6,0,L|228:318,3,45,2|0|0|0,0:0|0:0|0:0|0:0,0:0:0:0:
330,218,204730,2,0,L|314:262,3,45,8|0|0|0,0:0|0:0|0:0|0:0,0:0:0:0:
425,265,205079,1,2,0:0:0:0:
447,250,205166,1,0,0:0:0:0:
464,229,205254,1,0,0:0:0:0:
474,204,205341,1,0,0:0:0:0:
477,177,205428,2,0,L|474:129,3,45,8|0|0|0,0:0|0:0|0:0|0:0,0:0:0:0:
399,107,205777,5,2,0:0:0:0:
373,99,205864,1,0,0:0:0:0:
346,100,205951,1,0,0:0:0:0:
319,104,206038,1,0,0:0:0:0:
295,117,206126,1,8,0:0:0:0:
272,131,206213,1,0,0:0:0:0:
245,137,206300,1,0,0:0:0:0:
218,135,206387,1,0,0:0:0:0:
192,125,206474,6,0,L|165:82,1,45,2|0,0:0|0:0,0:0:0:0:
51,132,206649,2,0,L|101:130,1,45,0|0,0:0|0:0,0:0:0:0:
135,248,206823,2,0,L|156:208,1,45,8|0,0:0|0:0,0:0:0:0:
280,226,206998,2,0,L|301:265,1,45,0|0,0:0|0:0,0:0:0:0:
354,361,207172,5,0,1:0:0:0:
256,192,207259,12,0,209963,0:0:0:0:
130,149,218161,5,0,0:0:0:0:
210,111,218335,2,0,L|276:106,2,62.9999980773926,2|0|0,0:0|0:0|0:0,0:0:0:0:
203,200,218858,1,0,0:0:0:0:
263,267,219033,2,0,L|267:344,1,62.9999980773926,2|0,0:0|0:0,0:0:0:0:
356,261,219381,2,0,L|352:338,1,62.9999980773926
463,349,219730,1,2,0:0:0:0:
501,270,219905,2,0,L|497:191,1,62.9999980773926
416,170,220254,2,0,P|403:130|408:29,1,125.999996154785,2|0,0:0|0:0,0:0:0:0:
115,39,220951,5,0,0:0:0:0:
130,126,221126,2,0,L|66:123,2,62.9999980773926,2|0|0,0:0|0:0|0:0,0:0:0:0:
176,200,221649,2,0,P|207:190|241:186,1,62.9999980773926,0|2,0:0|0:0,0:0:0:0:
302,249,221998,2,0,L|443:260,1,125.999996154785
400,175,222521,2,0,P|363:167|334:164,2,62.9999980773926,2|0|0,0:0|0:0|0:0,0:0:0:0:
471,123,223044,1,0,0:0:0:0:
277,80,223393,2,0,P|228:94|151:91,1,125.999996154785,2|0,0:0|0:0,0:0:0:0:
69,145,223916,6,0,L|75:218,1,62.9999980773926,2|0,0:0|0:0,0:0:0:0:
71,298,224265,1,0,0:0:0:0:
152,338,224440,2,0,P|194:343|290:322,1,125.999996154785,2|0,0:0|0:0,0:0:0:0:
351,282,224963,2,0,L|355:344,1,62.9999980773926
439,280,225312,1,2,0:0:0:0:
396,203,225486,2,0,L|391:136,1,62.9999980773926
419,56,225835,2,0,P|364:31|290:35,2,125.999996154785,2|0|0,0:0|0:0|0:0,0:0:0:0:
475,124,226707,6,0,L|479:186,1,62.9999980773926,2|0,0:0|0:0,0:0:0:0:
412,238,227056,1,0,0:0:0:0:
334,195,227230,2,0,P|297:187|202:195,1,125.999996154785,2|0,0:0|0:0,0:0:0:0:
72,305,227928,2,0,L|64:237,1,62.9999980773926,2|0,0:0|0:0,0:0:0:0:
135,79,228451,2,0,L|133:215,1,125.999996154785,2|0,0:0|0:0,0:0:0:0:
176,288,228974,2,0,P|207:311|305:308,1,125.999996154785
456,213,229498,6,0,L|458:143,2,62.9999980773926,2|0|0,0:0|0:0|0:0,0:0:0:0:
492,293,230021,2,0,P|452:289|370:317,1,125.999996154785
299,367,230544,2,0,L|230:360,1,62.9999980773926
337,236,230893,2,0,P|357:188|372:100,1,125.999996154785,8|0,0:0|0:0,0:0:0:0:
297,65,231416,2,0,P|263:69|231:67,1,62.9999980773926,2|0,0:0|0:0,0:0:0:0:
159,19,231765,2,0,L|33:34,1,125.999996154785
154,173,232288,6,0,P|160:205|162:239,2,62.9999980773926,2|0|0,0:0|0:0|0:0,0:0:0:0:
77,218,232812,1,0,0:0:0:0:
105,301,232986,2,0,P|147:321|171:324,1,62.9999980773926,2|0,0:0|0:0,0:0:0:0:
237,372,233335,2,0,P|277:348|292:330,1,62.9999980773926
384,175,233684,2,0,L|392:313,1,125.999996154785,8|0,0:0|0:0,0:0:0:0:
475,333,234207,2,0,P|471:299|472:268,1,62.9999980773926,2|0,0:0|0:0,0:0:0:0:
504,188,234556,2,0,L|496:50,1,125.999996154785,2|0,0:0|0:0,0:0:0:0:
302,35,235079,6,0,P|260:35|232:39,2,62.9999980773926,2|0|0,0:0|0:0|0:0,0:0:0:0:
357,136,235602,2,0,P|335:169|248:195,1,125.999996154785,2|0,0:0|0:0,0:0:0:0:
150,129,236126,2,0,L|154:194,1,62.9999980773926
365,311,236474,2,0,L|433:315,2,62.9999980773926,8|0|0,0:0|0:0|0:0,0:0:0:0:
238,345,236998,2,0,P|188:355|99:338,1,125.999996154785,2|0,0:0|0:0,0:0:0:0:
41,242,237521,2,0,L|37:176,1,62.9999980773926
206,65,237870,6,0,P|207:111|200:164,1,80.9999975280763,12|0,0:0|0:0,0:0:0:0:
105,280,238219,2,0,P|148:256|188:242,1,80.9999975280763,8|0,0:0|0:0,0:0:0:0:
349,172,238567,2,0,P|389:195|420:223,1,80.9999975280763,8|0,0:0|0:0,0:0:0:0:
331,369,238916,2,0,P|322:319|321:277,1,80.9999975280763,8|0,0:0|0:0,0:0:0:0:
310,77,239265,5,8,0:0:0:0:
340,65,239352,1,0,0:0:0:0:
372,59,239440,1,0,0:0:0:0:
404,56,239527,1,0,0:0:0:0:
436,59,239614,2,0,L|441:151,1,80.9999975280763,8|0,0:0|0:0,0:0:0:0:
280,269,239963,2,0,L|275:177,1,80.9999975280763,8|0,0:0|0:0,0:0:0:0:
110,61,240312,2,0,L|105:153,1,80.9999975280763,8|0,0:0|0:0,0:0:0:0:
278,353,240661,6,0,P|329:333|357:304,1,80.9999975280763,2|0,0:0|0:0,0:0:0:0:
371,154,241009,2,0,L|373:83,2,53.9999983520508,2|0|0,0:0|0:0|0:0,0:0:0:0:
256,119,241358,2,0,L|256:62,2,53.9999983520508,2|0|0,0:0|0:0|0:0,0:0:0:0:
141,154,241707,2,0,L|139:83,2,53.9999983520508,2|0|0,0:0|0:0|0:0,0:0:0:0:
256,212,242056,5,2,0:0:0:0:
256,192,242172,12,2,243451,0:0:0:0:
194,205,243800,6,0,L|208:343,2,125.999996154785,0|0|0,0:0|0:0|0:0,0:0:0:0:
341,107,244847,2,0,P|340:149|345:177,2,62.9999980773926,2|0|0,0:0|0:0|0:0,0:0:0:0:
425,135,245370,2,0,P|431:198|426:262,1,125.999996154785,2|2,0:0|0:0,0:0:0:0:
164,286,246242,6,0,P|131:284|98:286,1,62.9999980773926,2|0,0:0|0:0,0:0:0:0:
17,311,246591,1,0,0:0:0:0:
3,224,246765,2,0,L|8:89,1,125.999996154785,0|2,0:0|0:0,0:0:0:0:
218,21,247637,1,2,0:0:0:0:
256,192,248335,1,2,0:0:0:0:
295,363,249033,6,0,P|337:352|365:349,2,62.9999980773926,2|0|0,0:0|0:0|0:0,0:0:0:0:
208,347,249556,2,0,L|191:213,1,125.999996154785,2|2,0:0|0:0,0:0:0:0:
60,38,250428,2,0,P|63:72|64:113,1,62.9999980773926,2|0,0:0|0:0,0:0:0:0:
26,181,250777,2,0,P|23:215|22:256,1,62.9999980773926
162,351,251300,1,2,0:0:0:0:
334,208,251823,6,0,P|337:172|336:138,2,62.9999980773926,2|0|0,0:0|0:0|0:0,0:0:0:0:
385,280,252347,2,0,P|417:268|508:273,1,125.999996154785,2|2,0:0|0:0,0:0:0:0:
256,366,253219,1,2,0:0:0:0:
52,191,253916,2,0,L|39:60,1,125.999996154785,2|0,0:0|0:0,0:0:0:0:
212,40,254614,5,2,0:0:0:0:
288,85,254788,2,0,P|328:82|371:76,1,62.9999980773926
437,56,255137,2,0,L|432:186,1,125.999996154785,2|2,0:0|0:0,0:0:0:0:
368,243,255661,2,0,P|373:290|377:318,1,62.9999980773926
307,359,256009,1,2,0:0:0:0:
224,327,256184,2,0,P|192:331|158:342,1,62.9999980773926
74,350,256533,2,0,P|54:317|39:220,1,125.999996154785,2|2,0:0|0:0,0:0:0:0:
225,72,257405,6,0,P|275:71|297:68,1,62.9999980773926,2|0,0:0|0:0,0:0:0:0:
366,31,257754,1,0,0:0:0:0:
425,95,257928,2,0,L|436:226,1,125.999996154785,2|0,0:0|0:0,0:0:0:0:
376,286,258451,1,0,0:0:0:0:
288,294,258626,1,0,0:0:0:0:
200,302,258800,1,2,0:0:0:0:
63,178,259323,1,0,0:0:0:0:
63,178,259411,1,0,0:0:0:0:
63,178,259498,2,0,P|123:188|187:175,1,125.999996154785,2|0,0:0|0:0,0:0:0:0:
234,99,260021,5,0,0:0:0:0:
234,99,260195,1,2,0:0:0:0:
319,73,260370,2,0,L|394:77,2,62.9999980773926,0|0|2,0:0|0:0|0:0,0:0:0:0:
312,324,261591,2,0,L|308:256,1,62.9999980773926,2|0,0:0|0:0,0:0:0:0:
223,239,261940,1,0,0:0:0:0:
142,277,262114,2,0,P|88:279|21:249,1,125.999996154785,2|0,0:0|0:0,0:0:0:0:
112,41,262986,6,0,L|115:113,2,62.9999980773926,0|0|0,0:0|0:0|0:0,0:0:0:0:
197,64,263509,1,2,0:0:0:0:
371,35,263858,2,0,L|383:166,1,125.999996154785,2|2,0:0|0:0,0:0:0:0:
458,238,264381,6,0,L|503:249,3,45,0|0|2|0,0:0|0:0|0:0|0:0,0:0:0:0:
454,328,264730,2,0,L|485:362,3,45,0|0|2|0,0:0|0:0|0:0|0:0,0:0:0:0:
365,332,265079,1,0,0:0:0:0:
330,342,265166,1,0,0:0:0:0:
293,345,265254,1,2,0:0:0:0:
257,337,265341,1,0,0:0:0:0:
230,312,265428,1,0,0:0:0:0:
219,277,265515,1,0,0:0:0:0:
188,257,265602,1,0,0:0:0:0:
153,245,265690,1,0,0:0:0:0:
118,253,265777,6,2,P|107:278|103:320,1,62.9999980773926,2|0,0:0|0:0,0:0:0:0:
357,196,266126,6,0,P|314:182|272:184,1,80.9999975280763,2|0,0:0|0:0,0:0:0:0:
123,50,266474,6,0,P|172:57|222:53,1,99.0000030212403,6|0,0:0|0:0,0:0:0:0:
427,24,266823,2,0,P|378:17|328:21,1,99.0000030212403,8|0,0:0|0:0,0:0:0:0:
318,222,267172,5,2,0:0:0:0:
355,91,267347,1,0,0:0:0:0:
234,165,267521,1,8,0:0:0:0:
279,297,267695,2,0,P|331:307|390:302,1,99.0000030212403,2|0,0:0|0:0,0:0:0:0:
378,168,268044,1,0,0:0:0:0:
233,87,268219,2,0,P|181:77|122:82,1,99.0000030212403,10|0,0:0|0:0,0:0:0:0:
16,254,268567,6,0,L|216:242,1,198.000006042481,2|8,0:0|0:0,0:0:0:0:
331,317,269091,1,0,0:0:0:0:
440,235,269265,2,0,P|450:184|450:135,1,99.0000030212403,2|0,0:0|0:0,0:0:0:0:
320,36,269614,2,0,P|320:85|330:133,1,99.0000030212403,8|0,0:0|0:0,0:0:0:0:
405,302,269963,5,2,0:0:0:0:
257,304,270137,2,0,L|154:297,1,99.0000030212403,0|8,0:0|0:0,0:0:0:0:
40,169,270486,2,0,B|107:190|107:190|162:176|162:176|236:200,1,198.000006042481,2|0,0:0|0:0,0:0:0:0:
405,302,271009,2,0,L|409:201,1,99.0000030212403,10|0,0:0|0:0,0:0:0:0:
462,33,271358,6,0,P|448:89|318:121,1,198.000006042481,2|8,0:0|0:0,0:0:0:0:
155,47,271881,1,0,0:0:0:0:
241,210,272056,2,0,L|236:10,1,198.000006042481,2|8,0:0|0:0,0:0:0:0:
56,73,272579,1,0,0:0:0:0:
64,253,272754,6,0,B|105:282|105:282|169:246|165:155,1,198.000006042481,2|8,0:0|0:0,0:0:0:0:
13,164,273277,1,0,0:0:0:0:
51,348,273451,2,0,P|102:359|156:350,1,99.0000030212403,2|0,0:0|0:0,0:0:0:0:
273,274,273800,2,0,P|324:263|378:272,1,99.0000030212403,8|0,0:0|0:0,0:0:0:0:
482,362,274149,5,2,0:0:0:0:
326,340,274323,1,0,0:0:0:0:
348,184,274498,1,8,0:0:0:0:
504,206,274672,2,0,P|461:248|316:246,1,198.000006042481,2|0,0:0|0:0,0:0:0:0:
221,107,275195,2,0,L|228:206,1,99.0000030212403,8|0,0:0|0:0,0:0:0:0:
403,361,275544,5,2,0:0:0:0:
442,172,275719,2,0,L|435:73,1,99.0000030212403,0|8,0:0|0:0,0:0:0:0:
260,37,276067,2,0,P|213:63|69:52,1,198.000006042481,2|0,0:0|0:0,0:0:0:0:
268,142,276591,1,10,0:0:0:0:
282,173,276678,1,0,0:0:0:0:
290,206,276765,1,0,0:0:0:0:
291,240,276852,1,0,0:0:0:0:
288,274,276940,6,0,B|268:320|268:320|221:339,1,99.0000030212403,2|0,0:0|0:0,0:0:0:0:
57,218,277288,1,8,0:0:0:0:
209,257,277463,1,0,0:0:0:0:
362,226,277637,2,0,P|418:220|464:227,1,99.0000030212403,2|0,0:0|0:0,0:0:0:0:
428,92,277986,2,0,P|460:52|479:7,1,99.0000030212403,8|0,0:0|0:0,0:0:0:0:
281,25,278335,5,2,0:0:0:0:
192,147,278509,1,0,0:0:0:0:
355,211,278684,2,0,L|252:224,1,99.0000030212403,10|0,0:0|0:0,0:0:0:0:
112,62,279033,2,0,L|215:75,1,99.0000030212403,2|0,0:0|0:0,0:0:0:0:
439,109,279381,2,0,L|336:122,1,99.0000030212403,10|0,0:0|0:0,0:0:0:0:
121,166,279730,5,2,0:0:0:0:
241,269,279905,2,0,P|252:318|245:394,2,99.0000030212403,0|8|0,0:0|0:0|0:0,0:0:0:0:
301,102,280428,2,0,L|306:201,1,99.0000030212403,2|0,0:0|0:0,0:0:0:0:
457,149,280777,2,0,L|452:38,1,99.0000030212403,8|0,0:0|0:0,0:0:0:0:
306,16,281126,5,2,0:0:0:0:
186,106,281300,2,0,P|133:117|87:115,1,99.0000030212403,0|8,0:0|0:0,0:0:0:0:
238,211,281649,2,0,B|334:233|334:233|431:211,1,198.000006042481,2|0,0:0|0:0,0:0:0:0:
506,327,282172,2,0,L|406:349,1,99.0000030212403,10|0,0:0|0:0,0:0:0:0:
190,287,282521,6,0,P|147:202|201:125,1,198.000006042481,2|8,0:0|0:0,0:0:0:0:
370,78,283044,1,0,0:0:0:0:
310,204,283219,2,0,L|317:306,2,99.0000030212403,2|0|8,0:0|0:0|0:0,0:0:0:0:
271,47,283742,5,0,0:0:0:0:
271,47,283829,1,0,0:0:0:0:
271,47,283916,2,0,P|210:42|101:127,1,198.000006042481,2|8,0:0|0:0,0:0:0:0:
256,192,284440,1,0,0:0:0:0:
407,264,284614,2,0,P|337:331|241:337,1,198.000006042481,2|8,0:0|0:0,0:0:0:0:
256,192,285137,1,0,0:0:0:0:
432,136,285312,6,0,B|443:195|443:195|406:264|406:264|419:331,1,198.000006042481,2|8,0:0|0:0,0:0:0:0:
217,261,285835,1,0,0:0:0:0:
121,148,286009,2,0,L|117:50,1,99.0000030212403,2|0,0:0|0:0,0:0:0:0:
290,19,286358,2,0,L|294:117,1,99.0000030212403,8|0,0:0|0:0,0:0:0:0:
290,284,286707,6,0,P|211:277|86:308,1,198.000006042481,2|8,0:0|0:0,0:0:0:0:
214,188,287230,1,0,0:0:0:0:
351,212,287405,2,0,P|388:261|408:303,1,99.0000030212403,2|0,0:0|0:0,0:0:0:0:
189,330,287754,2,0,P|152:281|132:239,1,99.0000030212403,10|0,0:0|0:0,0:0:0:0:
190,87,288102,6,0,P|168:146|39:167,1,198.000006042481,2|8,0:0|0:0,0:0:0:0:
127,17,288626,1,0,0:0:0:0:
265,27,288800,2,0,L|281:128,1,99.0000030212403,2|0,0:0|0:0,0:0:0:0:
228,308,289149,2,0,L|212:207,1,99.0000030212403,8|0,0:0|0:0,0:0:0:0:
386,162,289498,5,2,0:0:0:0:
406,340,289672,2,0,P|377:300|357:247,1,99.0000030212403,0|8,0:0|0:0,0:0:0:0:
202,320,290021,2,0,P|231:280|251:227,1,99.0000030212403,2|0,0:0|0:0,0:0:0:0:
272,66,290370,2,0,P|301:105|319:151,1,99.0000030212403,0|10,0:0|0:0,0:0:0:0:
186,254,290719,1,0,0:0:0:0:
50,188,290893,6,0,B|110:200|110:200|180:174|180:174|240:186,1,198.000006042481,2|8,0:0|0:0,0:0:0:0:
423,268,291416,1,0,0:0:0:0:
319,362,291591,2,0,P|226:340|185:254,1,198.000006042481,2|8,0:0|0:0,0:0:0:0:
256,121,292114,1,0,0:0:0:0:
371,51,292288,6,0,P|397:101|343:222,1,198.000006042481,2|8,0:0|0:0,0:0:0:0:
256,121,292812,1,0,0:0:0:0:
140,51,292986,2,0,P|114:101|168:222,1,198.000006042481,2|8,0:0|0:0,0:0:0:0:
256,341,293509,1,0,0:0:0:0:
398,293,293684,5,2,0:0:0:0:
398,293,294033,2,0,L|410:189,1,99.0000030212403,8|0,0:0|0:0,0:0:0:0:
271,51,294381,2,0,L|160:42,1,99.0000030212403,2|0,0:0|0:0,0:0:0:0:
28,180,294730,2,0,L|139:171,1,99.0000030212403,8|0,0:0|0:0,0:0:0:0:
229,341,295079,5,2,0:0:0:0:
229,341,295428,2,0,L|336:348,1,99.0000030212403,8|0,0:0|0:0,0:0:0:0:
364,152,295777,2,0,P|354:203|354:255,1,99.0000030212403,2|0,0:0|0:0,0:0:0:0:
471,121,296126,2,0,P|481:70|481:18,1,99.0000030212403,8|0,0:0|0:0,0:0:0:0:
326,44,296474,6,0,B|254:83|177:57|177:57|197:118,1,198.000006042481,2|8,0:0|0:0,0:0:0:0:
285,279,296998,1,0,0:0:0:0:
429,184,297172,2,0,P|377:177|318:182,1,99.0000030212403,2|0,0:0|0:0,0:0:0:0:
168,297,297521,1,8,0:0:0:0:
57,191,297695,1,0,0:0:0:0:
217,230,297870,6,0,P|265:266|411:278,1,198.000006042481,2|8,0:0|0:0,0:0:0:0:
491,139,298393,1,0,0:0:0:0:
392,33,298567,2,0,L|292:49,1,99.0000030212403,2|0,0:0|0:0,0:0:0:0:
120,128,298916,2,0,L|217:143,1,99.0000030212403,8|0,0:0|0:0,0:0:0:0:
424,203,299265,6,0,P|360:189|236:246,1,198.000006042481,2|8,0:0|0:0,0:0:0:0:
97,354,299788,1,0,0:0:0:0:
31,231,299963,2,0,L|26:133,1,99.0000030212403,2|0,0:0|0:0,0:0:0:0:
148,30,300312,2,0,L|143:128,1,99.0000030212403,8|0,0:0|0:0,0:0:0:0:
230,293,300661,5,2,0:0:0:0:
220,137,300835,1,0,0:0:0:0:
84,214,301009,2,0,P|134:221|182:220,1,99.0000030212403,10|0,0:0|0:0,0:0:0:0:
324,134,301358,2,0,P|292:173|269:215,1,99.0000030212403,2|0,0:0|0:0,0:0:0:0:
274,381,301707,2,0,P|255:335|230:293,1,99.0000030212403,10|0,0:0|0:0,0:0:0:0:
31,161,302056,6,0,P|128:173|220:137,1,198.000006042481,2|8,0:0|0:0,0:0:0:0:
340,20,302579,1,0,0:0:0:0:
446,76,302754,2,0,P|451:127|452:180,1,99.0000030212403,2|0,0:0|0:0,0:0:0:0:
327,297,303102,2,0,P|321:245|321:193,1,99.0000030212403,8|0,0:0|0:0,0:0:0:0:
451,315,303451,6,0,P|353:304|262:340,1,198.000006042481,2|8,0:0|0:0,0:0:0:0:
88,344,303974,1,0,0:0:0:0:
153,184,304149,2,0,P|162:233|160:286,1,99.0000030212403,2|0,0:0|0:0,0:0:0:0:
43,162,304498,2,0,P|34:113|36:60,1,99.0000030212403,8|0,0:0|0:0,0:0:0:0:
238,119,304847,6,0,L|438:126,1,198.000006042481,2|8,0:0|0:0,0:0:0:0:
484,258,305370,1,0,0:0:0:0:
354,322,305544,2,0,P|343:273|343:220,2,99.0000030212403,2|0|8,0:0|0:0|0:0,0:0:0:0:
479,350,306067,5,0,0:0:0:0:
479,350,306155,1,0,0:0:0:0:
479,350,306242,2,0,P|401:335|284:360,1,198.000006042481,2|8,0:0|0:0,0:0:0:0:
409,208,306765,1,0,0:0:0:0:
318,78,306940,2,0,B|318:146|318:146|330:186|330:186|318:222|318:222|318:278,1,198.000006042481,2|8,0:0|0:0,0:0:0:0:
484,258,307463,1,0,0:0:0:0:
404,103,307637,6,0,L|408:53,3,49.5000015106202,2|0|0|0,0:0|0:0|0:0|0:0,0:0:0:0:
292,50,307986,2,0,L|288:0,3,49.5000015106202,8|0|0|0,0:0|0:0|0:0|0:0,0:0:0:0:
222,122,308335,2,0,L|218:183,1,49.5000015106202,2|0,0:0|0:0,0:0:0:0:
130,193,308509,2,0,L|134:254,1,49.5000015106202
107,343,308684,2,0,L|166:336,1,49.5000015106202,8|0,0:0|0:0,0:0:0:0:
245,281,308858,2,0,L|304:288,1,49.5000015106202
386,338,309033,5,2,0:0:0:0:
419,329,309120,1,0,0:0:0:0:
446,307,309207,1,0,0:0:0:0:
466,279,309294,1,0,0:0:0:0:
475,245,309381,1,8,0:0:0:0:
468,210,309469,1,0,0:0:0:0:
452,179,309556,1,0,0:0:0:0:
444,145,309643,1,0,0:0:0:0:
447,110,309730,6,0,L|450:61,1,49.5000015106202,2|0,0:0|0:0,0:0:0:0:
309,29,309905,2,0,L|306:78,1,49.5000015106202
365,183,310079,2,0,L|368:134,1,49.5000015106202,8|0,0:0|0:0,0:0:0:0:
227,102,310254,2,0,L|224:151,1,49.5000015106202
271,272,310428,6,0,L|293:317,1,31.4999990386963
271,272,310642,2,0,P|211:277|170:270,2,72,2|0|0,0:0|0:0|0:0,0:0:0:0:
392,209,311313,2,0,L|397:298,1,72
489,355,311761,2,0,P|482:302|483:209,1,144,2|0,0:0|0:0,0:0:0:0:
460,170,312283,6,0,L|460:145,2,24,0|0|2,0:0|0:0|0:0,0:0:0:0:
323,158,312671,2,0,P|289:159|243:171,1,72
154,246,313147,2,0,P|188:245|233:233,1,72,0|0,0:0|0:0,0:0:0:0:
316,295,313652,2,0,L|473:309,1,144,2|0,0:0|0:0,0:0:0:0:
500,229,314322,2,0,L|498:184,1,36,0|2,0:0|0:0,0:0:0:0:
256,192,314598,12,2,317374,0:0:0:0:
