osu file format v9

[General]
AudioFilename: The Everlasting Guilty Crown.mp3
AudioLeadIn: 2000
PreviewTime: 49333
Countdown: 0
SampleSet: Normal
StackLeniency: 0.7
Mode: 0
LetterboxInBreaks: 0

[Editor]
DistanceSpacing: 1
BeatDivisor: 4
GridSize: 4

[Metadata]
Title:The Everlasting Guilty Crown (TV Size)
Artist:EGOIST
Creator:Hazelz
Version:Normal
Source:Guilty Crown
Tags:climbb65588 KanaRin aesopl19193 ryo supercell

[Difficulty]
HPDrainRate:3
CircleSize:3
OverallDifficulty:3
ApproachRate:4
SliderMultiplier:0.999999999999999
SliderTickRate:2

[Events]
//Background and Video events
0,0,"BG.jpg"
Video,0,"Video.flv"
//Break Periods
//Storyboard Layer 0 (Background)
//Storyboard Layer 1 (Fail)
//Storyboard Layer 2 (Pass)
//Storyboard Layer 3 (Foreground)
//Storyboard Sound Samples
//Background Colour Transformations
3,100,163,162,255

[TimingPoints]
501,348.837209302326,4,2,1,50,1,0
5990,-100,4,1,1,35,0,0
27884,-100,4,1,1,5,0,0
28315,-100,4,1,1,60,0,0
50733,-100,4,1,1,70,0,1
84221,-100,4,2,1,15,0,0

[Colours]
Combo1 : 131,131,131
Combo2 : 255,151,255
Combo3 : 255,255,255

[HitObjects]
216,312,501,6,0,B|252:236|180:180|232:96,3,200,0|2|0|2
424,44,3291,6,0,B|388:120|460:176|408:260,3,200,0|2|0|2
236,320,6082,6,0,B|148:260|32:292,1,200,4|0
64,132,7477,1,2
208,200,8175,1,2
296,68,8873,6,0,B|392:8|490:80,1,200,2|2
440,228,10268,2,0,B|344:288|245:215,1,200,2|2
108,288,11663,5,2
176,144,12361,1,2
336,128,13059,1,2
436,252,13756,1,2
288,316,14454,6,0,B|188:276|76:320,1,200,2|2
28,236,15501,1,2
60,140,15849,2,0,B|160:180|272:136,1,200,2|2
368,64,17245,6,0,B|420:136|392:256,1,200,4|0
244,316,18640,2,0,B|172:264|52:292,1,200,2|2
96,140,20035,6,0,B|170:178|229:108|311:163,3,200,2|2|2|2
404,268,22826,2,0,B|329:306|270:236|188:291,3,200,2|2|2|2
256,192,25617,12,0,27884
56,128,28407,6,0,B|108:136|164:120,1,99.9999999999999,0|8
248,160,29105,1,0
292,72,29454,2,0,B|404:48|488:136,1,200,8|8
436,216,30501,2,0,B|416:272|436:320,1,99.9999999999999,0|8
336,332,31198,6,0,B|232:364|132:320,1,200,4|0
96,232,32245,1,8
144,144,32594,2,0,B|248:112|348:156,1,200,0|8
432,328,33989,6,0,B|372:344|320:328,1,99.9999999999999,0|8
264,256,34687,1,0
172,292,35035,2,0,B|128:256|56:264,2,99.9999999999999,8|0|8
268,324,36082,2,0,B|320:304|348:256,1,99.9999999999999,0|8
364,164,36780,6,0,B|256:168|168:92,1,200,4|0
124,184,37826,1,8
176,268,38175,2,0,B|284:264|372:340,1,200,0|0
420,252,39221,1,8
444,156,39570,6,0,B|408:100|380:52,1,99.9999999999999,0|8
300,112,40268,2,0,B|224:100|180:120,2,99.9999999999999,0|8|0
352,200,41314,1,8
284,272,41663,6,0,B|224:260|180:260,1,99.9999999999999,0|8
96,304,42361,2,0,B|28:208|48:100,1,200
144,136,43407,1,8
236,96,43756,2,0,B|341:148|444:111,1,200
448,216,44803,1,8
412,308,45152,6,0,B|304:288|200:340,1,200
140,268,46198,1,8
144,168,46547,2,0,B|252:188|356:136,1,200
400,64,47594,1,8
256,192,47942,12,4,49338
400,312,50733,6,0,B|352:328|296:316,1,99.9999999999999,4|8
232,244,51431,1,0
140,284,51780,2,0,B|88:256|76:196,1,99.9999999999999,8|0
108,112,52477,2,0,B|169:97|216:123,1,99.9999999999999,8|0
292,68,53175,1,8
372,132,53524,6,0,B|384:184|360:252,2,99.9999999999999,0|8|0
328,40,54570,1,8
272,124,54919,1,0
356,180,55268,2,0,B|428:256,2,99.9999999999999,8|0|8
268,224,56314,6,0,B|216:212|168:220,1,99.9999999999999,0|8
200,316,57012,2,0,B|136:320|88:312,1,99.9999999999999,0|8
48,228,57710,2,0,B|8:128|20:128,1,99.9999999999999,0|8
56,40,58407,1,0
152,64,58756,1,8
248,96,59105,6,0,B|300:112|356:100,1,99.9999999999999,0|8
448,92,59803,1,0
464,192,60152,1,8
396,264,60500,2,0,B|344:248|292:256,1,99.9999999999999,0|8
196,240,61198,1,0
136,320,61547,1,8
72,244,61896,6,0,B|96:192|96:128,1,99.9999999999999,4|8
192,120,62594,1,0
292,116,62942,1,8
368,180,63291,2,0,B|436:196|484:184,2,99.9999999999999,0|8|0
340,276,64338,6,0,B|236:244|136:316,1,200,8|8
80,232,65384,1,0
100,132,65733,2,0,B|144:88|196:88,1,99.9999999999999,8|0
284,116,66431,1,8
376,76,66780,2,0,B|424:100|484:88,1,99.9999999999999,0|8
480,188,67477,6,0,B|436:288|308:296,1,200
248,228,68524,1,8
148,240,68873,2,0,B|48:172|68:56,1,200
164,92,69919,1,8
256,52,70268,6,0,B|304:40|356:48,1,99.9999999999999,0|8
392,140,70966,2,0,B|340:156|288:148,1,99.9999999999999,0|8
192,140,71663,1,0
136,224,72012,1,8
204,296,72361,1,0
300,264,72710,1,8
292,164,73059,6,0,B|328:120|344:64,1,99.9999999999999,4|8
440,68,73756,2,0,B|456:120|440:180,1,99.9999999999999,0|8
436,268,74454,1,0
336,272,74803,1,8
252,324,75152,2,0,B|188:308|140:320,1,99.9999999999999,0|8
100,232,75849,6,0,B|72:184|92:132,1,99.9999999999999,0|8
192,132,76547,1,0
260,60,76896,1,8
352,96,77245,2,0,B|408:92|456:44,2,99.9999999999999,0|8|0
348,196,78291,1,8
252,224,78640,6,0,B|140:232|96:348,1,200
40,256,79687,1,8
76,164,80035,2,0,B|188:180|240:68,1,200
332,104,81082,1,8
424,140,81431,6,0,B|416:248,1,99.9999999999999,0|8
344,308,82128,2,0,B|284:224,1,99.9999999999999,0|8
192,260,82826,2,0,B|120:348,1,99.9999999999999,0|8
72,256,83524,2,0,B|48:152,1,99.9999999999999,0|8
256,192,84221,12,4,87187
