osu file format v9

[General]
AudioFilename: The Everlasting Guilty Crown.mp3
AudioLeadIn: 2000
PreviewTime: 49333
Countdown: 0
SampleSet: Soft
StackLeniency: 0.7
Mode: 0
LetterboxInBreaks: 0

[Editor]
DistanceSpacing: 1.7
BeatDivisor: 4
GridSize: 4

[Metadata]
Title:The Everlasting Guilty Crown (TV Size)
Artist:EGOIST
Creator:Hazelz
Version:Insane
Source:Guilty Crown
Tags:climbb65588 KanaRin aesopl19193 ryo supercell

[Difficulty]
HPDrainRate:8
CircleSize:4
OverallDifficulty:7
ApproachRate:8
SliderMultiplier:1.8
SliderTickRate:2

[Events]
//Background and Video events
0,0,"BG.jpg"
Video,0,"Video.flv"
//Break Periods
//Storyboard Layer 0 (Background)
//Storyboard Layer 1 (Fail)
//Storyboard Layer 2 (Pass)
//Storyboard Layer 3 (Foreground)
//Storyboard Sound Samples
//Background Colour Transformations
3,100,163,162,255

[TimingPoints]
501,348.837209302326,4,2,1,35,1,0
501,-200,4,2,1,35,0,0
4687,-200,4,2,1,5,0,0
5995,-100,4,1,1,70,0,0
6169,-100,4,1,1,35,0,0
14454,-100,4,2,1,35,0,0
14541,-100,4,1,1,35,0,0
15152,-100,4,2,1,35,0,0
15239,-100,4,1,1,35,0,0
15849,-100,4,2,1,35,0,0
15937,-100,4,1,1,35,0,0
16547,-100,4,2,1,35,0,0
16634,-100,4,1,1,35,0,0
17245,-100,4,1,1,40,0,0
22826,-200,4,1,1,40,0,0
27012,-100,4,2,1,5,0,0
28233,-100,4,1,1,55,0,0
28392,-80,4,1,1,65,0,0
47942,-200,4,1,1,45,0,0
48117,-200,4,1,1,5,0,0
48291,-200,4,1,1,55,0,0
48466,-200,4,1,1,5,0,0
48640,-200,4,1,1,65,0,0
48814,-200,4,1,1,5,0,0
48989,-200,4,1,1,75,0,0
49163,-200,4,1,1,5,0,0
49338,-200,4,2,0,5,0,0
49512,-200,4,2,0,15,0,0
49687,-200,4,2,0,25,0,0
50035,-200,4,2,0,35,0,0
50384,-200,4,2,0,45,0,0
50733,-80,4,1,1,75,0,1
81431,-80,4,1,1,40,0,1
82826,-80,4,1,1,50,0,1
83175,-80,4,1,1,60,0,1
83524,-80,4,1,1,70,0,1
84221,-100,4,2,1,15,0,0

[Colours]
Combo1 : 131,131,131
Combo2 : 255,151,255
Combo3 : 255,255,255

[HitObjects]
104,128,501,21,0
131,104,675,1,0
166,103,849,1,2
200,113,1024,6,0,B|215:163,1,45,0|2
380,302,1547,2,0,B|365:252,1,45,0|2
140,84,2070,2,0,B|155:134,1,45,0|2
416,320,2594,2,0,B|401:270,1,45,0|0
452,56,3291,21,0
424,92,3466,1,0
380,104,3640,1,2
336,92,3814,6,0,B|312:56,1,45,0|2
156,192,4338,2,0,B|180:228,1,45,0|2
256,192,4687,12,0,5733
92,296,6082,22,0,B|174:121,1,180,4|2
420,88,6780,2,0,B|334:259,1,180,2|2
92,296,7477,6,0,B|192:272|280:304,1,180,2|2
420,88,8175,2,0,B|324:112|236:84,1,180,2|2
120,248,8873,22,0,B|65:142|125:42,1,180,2|2
392,136,9570,2,0,B|446:241|386:341,1,180,2|2
72,56,10268,6,0,B|144:244,1,180,2|2
440,328,10966,2,0,B|368:140,1,180,2|2
328,44,11489,1,0
328,44,11576,1,0
328,44,11663,22,0,B|244:88|148:56,1,180
76,252,12187,1,0
76,252,12274,1,0
76,252,12361,2,0,B|128:160|244:156,1,180
356,340,12884,5,0
356,340,12971,1,0
356,340,13058,2,0,B|252:340|188:244,1,180
364,72,13582,1,0
364,72,13669,1,0
364,72,13756,2,0,B|392:168|296:256,1,180
252,128,14280,1,0
252,128,14367,1,0
252,128,14454,22,0,B|192:84|104:96,2,135,2|0|0
200,320,15152,2,0,B|158:245|179:164,2,135,2|0|0
284,48,15849,2,0,B|325:122|304:203,2,135,2|0|0
412,348,16547,2,0,B|370:273|391:192,2,135,2|0|0
480,272,17245,6,0,B|380:240|304:316,1,180,6|2
236,356,17768,1,0
160,308,17942,2,0,B|103:209|165:100,1,180,2|2
340,56,18640,1,2
416,104,18814,1,0
336,148,18989,1,2
304,336,19338,21,2
228,288,19512,1,0
308,244,19687,1,2
144,160,20035,6,0,B|87:253|143:355,1,180,2|2
392,208,20559,1,0
392,208,20733,2,0,B|448:114|392:12,1,180,2|2
256,344,21431,21,2
184,292,21605,1,0
264,252,21780,1,2
316,80,22128,5,2
232,116,22303,1,0
304,172,22477,1,2
60,188,22826,22,0,B|84:136,1,45,2|0
172,248,23175,2,0,B|148:196,1,45,2|0
312,232,23524,5,2
248,188,23698,1,0
360,144,23873,1,2
336,72,24047,1,0
424,304,24221,22,0,B|404:356,1,45,2|0
288,272,24570,2,0,B|248:236,1,45,2|0
240,92,24919,2,0,B|264:36,1,45,2|0
108,148,25268,2,0,B|52:136,1,45,2|0
72,300,25617,6,0,B|176:272,1,90,2|2
440,84,26314,2,0,B|336:112,1,90,2|2
256,192,27012,12,0,28059
80,176,28233,5,0
80,176,28320,1,0
80,176,28407,2,0,B|139:198|203:182,1,112.499998323619,4|0
324,72,28756,2,0,B|265:50|201:66,1,112.499998323619,8|0
220,292,29105,2,0,B|279:314|343:298,1,112.499998323619,0|0
460,180,29454,2,0,B|401:158|337:174,1,112.499998323619,8|0
140,299,29803,5,0
104,192,29977,1,0
104,192,30064,1,0
104,192,30152,1,8
112,80,30326,2,0,B|172:72|172:72|232:36,1,112.499998323619
404,160,30675,2,0,B|344:168|344:168|284:204,1,112.499998323619,0|8
336,312,31024,1,0
308,348,31111,1,0
268,356,31198,6,0,B|192:252|60:304,1,224.999996647239,0|8
80,192,31721,1,0
80,192,31809,1,0
80,192,31896,2,0,B|132:156|136:72,1,112.499998323619,0|0
356,72,32245,2,0,B|304:120|300:192,1,112.499998323619,8|0
396,268,32594,6,0,B|352:304|288:312|248:280|248:280|212:276|172:296,1,224.999996647239,0|8
124,192,33117,2,0,B|96:204|56:208,2,56.2499991618097
124,192,33466,1,8
272,44,33640,1,8
456,148,33814,1,0
348,296,33989,6,0,B|256:260|164:304,1,168.749997485429
128,304,34338,2,0,B|68:324|8:300,1,112.499998323619,8|0
132,88,34687,2,0,B|192:68|252:92,1,112.499998323619
344,44,35035,1,8
432,116,35210,5,0
444,160,35297,1,0
436,204,35384,1,0
304,336,35559,1,0
292,292,35646,1,0
300,248,35733,1,8
280,64,35907,6,0,B|216:52|156:96|156:96|144:104,1,112.499998323619,0|0
104,320,36256,1,0
104,320,36344,1,0
104,320,36431,2,0,B|126:258|191:213,1,112.499998323619,8|0
280,64,36780,6,0,B|344:108|416:56|416:56|452:100|440:164,1,224.999996647239,0|8
360,216,37303,1,0
360,216,37390,1,0
360,216,37477,2,0,B|296:224|296:224|248:280,1,112.499998323619
88,116,37826,2,0,B|152:108|152:108|200:52,1,112.499998323619,8|0
312,116,38175,5,0
368,184,38349,1,0
320,260,38524,1,8
236,232,38698,1,0
368,184,38873,5,0
200,316,39047,1,0
200,316,39134,1,0
200,316,39221,1,8
108,136,39396,1,0
252,60,39570,6,0,B|332:164|472:128,1,224.999996647239,0|8
484,240,40094,1,0
484,284,40181,1,0
464,324,40268,2,0,B|408:312|348:332,1,112.499998323619
252,280,40617,1,8
152,220,40791,6,0,B|108:264|112:328,1,112.499998323619
360,164,41140,2,0,B|404:120|400:56,1,112.499998323619,0|8
288,68,41489,2,0,B|212:124|92:84,1,168.749997485429
80,128,41838,2,0,B|44:176|60:236,1,112.499998323619,0|8
148,308,42187,5,0
188,284,42274,1,0
228,300,42361,2,0,B|292:320|348:292,1,112.499998323619
448,128,42710,2,0,B|384:108|328:136,1,112.499998323619,8|0
228,108,43059,5,0
272,252,43233,1,0
152,348,43407,1,8
52,212,43582,1,0
68,172,43669,1,0
72,128,43756,6,0,B|132:112|132:112|172:68,1,112.499998323619
352,168,44105,2,0,B|292:184|292:184|252:228,1,112.499998323619,8|0
104,320,44454,1,0
140,212,44628,1,0
140,212,44716,1,0
140,212,44803,1,8
252,192,44977,1,0
312,288,45152,6,0,B|388:264|488:296|512:376,1,224.999996647239,0|8
200,96,45849,2,0,B|124:120|24:88|0:8,1,224.999996647239,0|8
420,204,46547,5,0
116,212,46896,1,8
488,328,47245,1,0
36,92,47594,1,8
356,56,47942,6,0,B|348:116,1,45
244,284,48291,2,0,B|252:224,1,45
396,120,48640,2,0,B|388:180,1,45
284,348,48989,2,0,B|292:288,1,45
240,116,49338,6,0,B|216:128,15,22.5
240,116,50733,6,0,B|272:144|272:144|300:72|420:56|464:112,1,224.999996647239,4|8
456,220,51256,1,0
456,220,51344,1,0
456,220,51431,2,0,B|400:236|400:236|360:304,1,112.499998323619
136,320,51780,2,0,B|192:296|192:296|228:232,1,112.499998323619,8|0
84,92,52128,5,0
220,120,52303,1,0
256,96,52390,1,0
300,92,52477,2,0,B|364:120|432:104,1,112.499998323619,8|0
436,284,52826,2,0,B|384:252|308:264,1,112.499998323619
200,308,53175,1,8
84,148,53349,5,0
84,148,53437,1,0
84,148,53524,2,0,B|164:204|240:160|240:160|204:96,1,224.999996647239,0|8
340,64,54047,1,0
340,64,54134,1,0
340,64,54221,2,0,B|400:52|400:52|456:64,1,112.499998323619
312,192,54570,2,0,B|252:204|252:204|196:192,1,112.499998323619,8|0
56,332,54919,6,0,B|116:320|116:320|172:332,2,112.499998323619,0|0|8
364,196,55442,2,0,B|260:244|140:192|140:192|140:192,1,224.999996647239,0|0
272,324,55966,1,8
96,296,56140,1,0
96,296,56227,1,0
96,296,56314,6,0,B|144:228|104:96|0:96,1,224.999996647239,0|8
12,216,56838,1,0
12,216,56925,1,0
12,216,57012,2,0,B|68:188|136:204,1,112.499998323619
388,176,57361,1,8
320,260,57535,1,0
320,260,57623,1,0
320,260,57710,6,0,B|272:224|276:152,1,112.499998323619
424,36,58059,2,0,B|472:76|464:144,1,112.499998323619,8|0
400,328,58407,6,0,B|344:348|280:328,1,112.499998323619
216,92,58756,2,0,B|272:76|328:88,1,112.499998323619,8|0
456,296,59105,6,0,B|400:316|332:296,1,112.499998323619
312,280,59367,1,0
284,252,59454,1,8
172,300,59628,2,0,B|152:244|172:176,1,112.499998323619,0|0
408,72,59977,5,0
408,72,60064,1,0
408,72,60152,2,0,B|360:184,1,112.499998323619,8|0
112,296,60501,2,0,B|160:184,1,112.499998323619
156,193,60762,1,0
156,193,60849,1,8
208,296,61024,5,0
272,128,61198,1,0
112,296,61373,1,8
356,168,61547,1,8
288,352,61721,1,8
288,352,61809,1,0
288,352,61896,6,0,B|344:320|412:332,1,112.499998323619,4|0
456,184,62245,2,0,B|400:216|332:204,1,112.499998323619,8|0
260,76,62594,2,0,B|316:44|384:56,1,112.499998323619
352,328,62942,2,0,B|288:328|248:280,1,112.499998323619,8|0
404,232,63291,5,0
284,112,63466,1,0
284,112,63553,1,0
284,112,63640,2,0,B|224:148|204:216,1,112.499998323619,8|0
444,232,63989,2,0,B|388:188|324:188,1,112.499998323619
124,120,64338,2,0,B|88:168|84:228,1,112.499998323619,8|0
268,88,64687,2,0,B|368:52|440:104|440:104|476:64,2,224.999996647239,0|8|0
308,264,65559,1,0
324,220,65646,1,0
332,176,65733,6,0,B|348:108|324:52,1,112.499998323619,8|0
72,52,66082,2,0,B|56:120|80:176,1,112.499998323619
124,252,66431,1,8
320,328,66605,5,0
344,288,66692,1,0
384,268,66780,2,0,B|428:220|440:148,1,112.499998323619
256,32,67128,2,0,B|336:20|388:60,1,112.499998323619,8|0
144,240,67477,6,0,B|124:168|152:108,1,112.499998323619
192,40,67826,1,8
376,96,68001,2,0,B|396:168|368:228,1,112.499998323619
256,308,68349,6,0,B|192:268|116:276,1,112.499998323619,0|8
108,80,68698,2,0,B|164:116|248:112,1,112.499998323619
348,88,69047,5,0
360,68,69134,1,0
372,48,69221,1,8
240,156,69396,6,0,B|208:44,1,112.499998323619,0|0
152,244,69745,5,0
129,239,69832,1,0
106,235,69919,1,8
32,120,70094,1,0
156,72,70268,6,0,B|248:96|316:52|316:52|392:68,2,224.999996647239,0|8|0
104,196,71140,1,0
104,196,71227,1,0
104,196,71314,2,0,B|160:224|160:224|200:304,1,112.499998323619,8|0
436,300,71663,2,0,B|380:272|380:272|340:192,1,112.499998323619
357,227,71925,1,0
357,227,72012,1,8
380,72,72187,5,0
380,72,72274,1,0
380,72,72361,2,0,B|264:52,1,112.499998323619
108,180,72710,2,0,B|224:200,1,112.499998323619,8|0
368,340,73059,6,0,B|396:260|376:216,1,112.499998323619,0|0
232,128,73407,2,0,B|204:208|224:252,1,112.499998323619,8|0
452,248,73756,6,0,B|480:168|460:124,1,112.499998323619
316,36,74104,2,0,B|288:116|308:160,1,112.499998323619,8|0
348,276,74454,5,0
240,356,74628,1,0
248,204,74803,1,8
112,204,74977,1,0
184,88,75152,5,0
64,24,75326,1,0
336,128,75501,1,8
296,16,75675,1,0
412,252,75849,6,0,B|276:208|176:328,1,224.999996647239,0|8
124,216,76373,1,0
124,216,76460,1,0
124,216,76547,2,0,B|52:220|-2:153,1,112.499998323619
76,80,76896,2,0,B|156:120|244:92,1,168.749997485429,8|0
296,80,77245,6,0,B|352:64|352:64|412:80,1,112.499998323619
464,280,77594,2,0,B|408:296|408:296|348:280,1,112.499998323619,8|0
236,292,77942,5,0
368,132,78117,1,0
180,220,78291,1,8
372,220,78466,1,0
192,140,78640,6,0,B|68:132|-4:24,1,224.999996647239,0|8
320,224,79338,2,0,B|444:232|516:340,1,224.999996647239,0|8
216,252,80035,5,0
296,104,80384,1,8
68,288,80733,1,0
416,44,81082,1,8
123,69,81431,6,0,B|77:108,7,56.2499991618097
91,155,82128,6,0,B|134:215,7,56.2499991618097
177,200,82826,6,0,B|239:190,3,56.2499991618097
278,212,83175,2,0,B|331:271,3,56.2499991618097
364,273,83524,6,0,B|432:248,1,56.2499991618097
452,160,83698,2,0,B|384:184,1,56.2499991618097
296,140,83873,2,0,B|368:116,1,56.2499991618097
392,28,84047,2,0,B|332:48,1,56.2499991618097
256,192,84221,12,4,87187
