osu file format v9

[General]
AudioFilename: The Everlasting Guilty Crown.mp3
AudioLeadIn: 2000
PreviewTime: 49333
Countdown: 0
SampleSet: Soft
StackLeniency: 0.7
Mode: 0
LetterboxInBreaks: 0

[Editor]
DistanceSpacing: 1
BeatDivisor: 4
GridSize: 4

[Metadata]
Title:The Everlasting Guilty Crown (TV Size)
Artist:EGOIST
Creator:Hazelz
Version:Hard
Source:Guilty Crown
Tags:climbb65588 KanaRin aesopl19193 ryo supercell

[Difficulty]
HPDrainRate:6
CircleSize:4
OverallDifficulty:5
ApproachRate:7
SliderMultiplier:1.6
SliderTickRate:2

[Events]
//Background and Video events
0,0,"BG.jpg"
Video,0,"Video.flv"
//Break Periods
//Storyboard Layer 0 (Background)
//Storyboard Layer 1 (Fail)
//Storyboard Layer 2 (Pass)
//Storyboard Layer 3 (Foreground)
//Storyboard Sound Samples
//Background Colour Transformations
3,100,163,162,255

[TimingPoints]
501,348.837209302326,4,2,1,35,1,0
501,-200,4,2,1,35,0,0
4687,-200,4,2,1,5,0,0
5995,-100,4,1,1,70,0,0
6169,-100,4,1,1,35,0,0
17245,-100,4,1,1,55,0,0
27012,-100,4,2,1,5,0,0
28233,-100,4,1,1,65,0,0
47942,-200,4,1,1,25,0,0
48291,-200,4,1,1,35,0,0
48640,-200,4,1,1,45,0,0
48989,-200,4,1,1,55,0,0
49338,-100,4,2,0,5,0,0
50733,-86.9565217391304,4,1,1,70,0,1
81431,-86.9565217391304,4,1,1,40,0,1
82128,-86.9565217391304,4,1,1,50,0,1
82826,-86.9565217391304,4,1,1,60,0,1
83524,-86.9565217391304,4,1,1,70,0,1
84134,-86.9565217391304,4,2,1,5,0,1
84221,-100,4,2,1,15,0,0

[Colours]
Combo1 : 131,131,131
Combo2 : 255,151,255
Combo3 : 255,255,255

[HitObjects]
104,256,501,22,0,B|80:292,2,40,0|0|2
172,272,1024,2,0,B|220:260,1,40,0|2
252,132,1547,2,0,B|256:84,1,40,0|2
392,108,2070,2,0,B|432:104,1,40,0|2
452,240,2594,2,0,B|484:288,1,40,0|0
276,56,3291,5,0
276,56,3466,2,2,B|296:104,1,40,0|2
264,156,3814,2,0,B|244:192,1,40,0|2
156,296,4338,2,0,B|192:336,1,40,0|2
256,192,4687,12,0,5733
79,270,6082,22,0,B|248:268,1,160,4|2
268,192,6605,1,0
296,116,6780,2,0,B|136:116,1,160,2|2
20,232,7477,6,0,B|68:68|68:68,1,160,2|2
144,64,8001,1,0
224,48,8175,2,0,B|176:212|176:212,1,160,2|2
212,320,8873,22,0,B|296:344|392:312,1,160,2|2
472,156,9570,2,0,B|388:132|292:164,1,160,2|2
124,184,10268,6,0,B|124:92|180:28,1,160,2|2
388,200,10966,2,0,B|388:292|332:356,1,160,2|2
156,284,11663,22,0,B|108:204|16:200,1,160
44,120,12187,1,0
92,56,12361,2,0,B|140:136|232:140,1,160
412,84,13059,5,2
412,212,13407,1,2
308,136,13756,1,2
304,264,14105,1,2
188,212,14454,21,2
192,84,14803,1,2
72,132,15152,1,2
68,260,15501,1,2
172,336,15849,6,0,B|228:305|296:369|343:317,3,160,2|2|2|2
172,216,17245,22,0,B|203:149|181:58,1,160,6|2
104,44,17768,1,0
28,64,17942,2,0,B|-4:130|18:221,1,160,2|2
220,316,18640,6,0,B|192:224,2,80,2|0|2
396,240,19338,2,0,B|480:196,2,80,2|0|2
208,276,20035,22,0,B|44:276|44:276,1,160,2|2
12,204,20559,1,0
52,136,20733,2,0,B|216:136|216:136,1,160,2|2
432,272,21431,5,2
432,272,21780,2,0,B|464:184|432:96,2,160,2|2|2
352,264,22652,1,0
280,304,22826,22,0,B|223:273|155:337|108:285,3,160,2|2|2|2
268,72,24221,2,0,B|324:102|392:38|439:90,3,160,2|2|2|2
368,264,25617,6,0,B|444:236|476:144,1,160,2|2
144,264,26314,2,0,B|68:236|36:144,1,160,2|2
256,192,27012,12,0,28059
158,128,28233,5,0
158,128,28407,2,0,B|197:155|259:153,1,80,4|0
320,112,28756,1,8
400,168,28931,2,0,B|444:147|461:93,2,80
436,260,29454,1,8
344,284,29628,6,0,B|256:260|164:296,1,160
104,192,30152,1,8
176,88,30326,2,0,B|264:112|356:76,1,160
420,40,30849,1,8
456,128,31024,1,0
452,156,31111,1,0
448,188,31198,6,0,B|356:172|280:236,1,160,0|8
216,280,31721,1,0
216,280,31809,1,0
216,280,31896,2,0,B|200:232|200:184,1,80,0|0
312,64,32245,2,0,B|328:112|328:160,1,80,8|0
396,236,32594,6,0,B|324:288|236:244,1,160,0|8
168,188,33117,2,0,B|132:212,2,40
168,92,33466,2,0,B|208:68|272:72,1,80,8|8
340,96,33814,1,0
416,156,33989,6,0,B|436:212|407:297,1,120,0|0
380,308,34338,2,0,B|328:324|268:300,1,80,8|0
224,188,34687,2,0,B|276:172|336:196,1,80,0|0
392,152,35035,1,8
436,68,35210,6,0,B|360:32|264:60,1,160
240,144,35733,1,8
280,232,35907,2,0,B|360:264|456:236,1,160
484,328,36431,1,8
392,348,36605,1,0
296,332,36780,6,0,B|232:292|128:312,1,160,0|8
72,240,37303,1,0
80,204,37390,1,0
108,172,37477,2,0,B|140:182|187:169,1,80
280,48,37826,2,0,B|247:37|200:50,1,80,8|0
148,216,38175,6,0,B|232:236|312:212,1,160,0|8
384,148,38698,1,0
364,52,38873,2,0,B|280:32|200:56,1,160,0|8
132,116,39396,1,0
72,192,39570,6,0,B|128:240|128:240|232:256,1,160,0|8
300,212,40094,2,0,B|288:124,1,80
204,40,40442,2,0,B|184:132|184:132,1,80,0|8
140,264,40791,6,0,B|232:232|316:292,1,160
388,252,41314,1,8
448,176,41489,2,0,B|472:120|460:68,1,80
336,32,41838,2,0,B|312:88|324:140,1,80,0|8
348,220,42187,5,0
348,220,42274,1,0
348,220,42361,2,0,B|304:232|244:220,1,80
180,260,42710,1,8
180,260,42884,2,0,B|145:168|48:151,1,160
116,72,43407,2,0,B|180:40|216:56,1,80,8|0
268,112,43756,6,0,B|336:124|420:104,1,120
432,128,44105,2,0,B|424:176|424:176|432:232,1,80,8|0
464,296,44454,1,0
380,344,44628,1,0
344,328,44716,1,0
304,332,44803,2,0,B|256:320|192:348,1,80,8|0
140,288,45152,6,0,B|124:196|36:136,1,160,0|8
204,28,45849,2,0,B|220:120|308:180,1,160,0|8
416,304,46547,5,0
228,272,46896,1,8
256,80,47245,1,0
444,108,47594,1,8
276,192,47942,6,0,B|256:184,15,20
256,192,49338,12,0,50384
144,320,50733,6,0,B|76:240|117:121,1,184.00000603199,4|8
260,32,51256,1,0
260,32,51431,2,0,B|328:112|286:230,1,184.00000603199,0|8
268,292,51954,1,0
180,264,52128,5,0
100,308,52303,1,0
88,292,52390,1,0
76,276,52477,2,0,B|92:204|100:168,1,92.0000030159951,8|0
216,96,52826,2,0,B|200:168|192:204,1,92.0000030159951,0|0
328,120,53175,2,0,B|344:48|352:12,1,92.0000030159951,8|0
432,64,53524,6,0,B|488:136|452:256,1,184.00000603199,0|8
376,284,54047,1,0
296,332,54221,2,0,B|240:260|276:140,1,184.00000603199,0|8
308,72,54745,1,0
396,96,54919,6,0,B|424:56|424:8,2,92.0000030159951,0|0|8
356,180,55442,2,0,B|256:148|168:220,1,184.00000603199
140,292,55966,2,0,B|76:296|36:272,1,92.0000030159951,8|0
40,104,56314,6,0,B|144:84|236:140,1,184.00000603199,0|8
312,116,56838,1,0
376,184,57012,2,0,B|428:200|500:172,1,92.0000030159951
428,324,57361,2,0,B|376:308|304:336,1,92.0000030159951,8|0
248,356,57710,6,0,B|176:280|196:168,1,184.00000603199,0|8
304,84,58233,1,0
304,84,58320,1,0
304,84,58407,2,0,B|376:160|356:272,1,184.00000603199,0|8
336,344,58931,1,0
260,292,59105,6,0,B|212:272|136:292,2,92.0000030159951,0|0|8
344,256,59628,2,0,B|392:276|468:256,1,92.0000030159951
472,128,59977,2,0,B|424:108|348:128,1,92.0000030159951,0|8
288,124,60326,1,0
264,272,60501,6,0,B|164:292|76:236,1,184.00000603199,0|8
32,168,61024,2,0,B|20:113|42:60,1,92.0000030159951
172,120,61373,2,0,B|183:174|161:227,1,92.0000030159951,8|8
148,300,61721,1,8
148,300,61809,1,0
148,300,61896,6,0,B|200:312|264:288,1,92.0000030159951,4|0
268,208,62245,2,0,B|352:166|447:195,1,184.00000603199,8|0
480,108,62768,1,0
416,44,62942,2,0,B|331:85|236:56,1,184.00000603199,8|0
144,68,63466,6,0,B|100:160,1,92.0000030159951,0|8
132,240,63814,2,0,B|212:192|324:212,1,184.00000603199
392,252,64338,1,8
448,180,64512,5,0
448,180,64599,1,0
448,180,64687,2,0,B|464:72|404:4,2,184.00000603199,0|8|0
360,160,65559,1,0
272,188,65733,6,0,B|212:160|149:170,1,92.0000030159951,8|0
120,284,66082,2,0,B|180:312|242:301,1,92.0000030159951,0|0
296,332,66431,1,8
380,292,66605,6,0,B|356:196|408:112,1,184.00000603199
336,56,67128,2,0,B|280:40|224:76,1,92.0000030159951,8|0
168,116,67477,6,0,B|112:128|44:88,1,92.0000030159951
44,192,67826,1,8
64,284,68001,2,0,B|112:260|188:276,1,92.0000030159951
244,288,68349,2,0,B|293:308|355:278,1,92.0000030159951,0|8
428,292,68698,1,0
416,200,68873,6,0,B|452:108|412:8,1,184.00000603199,0|8
332,52,69396,1,0
256,104,69570,2,0,B|192:100|192:100|148:68,1,92.0000030159951
44,152,69919,2,0,B|108:156|108:156|152:188,1,92.0000030159951,8|0
152,260,70268,6,0,B|252:292|352:260,3,184.00000603199,0|8|0|8
372,180,71489,1,0
344,92,71663,6,0,B|424:40,1,92.0000030159951
232,56,72012,2,0,B|272:156,1,92.0000030159951,8|0
196,204,72361,2,0,B|80:184,1,92.0000030159951
264,284,72710,2,0,B|348:228,1,92.0000030159951,8|0
408,296,73059,6,0,B|444:200|428:112,1,184.00000603199,0|8
336,108,73582,1,0
260,40,73756,2,0,B|224:136|240:224,1,184.00000603199,0|8
296,292,74280,1,0
216,336,74454,6,0,B|168:328|168:328|88:348,1,92.0000030159951,0|0
40,220,74803,2,0,B|88:228|88:228|168:208,1,92.0000030159951,8|0
292,272,75152,2,0,B|244:264|244:264|164:284,1,92.0000030159951,0|0
116,156,75501,2,0,B|164:164|164:164|244:144,1,92.0000030159951,8|0
252,76,75849,6,0,B|332:20|456:56,1,184.00000603199,0|8
428,140,76373,1,0
448,228,76547,2,0,B|364:264|268:244,1,184.00000603199,0|8
60,308,77245,6,0,B|29:215|100:107,1,184.00000603199,0|8
168,172,77769,1,0
260,164,77943,2,0,B|269:254|222:340,1,184.00000603199,0|8
120,188,78640,6,0,B|36:120|44:20,1,184.00000603199,0|8
392,196,79338,2,0,B|476:264|468:364,1,184.00000603199,0|8
256,192,80035,6,0,B|204:96|252:4,1,184.00000603199,0|8
256,192,80733,2,0,B|308:280|260:380,1,184.00000603199,0|8
88,336,81431,6,0,B|48:280,7,46.0000015079976
68,252,82128,6,0,B|104:184,7,46.0000015079976
108,168,82826,6,0,B|88:116,3,46.0000015079976
116,84,83175,2,0,B|184:80,3,46.0000015079976
208,72,83524,6,0,B|216:16,7,46.0000015079976
256,192,84221,12,4,87187
