osu file format v9

[General]
AudioFilename: The Everlasting Guilty Crown.mp3
AudioLeadIn: 2000
PreviewTime: 49333
Countdown: 0
SampleSet: Soft
StackLeniency: 0.7
Mode: 0
LetterboxInBreaks: 0

[Editor]
DistanceSpacing: 1
BeatDivisor: 4
GridSize: 4

[Metadata]
Title:The Everlasting Guilty Crown (TV Size)
Artist:EGOIST
Creator:Hazelz
Version:Easy
Source:Guilty Crown
Tags:climbb65588 KanaRin aesopl19193 ryo supercell

[Difficulty]
HPDrainRate:2
CircleSize:3
OverallDifficulty:1
ApproachRate:2
SliderMultiplier:0.8
SliderTickRate:1

[Events]
//Background and Video events
0,0,"BG.jpg"
Video,0,"Video.flv"
//Break Periods
//Storyboard Layer 0 (Background)
//Storyboard Layer 1 (Fail)
//Storyboard Layer 2 (Pass)
//Storyboard Layer 3 (Foreground)
//Storyboard Sound Samples
//Background Colour Transformations
3,100,163,162,255

[TimingPoints]
501,348.837209302326,4,2,1,50,1,0
5990,-100,4,1,1,35,0,0
27443,-100,4,2,1,50,0,0
28315,-100,4,1,1,35,0,0
50733,-100,4,1,1,55,0,1
72182,-100,4,1,1,55,0,1
84221,-100,4,2,1,50,0,0
84309,-100,4,2,1,15,0,0

[Colours]
Combo1 : 131,131,131
Combo2 : 255,151,255
Combo3 : 255,255,255

[HitObjects]
112,116,501,6,0,B|192:96|272:116,3,160,2|0|2|0
232,272,3291,6,0,B|312:296|392:272,3,160,2|0|2|0
452,128,6082,6,0,B|384:100|296:96,1,160,4|0
136,100,7477,1,0
48,320,8873,6,0,B|128:348|208:340,1,160
212,180,10268,2,0,B|300:180|368:136,1,160
256,20,11663,5,0
140,128,12361,1,0
256,236,13059,1,0
372,128,13756,1,0
424,280,14454,6,0,B|360:332|276:344,3,160
312,188,17245,6,0,B|248:140|156:144,1,160,4|0
8,184,18640,1,0
408,292,20035,6,0,B|472:248|496:160,2,160
340,148,22128,1,0
232,268,22826,6,0,B|160:232|76:248,1,160
92,84,24221,2,0,B|172:56|252:64,1,160
408,92,25617,5,4
500,224,26314,1,0
340,236,27012,2,0,B|260:256|176:236,1,160,0|0
44,56,28407,6,0,B|124:32|204:56,1,160,4|2
360,44,29803,2,0,B|424:100|440:180,1,160,0|2
448,340,31198,2,0,B|368:364|288:340,1,160,4|2
144,268,32594,2,0,B|80:320,2,79.9999999999999,0|0|2
296,224,33989,6,0,B|296:140|236:80,1,160,2|0
396,96,35384,2,0,B|456:144|484:232,2,160,2|0|2
240,140,37477,1,2
324,276,38175,2,0,B|401:296,2,79.9999999999999
184,352,39570,6,0,B|144:284|152:196,1,160,4|2
308,232,40966,1,0
444,148,41663,2,0,B|460:64|400:-4,2,160,2|0|2
436,308,43756,1,0
180,116,45152,6,0,B|304:88|420:116,1,240,2|0
476,168,46547,2,0,B|504:208|500:276|444:308,1,160,2|0
256,192,47594,12,4,49338
88,124,50733,6,0,B|168:100|248:124,1,160,4|0
320,152,51780,1,8
380,204,52128,2,0,B|460:204,2,79.9999999999999,0|8|0
240,284,53524,6,0,B|164:260|80:288,2,160,4|0|0
320,280,55268,2,0,B|384:328,2,79.9999999999999,8|0|8
320,200,56314,6,0,B|292:118|316:42,1,160,4|0
396,64,57361,1,8
476,48,57710,2,0,B|503:129|479:205,1,160
360,312,59105,6,0,B|280:292|200:312,1,160
144,256,60152,1,8
68,232,60500,2,0,B|104:164|84:76,1,160
164,64,61547,1,8
236,28,61896,6,0,B|300:76|388:80,1,160,4|0
388,160,62942,1,8
392,240,63291,2,0,B|476:248,2,79.9999999999999,0|8|0
272,344,64687,6,0,B|196:368|111:354,1,160
56,300,65733,2,0,B|0:240,2,79.9999999999999,8|0|8
128,268,66780,2,0,B|152:232|148:192,1,79.9999999999999,0|8
256,192,67477,12,0,70268
80,192,72361,5,0
196,84,73059,2,0,B|280:128|352:56|432:88,1,240,4|2
392,160,74454,2,0,B|432:248|400:324|304:344,1,240,2|2
232,316,75849,6,0,B|156:280|68:292,2,160,2|2|2
292,260,77594,2,0,B|312:224|304:180,2,79.9999999999999,8|0|8
336,328,78640,6,0,B|464:288|504:168,1,240,4|2
448,112,80035,2,0,B|364:80|304:144|208:100,1,240,2|0
136,80,81431,6,0,B|52:104,1,79.9999999999999,4|8
92,176,82128,2,0,B|44:244,1,79.9999999999999,2|8
120,272,82826,6,0,B|124:352,1,79.9999999999999,2|8
204,336,83524,2,0,B|276:376,2,79.9999999999999,2|8|4
256,192,84396,12,4,87187
