osu file format v9

[General]
AudioFilename: The Everlasting Guilty Crown.mp3
AudioLeadIn: 2000
PreviewTime: 49467
Countdown: 0
SampleSet: Soft
StackLeniency: 0.7
Mode: 0
LetterboxInBreaks: 0

[Editor]
DistanceSpacing: 1.8
BeatDivisor: 4
GridSize: 4

[Metadata]
Title:The Everlasting Guilty Crown (TV Size)
Artist:EGOIST
Creator:-HaRuNa-
Version:Insane
Source:Guilty Crown
Tags:opening DarknessAngel bossandy

[Difficulty]
HPDrainRate:7
CircleSize:4
OverallDifficulty:7
ApproachRate:8
SliderMultiplier:1.4
SliderTickRate:1

[Events]
//Background and Video events
0,0,"BG.jpg"
Video,0,"op.flv"
//Break Periods
//Storyboard Layer 0 (Background)
//Storyboard Layer 1 (Fail)
//Storyboard Layer 2 (Pass)
//Storyboard Layer 3 (Foreground)
//Storyboard Sound Samples
//Background Colour Transformations
3,100,163,162,255

[TimingPoints]
673,348.837209302326,4,1,1,60,1,0
6254,-100,4,1,1,65,0,0
28579,-100,4,1,1,65,0,1
28667,-100,4,1,1,65,0,0
49510,-100,4,1,1,40,0,0
49597,-100,4,1,1,42,0,0
49684,-100,4,1,1,44,0,0
49771,-100,4,1,1,46,0,0
49859,-100,4,1,1,48,0,0
49946,-100,4,1,1,50,0,0
50033,-100,4,1,1,52,0,0
50120,-100,4,1,1,54,0,0
50207,-100,4,1,1,56,0,0
50295,-100,4,1,1,58,0,0
50382,-100,4,1,1,60,0,0
50469,-100,4,1,1,62,0,0
50556,-100,4,1,1,64,0,0
50643,-100,4,1,1,66,0,0
50731,-100,4,1,1,68,0,0
50905,-100,4,1,1,70,0,1
81603,-100,4,1,1,50,0,1
81690,-100,4,1,1,52,0,1
81777,-100,4,1,1,54,0,1
81864,-100,4,1,1,56,0,1
81952,-100,4,1,1,58,0,1
82039,-100,4,1,1,60,0,1
82126,-100,4,1,1,62,0,1
82213,-100,4,1,1,64,0,1
82300,-100,4,1,1,66,0,1
82388,-100,4,1,1,68,0,1
82475,-100,4,1,1,70,0,1
82562,-100,4,1,1,72,0,1
82649,-100,4,1,1,74,0,1
82736,-100,4,1,1,76,0,1
82824,-100,4,1,1,78,0,1
82911,-100,4,1,1,80,0,1
82998,-100,4,1,1,82,0,1
83085,-100,4,1,1,84,0,1
83173,-100,4,1,1,86,0,1
83260,-100,4,1,1,88,0,1
83347,-100,4,1,1,90,0,1
83434,-100,4,1,1,92,0,1
83521,-100,4,1,1,94,0,1
83609,-100,4,1,1,96,0,1
83696,-100,4,1,1,98,0,1
83783,-100,4,1,1,100,0,1
84393,-100,4,2,0,5,0,0

[Colours]
Combo1 : 255,255,0
Combo2 : 255,128,192
Combo3 : 170,170,255
SliderBorder : 255,255,255

[HitObjects]
256,192,673,1,4
256,192,848,1,0
256,192,1022,1,0
384,188,1196,2,0,B|460:188,2,70
256,192,1720,1,0
132,192,1894,2,0,B|56:192,2,70
256,192,2417,1,0
256,192,2592,1,0
256,192,2766,2,0,B|256:268,1,70
256,116,3464,6,0,B|256:40,2,70,4|0|0
256,268,3987,2,0,B|256:344,2,70
344,192,4510,2,0,B|420:192,2,70
168,192,5034,2,0,B|96:192,2,70
256,192,5557,1,0
256,192,5731,1,0
256,84,6254,6,0,B|332:88|376:152,1,140,4|8
376,276,6778,1,0
376,276,6952,1,0
304,376,7127,1,0
224,280,7301,2,0,B|148:276|104:212,1,140,8|0
180,96,7824,2,0,B|260:96,1,70,0|8
332,192,8173,2,0,B|256:192,1,70
180,288,8522,2,0,B|264:288,1,70,0|8
332,192,8871,6,0,B|332:116,1,70
224,192,9220,2,0,B|224:264,1,70,0|8
120,192,9568,2,0,B|120:120,1,70
16,192,9917,1,0
68,308,10092,6,0,B|164:308,1,70,8|0
256,260,10441,1,0
446,304,10615,2,0,B|376:304,1,70,0|8
256,260,10964,5,0
256,260,11051,1,0
256,260,11138,1,0
320,152,11313,2,0,B|256:128|176:152,1,140
380,64,11836,6,0,B|444:96|444:204,1,140,0|8
384,296,12359,1,0
284,220,12534,1,0
188,300,12708,1,0
92,220,12882,1,8
188,140,13057,6,0,B|187:54|251:22,1,140
344,108,13580,1,8
256,192,13754,1,0
256,192,13842,1,0
256,192,13929,1,0
376,236,14103,2,0,B|396:272|376:312,1,70,0|8
256,340,14452,1,0
256,340,14539,1,0
256,340,14627,5,0
256,52,14888,1,8
184,308,15149,1,0
328,76,15324,1,0
148,240,15585,1,8
364,144,15847,1,0
156,164,16022,5,0
356,220,16283,1,8
208,104,16545,1,0
304,280,16719,1,0
256,192,16894,1,0
256,192,17068,1,8
256,192,17243,2,0,B|256:272,1,70,0|4
428,192,17766,5,8
344,100,17941,1,0
344,100,18028,1,0
344,100,18115,1,0
256,192,18289,1,0
132,192,18464,2,0,B|132:240|132:240|152:276,1,70,8|0
256,320,18813,1,0
256,192,18987,2,0,B|256:136|256:136|232:112,1,70,0|8
132,68,19336,1,0
132,192,19510,2,0,B|56:192,1,70
132,296,19859,6,0,B|204:296,1,70,8|0
328,296,20208,1,0
256,192,20382,1,0
380,192,20557,2,0,B|380:120,1,70,8|0
256,92,20906,2,0,B|256:172,1,70
132,192,21254,1,8
132,192,21342,1,0
132,192,21429,1,0
256,262,21603,2,0,B|256:192,1,70
132,292,21952,1,8
132,292,22039,1,0
132,292,22127,1,0
256,292,22301,6,0,B|324:336|416:280,1,140,0|8
324,188,22824,1,0
256,92,22999,2,0,B|324:48|416:104,1,140,0|8
324,188,23522,1,0
196,188,23696,2,0,B|108:188,2,70,0|0|8
256,300,24220,2,0,B|336:300,2,70
128,300,24743,2,0,B|56:300,2,70,8|0|0
256,300,25266,5,0
256,300,25353,1,0
256,300,25441,1,8
196,192,25615,1,0
312,204,25789,1,0
208,204,25964,1,0
324,192,26138,1,8
256,84,26313,2,0,B|256:8,2,70
424,188,26835,5,0
424,188,26923,1,0
424,188,27010,1,0
364,76,27185,2,0,B|392:56|392:56|456:40|500:92,1,140
468,308,27708,2,0,B|440:328|440:328|376:344|332:292,1,140
216,280,28231,1,0
120,192,28406,1,0
120,192,28580,5,0
124,64,28754,2,0,B|160:48|160:48|220:48,1,70,0|8
316,52,29103,1,0
316,176,29278,2,0,B|316:224|316:224|292:264,1,70
432,244,29627,2,0,B|448:212|448:212|448:172,1,70,8|0
452,52,29975,2,0,B|380:24|312:52,1,140,0|8
256,160,30499,5,0
256,160,30586,1,0
256,160,30673,1,0
256,284,30847,2,0,B|332:284,1,70,0|8
256,160,31196,2,0,B|176:160,1,70
256,32,31545,2,0,B|328:32,2,70,0|8|0
256,284,32068,6,0,B|180:284,2,70,0|0|8
384,284,32592,1,0
472,192,32766,2,0,B|472:122,2,70,0|0|8
356,70,33289,2,0,B|356:140,1,70
256,192,33638,1,0
132,192,33813,5,8
132,192,33987,1,0
132,320,34161,2,0,B|204:320,1,70
132,192,34510,2,0,B|216:192,1,70,8|0
132,64,34859,2,0,B|204:64,1,70
376,192,35208,5,8
376,192,35382,1,0
380,320,35557,2,0,B|308:320,1,70
376,192,35906,2,0,B|292:192,1,70,8|0
380,64,36254,2,0,B|308:64,1,70
184,64,36603,1,8
184,64,36691,1,0
184,64,36778,1,0
180,192,36952,6,0,B|196:236|240:240,1,70
332,164,37301,2,0,B|308:128|268:124,1,70,8|0
256,260,37650,2,0,B|256:344,1,70
360,260,37999,2,0,B|360:328,2,70,8|0|0
360,124,38522,2,0,B|360:52,2,70,0|8|0
256,192,39045,2,0,B|352:192,2,70,0|0|8
256,192,39568,5,0
432,192,39743,2,0,B|495:227,1,70
160,272,40092,2,0,B|124:332,1,70,8|0
352,272,40441,2,0,B|387:332,1,70,0|0
80,192,40789,2,0,B|18:225,1,70,8|0
80,192,41138,6,0,B|80:148|80:148|92:116,1,70
192,196,41487,2,0,B|192:240|192:240|172:280,1,70,8|0
88,200,41836,1,0
184,200,42010,1,0
80,192,42185,1,8
192,196,42359,1,0
316,196,42534,6,0,B|400:196,3,70,0|0|8|0
372,320,43231,2,0,B|296:320,3,70,0|0|8|0
176,320,43929,2,0,B|176:240|176:240|220:168,1,140,0|8
332,192,44452,1,0
332,192,44539,1,0
332,192,44627,1,0
236,112,44800,6,0,B|312:112,1,70,0|8
408,36,45150,1,0
284,36,45324,2,0,B|208:36,1,70
88,40,45673,2,0,B|48:96,2,70,8|0|0
108,164,46196,1,0
48,272,46370,2,0,B|88:328,2,70,8|0|0
168,236,46893,2,0,B|236:236,3,70,0|8|0|0
256,360,47591,1,0
372,308,47766,5,8
412,188,47941,1,0
328,92,48115,2,0,B|256:92,3,70,0|0|8|0
184,192,48813,2,0,B|256:192,3,70,0|0|8|0
144,328,49510,6,0,B|144:376,7,35
144,300,50207,2,0,B|144:252,6,35
144,172,50906,6,0,B|192:128|192:128|272:128,1,140,4|8
392,128,51429,1,0
392,128,51516,1,0
392,128,51603,1,0
500,192,51778,2,0,B|500:268,1,70,0|8
396,324,52127,1,0
396,324,52301,2,0,B|320:324,3,70,0|0|8|0
200,324,52999,2,0,B|156:276|156:276|156:196,1,140,0|8
156,76,53522,6,0,B|232:76,3,70,0|0|0|8
352,76,54220,1,0
352,200,54394,1,0
352,200,54568,2,0,B|272:200,1,70,0|8
156,200,54917,1,0
156,200,55004,1,0
156,200,55092,1,0
156,328,55266,2,0,B|240:328,1,70,0|8
352,324,55615,2,0,B|352:248,2,70
352,324,56138,1,8
352,324,56313,2,0,B|272:324,1,70
156,328,56661,5,0
156,204,56836,1,8
156,328,57010,1,0
156,204,57185,2,0,B|156:132,1,70
256,60,57534,2,0,B|256:136,1,70,8|0
356,204,57882,2,0,B|356:132,2,70,0|0|8
256,280,58406,2,0,B|256:360,1,70
128,316,58754,1,0
128,192,58929,1,8
256,192,59103,5,0
256,192,59191,1,0
256,192,59278,1,0
384,192,59452,2,0,B|468:192,2,70,0|8|0
256,192,59975,1,0
128,192,60150,1,0
128,192,60324,2,0,B|44:192,2,70,8|0|4
256,60,60847,5,0
408,192,61022,1,8
256,324,61196,1,0
104,192,61371,1,4
256,60,61545,1,0
352,112,61720,6,0,B|352:68|352:68|380:36,1,70,8|0
492,76,62068,2,0,B|492:120|492:120|464:152,1,70
468,264,62417,2,0,B|468:308|468:308|440:340,2,70,8|0|0
328,300,62941,2,0,B|328:256|328:256|356:224,2,70,0|8|0
200,304,63464,2,0,B|200:236,3,70,0|0|8|0
200,108,64161,1,0
312,168,64336,1,0
312,168,64423,1,0
312,168,64510,1,8
320,40,64685,5,0
320,40,64859,1,0
436,92,65034,2,0,B|436:140|436:140|412:164,1,70,0|8
336,252,65382,2,0,B|264:252,1,70
140,248,65731,2,0,B|140:200|140:200|176:164,1,70,0|8
256,108,66080,6,0,B|256:40,3,70,0|0|0|8
384,40,66778,2,0,B|384:116,3,70,0|0|0|8
316,216,67475,1,0
316,340,67650,2,0,B|244:364|168:340,1,140,0|8
180,216,68173,1,0
180,92,68347,2,0,B|252:68|328:92,1,140,0|8
344,216,68871,5,0
312,336,69045,2,0,B|236:340|169:297,1,140,0|8
164,176,69568,1,0
200,56,69743,2,0,B|275:51|342:94,1,140,0|8
444,92,70266,5,0
444,216,70441,2,0,B|444:288,3,70,0|0|8|0
256,260,71138,2,0,B|256:190,3,70,0|0|8|0
60,216,71836,2,0,B|60:286,3,70,0|0|8|0
256,104,72534,2,0,B|256:34,3,70,0|0|8|0
256,192,73231,12,4,74627
256,104,74801,6,0,B|328:104,1,70,0|8
256,212,75150,2,0,B|184:212,1,70
256,316,75499,2,0,B|328:316,1,70,0|8
452,312,75848,2,0,B|452:244,1,70
396,128,76196,2,0,B|396:212,1,70,0|8
332,352,76545,2,0,B|332:280,1,70
264,60,76894,2,0,B|264:132,1,70,0|8
148,364,77243,2,0,B|148:288,1,70
76,192,77592,6,0,B|76:272,2,70,0|8|0
136,80,78115,2,0,B|136:8,2,70,0|0|8
200,192,78638,1,0
324,192,78813,2,0,B|400:192,3,70,0|0|8|0
360,312,79510,2,0,B|280:312,3,70,0|0|8|0
164,312,80208,2,0,B|76:312,3,70,0|0|8|0
136,192,80906,2,0,B|212:192,3,70,0|0|8|0
256,76,81603,5,0
292,68,81691,1,0
324,76,81778,1,0
352,96,81865,1,0
368,128,81952,1,8
372,164,82039,1,0
360,196,82127,1,0
332,216,82214,1,0
296,216,82301,5,0
264,204,82388,1,0
228,204,82475,1,0
196,216,82563,1,0
176,244,82650,1,8
176,280,82737,1,0
192,312,82824,1,0
224,328,82911,1,0
260,332,82999,6,0,B|308:328,7,35
328,324,83696,2,0,B|368:336,7,35
256,192,84394,12,0,87446
