osu file format v9

[General]
AudioFilename: The Everlasting Guilty Crown.mp3
AudioLeadIn: 2000
PreviewTime: 49467
Countdown: 0
SampleSet: Normal
StackLeniency: 0.7
Mode: 0
LetterboxInBreaks: 0

[Editor]
DistanceSpacing: 1
BeatDivisor: 2
GridSize: 4

[Metadata]
Title:The Everlasting Guilty Crown (TV Size)
Artist:EGOIST
Creator:-HaRuNa-
Version:Easy
Source:Guilty Crown
Tags:opening DarknessAngel bossandy

[Difficulty]
HPDrainRate:2
CircleSize:3
OverallDifficulty:2
ApproachRate:3
SliderMultiplier:0.8
SliderTickRate:1

[Events]
//Background and Video events
0,0,"BG.jpg"
Video,0,"op.flv"
//Break Periods
//Storyboard Layer 0 (Background)
//Storyboard Layer 1 (Fail)
//Storyboard Layer 2 (Pass)
//Storyboard Layer 3 (Foreground)
//Storyboard Sound Samples
//Background Colour Transformations
3,100,163,162,255

[TimingPoints]
673,348.837209302326,4,1,2,60,1,0
6254,-100,4,1,2,65,0,0
28579,-100,4,1,2,65,0,1
28667,-100,4,1,2,65,0,0
49510,-100,4,1,2,30,0,0
50905,-100,4,1,2,70,0,1
84393,-100,4,2,0,5,0,0

[Colours]
Combo1 : 255,255,0
Combo2 : 255,128,192
Combo3 : 170,170,255
SliderBorder : 255,255,255

[HitObjects]
128,96,673,2,0,B|208:64|288:96,1,160,4|0
384,224,2068,2,0,B|304:256|224:224,1,160,0|0
96,136,3463,6,0,B|48:216|112:296,1,160,4|0
248,208,4859,2,0,B|296:128|248:48,1,160,0|0
400,112,6254,5,4
400,272,6952,1,8
264,192,7649,2,0,B|104:192,2,160,0|8|0
424,192,9742,1,8
264,192,10440,2,0,B|216:136|216:136|128:136,1,160,0|8
104,296,11835,6,0,B|152:352|152:352|240:352,1,160,2|0
384,280,13231,2,0,B|440:232|440:232|440:144,1,160,2|0
284,176,14626,6,0,B|208:124|128:172,2,160,2|2|2
216,320,16719,2,0,B|292:372|368:320,1,160,2|4
400,164,18114,5,8
256,92,18812,1,0
248,252,19510,2,0,B|184:308|96:308,1,160,8|0
52,156,20905,2,0,B|116:100|204:100,1,160,8|0
356,80,22300,6,0,B|356:128|356:128|384:180|352:240,1,160,8|2
236,340,23696,2,0,B|236:292|236:292|208:240|240:180,1,160,8|2
76,180,25091,1,8
164,48,25789,1,2
316,96,26486,1,8
396,96,26835,6,0,B|492:96,2,80,8|2|8
356,164,27882,2,0,B|396:244|356:324,1,160,0|4
204,356,29277,2,0,B|164:276|204:196,1,160,8|8
256,52,30673,2,0,B|352:28|424:60,1,160,8|8
416,136,31719,5,0
416,216,32068,2,0,B|376:216|344:184,2,80,8|0|8
256,216,33463,1,8
96,192,34161,6,0,B|56:124|56:124|108:40,1,160,4|8
256,92,35556,2,0,B|324:52|324:52|408:104,1,160,8|8
264,192,36952,6,0,B|248:232|264:272,2,80,8|0|8
336,232,37998,1,0
408,272,38347,2,0,B|424:232|408:192,2,80,8|0|8
336,232,39393,1,0
264,192,39742,6,0,B|280:112|392:64,1,160,8|8
476,192,41138,2,0,B|460:272|348:320,1,160,8|8
256,196,42533,2,0,B|200:268|256:372,1,160,8|8
368,248,43928,2,0,B|424:176|360:80,1,160,8|8
300,60,44975,5,0
368,20,45324,2,0,B|456:20|456:20|512:76,2,160,8|8|8
420,172,47417,1,8
344,192,47766,2,0,B|280:144|280:144|200:144|200:144|136:192,1,240,0|8
80,248,49161,1,4
120,316,49510,6,0,B|168:316|168:316|232:348|280:308,1,160
432,304,50905,2,0,B|432:256|432:256|464:192|424:144,2,160,12|8|8
348,312,52649,2,0,B|304:316|264:288,1,80,0|8
152,192,53696,6,0,B|152:32,1,160,8|8
296,100,55091,2,0,B|344:92|384:108|384:108|420:92|464:100,1,160,8|8
424,176,56138,1,0
344,176,56486,1,12
376,332,57184,6,0,B|264:212,1,160,8|8
208,160,58231,1,0
128,160,58579,1,8
4,260,59277,6,0,B|140:388,1,160,8|8
256,284,60673,2,0,B|184:220,2,80,8|0|8
180,144,62068,6,0,B|268:104|372:112,1,160,4|8
312,224,63463,2,0,B|392:272|408:352,1,160,8|8
248,336,64859,2,0,B|160:320|112:256,1,160,0|8
260,192,66254,2,0,B|276:104|348:56,1,160,8|8
404,112,67300,5,0
404,192,67649,2,0,B|404:280|316:336|204:336,1,240,8|0
160,336,69045,2,0,B|72:336|24:256,1,160,8|8
156,168,70440,2,0,B|156:80|236:32,3,160,8|8|8|8
256,192,73231,12,4,76022
384,192,76719,5,2
256,96,77417,1,0
128,192,78114,1,2
256,288,78812,1,4
416,320,79510,6,0,B|464:256|464:256|416:192,1,160,8|8
256,192,80905,2,0,B|192:144|192:144|128:192,1,160,8|8
192,244,81952,1,0
192,324,82300,2,0,B|236:312|288:324,2,80,8|0|8
116,344,83347,2,0,B|76:356|36:344,1,80,0|8
40,264,84045,1,0
256,192,84393,12,0,87446
