osu file format v14

[General]
AudioFilename: TEGC.mp3
AudioLeadIn: 0
PreviewTime: 71736
Countdown: 0
SampleSet: Normal
StackLeniency: 0.7
Mode: 1
LetterboxInBreaks: 0
WidescreenStoryboard: 0

[Editor]
Bookmarks: 661,1707,3451,4498,6242,6416,7288,7463,8684,9033,9207,10079,10254,11823,11998,12870,13044,14265,14614,14788,15661,15835,16009,16184,16533,16881,19672,25428,28567,28916,29094,29265,29614,29788,29963,30137,30312,30661,30835,31009,31184,31707,31710,31884,32056,32405,32582,32754,32928,33105,33451,33626,33800,33974,34501,34675,34850,35198,35373,35547,35719,35722,35896,36067,36155,36242,36416,36591,36765,39033,39207,39381,39556,39665,39687,39708,39730,39752,39774,39796,39817,40079,40254,40777,40951,41126,41300,41823,41998,42172,42347,42870,43044,43393,43567,43742,44440,44614,44788,44876,44963,45137,46358,46533,46707,46881,47405,47426,47579,47601,47754,47775,47928,47950,48102,48124,50719,50871,50893,50937,50980,51024,51067,51155,51242,51286,51351,51373,51395,51416,51460,51504,51547,51591,51678,51700,51722,51743,51765,51809,51852,51896,51940,52027,52070,52092,52114,52158,52201,52245,52288,52376,52463,52485,52506,52528,52550,52594,52637,52681,52703,52724,52746,52768,52790,52812,52855,52899,52942,52986,53030,53073,53161,53204,53248,53291,53335,53379,53422,53509,53684,53706,53727,53771,53815,53858,53880,53902,53924,53945,53967,53989,54011,54033,54120,54207,54229,54251,54294,54316,54338,54360,54381,54556,54599,54643,54730,54774,54796,54817,54905,54948,54992,55036,55079,55123,55166,55254,55275,55297,55319,55341,55363,55384,55406,55428,55472,55515,55559,55602,55624,55690,55711,55777,55799,55820,55842,55864,55886,55908,55929,55951,55973,55995,56017,56038,56060,56082,56104,56126,56147,56169,56191,56213,56235,56256,56278,56300,56322,56344,56387,56431,56474,58742,58829,58916,59004,59091,59178,59265,60661,61358,62056,63451,64672,64759,64847,64893,64915,64937,64959,64980,65002,65024,65046,65068,65089,65111,65155,65370,65893,66416,66940,67288,67637,67812,67899,67986,68161,69207,69294,69381,69556,69905,70079,70254,71823,71867,71911,71954,71998,72041,72085,72129,72172,72216,72259,72303,72347,72390,72434,72477,72521,72565,72608,72652,72695,72739,72783,72826,72870,72913,72957,73001,73044,73088,73131,73219,73240,73262,73284,73306,73349,73393,73415,73437,73480,73567,73611,73655,73698,73742,73764,73786,73829,73916,73938,73960,73982,74004,74047,74091,74113,74134,74178,74265,74287,74309,74331,74352,74396,74440,74461,74483,74527,74549,74570,74614,74658,74701,74745,74788,74810,74832,74876,74963,75006,75050,75094,75137,75159,75181,75203,75224,75246,75268,75290,75312,75399,75486,75530,75573,75661,75835,75857,75879,75922,75966,76009,76031,76053,76097,76140,76184,76271,76358,76402,76445,76489,76533,76554,76576,76620,76642,76663,76685,76707,76751,76794,76838,76881,76903,76969,76990,77056,77099,77143,77165,77187,77230,77274,77317,77339,77361,77383,77405,77579,77601,77623,77666,77754,77797,77841,77928,77972,78015,78059,78102,78146,78190,78277,78320,78451,78495,78538,78582,78626,78713,78735,78778,78800,78822,78844,78974,78996,79062,79083,79149,79171,79192,79214,79236,79280,79323,79345,79411,79432,79454,79476,79498,79541,79585,79629,79672,79694,79716,79738,79759,79781,79803,79825,79847,79890,79934,79977,80021,80065,80108,80130,80152,80174,80195,80239,80283,80326,80370,80392,80413,80435,80457,80479,80501,80522,80544,80588,80631,80719,80740,80762,80784,80806,80828,80893,80915,80937,80958,80980,81024,81067,81111,81155,81242,81329,81416,81460,81504,81547,81591,81765,81940,82114,82463,82637,82812,82986,83161,83335,83509,84033,84207,84381,95544,106707,107408,107582,107754,107928,108277,108803,108977,109152,109326,109498,109672,110021,110544,110719,111067,111591,111940,112288,112463,112812,113335,113509,113858,114381,114730,114905,115079,115169,115257,115344,115431,115605,115954,116129,116303,116477,116652,117001,117044,117088,117132,117175,117219,117262,117306,117350,117524,117568,117611,117655,117698,117742,117786,117829,117873,127466,136012,136187,136710,136884,137059,137408,137582,137757,137931,140195,140544,140719,140893,141242,141416,141591,141765,141940,162521,162695,162870,163044,163916,164091,164265,164440,165312,165486,165661,165835,166707,166881,167056,167230,167405,167928,168102,168277,168451,168626,169498,169672,169847,170021,170893,171067,171242,171416,172288,172463,172637,172812,172986,173161,173335,173509,173684,173858,174033,174207,175079,175254,175428,175602,176129,176216,176303,176390,176474,176477,176499,176521,176543,176565,176586,176608,176630,176652,176823,176998,177521,178044,178567,178916,179265,179440,179614,179788,180661,180835,181009,181184,182056,182405,182754,182928,183102,183277,183451,184847,187466,187553,196009,207172,218335,237870,243451,243800,244149,244498,244847,245024,245195,245370,245721,246067,246242,246591,246940,247288,247637,247812,247986,248161,248509,248684,249033,249384,249559,249730,249907,250079,250428,250779,250951,251126,251303,251649,251823,251998,252172,252347,252695,252870,253044,253219,253393,253567,253742,253919,254265,254440,254614,254963,255140,255312,255489,255661,255835,256009,256184,256358,256533,256881,257230,257405,257579,257756,257928,258102,258277,258451,258626,258800,258803,258977,259149,259152,259323,259413,259500,259588,259672,259847,260021,260195,260547,260809,261593,261942,262117,262463,262812,262986,263338,263512,263861,264210,264381,264559,264907,265079,265256,265777,266126,266474,266823,267172,267347,267521,267695,268393,268567,268916,269091,269265,269440,269614,269788,269876,269963,270137,270312,270486,270835,271009,271184,271358,272056,272754,273277,273451,273974,274149,274323,274498,274672,275021,275195,275370,275544,275719,275893,276067,276591,276765,276940,277288,277463,277637,277812,277986,278161,278335,278509,278684,278858,279556,279730,279905,279992,280079,280254,280428,280602,280777,280951,281126,281300,281474,281649,281998,282172,282347,282521,283916,284614,284788,284963,285137,285312,286707,287405,287579,287754,287928,288102,290021,290544,290893,292288,292986,293161,293335,293684,294207,294381,294730,294905,295079,295602,295777,296126,296300,296474,296649,296823,296998,297347,297521,297695,297870,298044,298219,298393,298567,298742,298916,299091,299265,301009,301358,301707,302056,303800,304149,304411,304672,304847,305021,305108,305195,306067,306242,306940,307114,307463,307637,309817,310624,312324,312383,313336,313365,314321,317283,323382
DistanceSpacing: 1
BeatDivisor: 4
GridSize: 32
TimelineZoom: 2

[Metadata]
Title:The Everlasting Guilty Crown
TitleUnicode:The Everlasting Guilty Crown
Artist:EGOIST
ArtistUnicode:EGOIST
Creator:JUDYDANNY
Version:Taiko Crown
Source:ギルティクラウン
Tags:Taiko chelly ryo supercell opening
BeatmapID:1430707
BeatmapSetID:658600

[Difficulty]
HPDrainRate:6
CircleSize:7
OverallDifficulty:6
ApproachRate:10
SliderMultiplier:1.4
SliderTickRate:2

[Events]
//Background and Video events
0,0,"gb.jpg",0,120
//Break Periods
//Storyboard Layer 0 (Background)
//Storyboard Layer 1 (Fail)
//Storyboard Layer 2 (Pass)
//Storyboard Layer 3 (Foreground)
//Storyboard Sound Samples

[TimingPoints]
664,348.837209302326,4,1,0,60,1,0
6158,-100,4,1,0,70,0,0
28483,-100,4,1,0,80,0,0
49414,-100,4,1,0,50,0,0
50111,-100,4,1,0,60,0,0
50547,-100,4,1,0,70,0,0
50809,-100,4,1,0,90,0,0
71739,-100,4,1,0,50,0,0
72786,-100,4,1,0,70,0,0
73134,-100,4,1,0,95,0,1
95460,-100,4,1,0,60,0,0
106623,-100,4,1,0,70,0,0
161041,-100,4,1,0,50,0,0
161739,-100,4,1,0,60,0,0
162175,-100,4,1,0,70,0,0
162437,-100,4,1,0,90,0,0
183367,-100,4,1,0,50,0,0
184414,-100,4,1,0,70,0,0
184762,-100,4,1,0,95,0,1
207175,-100,4,1,0,50,0,0
207183,348.837209302326,4,1,0,50,1,8
207531,-133.333333333333,4,1,0,50,0,0
217560,-133.333333333333,4,1,0,55,0,0
218258,-133.333333333333,4,1,0,60,0,0
229421,-133.333333333333,4,1,0,65,0,0
237873,348.837209302326,4,1,0,70,1,0
243541,-142.857142857143,4,1,0,60,0,0
264384,-100,4,1,0,65,0,0
265780,-100,4,1,0,30,0,0
266041,-100,4,1,0,75,0,0
266477,-100,4,1,0,95,0,1
310431,387.096774193548,4,1,0,40,1,9
310622,387.096774193548,4,1,0,40,1,0
310651,454.545454545455,4,1,0,30,1,8
311560,472.44094488189,4,1,0,30,1,8
311560,-98.0392156862745,4,1,0,30,0,8
312445,461.538461538462,4,1,0,30,1,0
312445,-109.89010989011,4,1,0,30,0,0
313396,571.428571428571,4,1,0,30,1,8
313396,-90.0900900900901,4,1,0,30,0,0
314467,508.474576271186,4,1,0,30,1,0
314467,-109.89010989011,4,1,0,30,0,0
314721,535.714285714286,4,1,0,30,1,8
314721,-107.52688172043,4,1,0,30,0,8
314988,600,4,1,0,30,1,8
314988,-98.0392156862745,4,1,0,30,0,8
315288,659.340659340659,4,1,0,30,1,8
315288,-91.743119266055,4,1,0,30,0,8
315617,652.173913043478,4,1,0,30,1,8
315617,-103.092783505155,4,1,0,30,0,8
315943,714.285714285714,4,1,0,30,1,8
315943,-96.1538461538461,4,1,0,30,0,8
316300,789.473684210526,4,1,0,30,1,8
316300,-90.0900900900901,4,1,0,30,0,8
317385,750,4,1,0,30,1,0

[HitObjects]
256,208,664,5,0,0:0:0:0:
272,224,838,1,0,0:0:0:0:
256,208,1187,1,0,0:0:0:0:
256,208,1361,1,8,0:0:0:0:
256,208,1710,5,0,0:0:0:0:
256,208,1884,1,0,0:0:0:0:
256,208,2233,1,0,0:0:0:0:
256,208,2408,1,8,0:0:0:0:
256,208,2757,1,0,0:0:0:0:
256,208,2931,1,0,0:0:0:0:
272,208,3454,5,0,0:0:0:0:
272,208,3629,1,0,0:0:0:0:
272,208,3977,1,0,0:0:0:0:
272,208,4152,1,8,0:0:0:0:
272,208,4501,5,0,0:0:0:0:
272,208,4675,1,0,0:0:0:0:
272,208,4850,1,8,0:0:0:0:
272,208,5024,1,0,0:0:0:0:
272,208,5198,1,8,0:0:0:0:
272,208,5547,5,0,0:0:0:0:
272,208,5722,1,0,0:0:0:0:
272,208,6245,5,4,0:0:0:0:
272,208,6419,1,0,0:0:0:0:
272,208,6594,1,8,0:0:0:0:
272,208,6768,1,8,0:0:0:0:
272,208,7291,1,0,0:0:0:0:
272,208,7466,1,0,0:0:0:0:
272,208,7640,1,0,0:0:0:0:
272,208,7815,1,8,0:0:0:0:
272,208,8338,1,8,0:0:0:0:
272,208,8512,1,8,0:0:0:0:
272,208,8687,1,0,0:0:0:0:
272,208,8861,1,8,0:0:0:0:
272,208,9036,1,0,0:0:0:0:
272,208,9210,1,0,0:0:0:0:
272,208,9384,1,8,0:0:0:0:
272,208,9559,1,8,0:0:0:0:
272,208,10082,1,0,0:0:0:0:
272,208,10257,1,0,0:0:0:0:
272,208,10431,1,0,0:0:0:0:
272,208,10605,1,8,0:0:0:0:
272,208,11129,1,8,0:0:0:0:
272,208,11303,1,8,0:0:0:0:
272,208,11477,1,8,0:0:0:0:
272,208,11652,1,8,0:0:0:0:
272,208,11826,1,0,0:0:0:0:
272,208,12001,1,0,0:0:0:0:
272,208,12175,1,8,0:0:0:0:
272,208,12350,1,8,0:0:0:0:
272,208,12873,1,0,0:0:0:0:
272,208,13047,1,0,0:0:0:0:
272,208,13222,1,0,0:0:0:0:
272,208,13396,1,8,0:0:0:0:
272,208,13919,1,8,0:0:0:0:
272,208,14094,1,8,0:0:0:0:
272,208,14268,1,0,0:0:0:0:
272,208,14443,1,8,0:0:0:0:
272,208,14617,1,0,0:0:0:0:
272,208,14791,1,0,0:0:0:0:
272,208,14966,1,8,0:0:0:0:
272,208,15140,1,8,0:0:0:0:
272,208,15664,1,0,0:0:0:0:
272,208,15838,1,0,0:0:0:0:
272,208,16012,1,0,0:0:0:0:
272,208,16187,1,8,0:0:0:0:
272,208,16536,1,0,0:0:0:0:
272,208,16710,1,8,0:0:0:0:
272,208,16884,1,0,0:0:0:0:
272,208,17059,1,8,0:0:0:0:
272,208,17233,1,8,0:0:0:0:
272,208,17408,1,0,0:0:0:0:
272,208,17582,1,0,0:0:0:0:
272,208,17757,1,8,0:0:0:0:
272,208,17931,1,8,0:0:0:0:
272,208,18454,1,0,0:0:0:0:
272,208,18629,1,0,0:0:0:0:
272,208,18803,1,0,0:0:0:0:
272,208,18977,1,8,0:0:0:0:
272,208,19501,1,8,0:0:0:0:
272,208,19675,1,0,0:0:0:0:
272,208,19850,1,8,0:0:0:0:
272,208,20024,1,8,0:0:0:0:
272,208,20198,1,0,0:0:0:0:
272,208,20373,1,0,0:0:0:0:
272,208,20547,1,8,0:0:0:0:
272,208,20722,1,8,0:0:0:0:
272,208,21245,1,0,0:0:0:0:
272,208,21419,1,0,0:0:0:0:
272,208,21594,1,0,0:0:0:0:
272,208,21768,1,8,0:0:0:0:
272,208,22291,1,8,0:0:0:0:
272,208,22466,1,8,0:0:0:0:
272,208,22640,1,8,0:0:0:0:
272,208,22815,1,8,0:0:0:0:
272,208,22989,1,0,0:0:0:0:
272,208,23164,1,0,0:0:0:0:
272,208,23338,1,8,0:0:0:0:
272,208,23512,1,8,0:0:0:0:
272,208,24036,1,0,0:0:0:0:
272,208,24210,1,0,0:0:0:0:
272,208,24384,1,0,0:0:0:0:
272,208,24559,1,8,0:0:0:0:
272,208,25082,1,8,0:0:0:0:
272,208,25257,1,8,0:0:0:0:
272,208,25431,1,0,0:0:0:0:
272,208,25605,1,8,0:0:0:0:
272,208,25780,1,0,0:0:0:0:
272,208,25954,1,0,0:0:0:0:
272,208,26129,1,8,0:0:0:0:
272,208,26303,1,8,0:0:0:0:
160,96,26826,1,0,0:0:0:0:
160,96,27001,1,0,0:0:0:0:
160,96,27175,1,8,0:0:0:0:
160,96,27350,1,8,0:0:0:0:
160,96,27524,1,0,0:0:0:0:
128,64,27698,1,8,0:0:0:0:
128,64,27873,1,0,0:0:0:0:
128,64,27960,1,0,0:0:0:0:
128,96,28047,1,0,0:0:0:0:
128,96,28134,1,0,0:0:0:0:
128,96,28222,1,8,0:0:0:0:
160,96,28570,5,4,0:0:0:0:
160,96,28919,1,0,0:0:0:0:
160,96,29094,1,8,0:0:0:0:
160,96,29268,1,0,0:0:0:0:
160,96,29617,1,0,0:0:0:0:
160,96,29791,1,8,0:0:0:0:
160,64,29879,1,8,0:0:0:0:
160,96,29966,1,0,0:0:0:0:
160,96,30140,1,8,0:0:0:0:
160,96,30315,1,0,0:0:0:0:
160,96,30664,5,8,0:0:0:0:
160,96,30838,5,8,0:0:0:0:
160,96,31012,5,0,0:0:0:0:
160,96,31187,5,8,0:0:0:0:
160,96,31361,5,0,0:0:0:0:
160,96,31710,1,0,0:0:0:0:
160,96,31884,1,8,0:0:0:0:
160,64,32059,1,0,0:0:0:0:
160,64,32146,1,0,0:0:0:0:
160,0,32233,1,8,0:0:0:0:
160,96,32408,1,0,0:0:0:0:
160,96,32582,1,8,0:0:0:0:
160,64,32669,1,8,0:0:0:0:
160,96,32757,1,0,0:0:0:0:
160,96,32931,1,8,0:0:0:0:
160,96,33105,1,0,0:0:0:0:
160,96,33454,5,8,0:0:0:0:
160,96,33629,5,8,0:0:0:0:
160,96,33803,5,0,0:0:0:0:
160,32,33977,5,8,0:0:0:0:
160,32,34065,5,8,0:0:0:0:
160,96,34152,5,0,0:0:0:0:
192,96,34501,1,0,0:0:0:0:
192,96,34675,1,0,0:0:0:0:
160,96,34762,1,0,0:0:0:0:
160,32,34850,1,8,0:0:0:0:
160,96,35198,1,0,0:0:0:0:
160,32,35373,1,8,0:0:0:0:
160,32,35460,1,8,0:0:0:0:
160,64,35547,1,0,0:0:0:0:
160,32,35722,1,8,0:0:0:0:
160,32,35896,1,0,0:0:0:0:
128,64,36070,1,0,0:0:0:0:
192,32,36158,1,0,0:0:0:0:
160,32,36245,5,8,0:0:0:0:
160,32,36419,5,0,0:0:0:0:
192,32,36594,5,8,0:0:0:0:
160,96,36768,5,8,0:0:0:0:
128,32,36855,1,8,0:0:0:0:
160,96,36943,5,0,0:0:0:0:
160,32,37204,1,0,0:0:0:0:
160,32,37291,1,8,0:0:0:0:
160,32,37466,1,0,0:0:0:0:
160,32,37640,1,8,0:0:0:0:
160,32,37902,1,8,0:0:0:0:
160,32,37989,1,0,0:0:0:0:
160,64,38164,1,8,0:0:0:0:
160,96,38338,1,0,0:0:0:0:
160,64,38600,1,0,0:0:0:0:
160,96,38687,1,8,0:0:0:0:
160,32,38861,1,0,0:0:0:0:
160,96,39036,5,8,0:0:0:0:
160,32,39210,5,0,0:0:0:0:
192,32,39297,5,0,0:0:0:0:
160,96,39384,5,8,0:0:0:0:
160,64,39559,5,8,0:0:0:0:
160,96,39733,5,4,0:0:0:0:
192,32,40082,1,8,0:0:0:0:
192,32,40257,1,8,0:0:0:0:
160,64,40431,1,0,0:0:0:0:
160,64,40780,1,0,0:0:0:0:
192,32,40954,1,8,0:0:0:0:
192,0,41041,1,8,0:0:0:0:
160,64,41129,1,0,0:0:0:0:
160,32,41303,1,8,0:0:0:0:
160,32,41477,1,0,0:0:0:0:
160,32,41826,5,8,0:0:0:0:
160,32,42001,5,0,0:0:0:0:
160,32,42175,5,8,0:0:0:0:
192,32,42350,5,8,0:0:0:0:
160,64,42524,5,0,0:0:0:0:
160,64,42873,1,0,0:0:0:0:
160,64,43047,1,8,0:0:0:0:
160,64,43222,1,0,0:0:0:0:
160,64,43309,1,0,0:0:0:0:
160,32,43396,1,8,0:0:0:0:
160,64,43570,1,0,0:0:0:0:
160,32,43745,1,8,0:0:0:0:
160,32,43832,1,8,0:0:0:0:
160,32,43919,1,0,0:0:0:0:
160,32,44094,1,8,0:0:0:0:
160,32,44268,1,0,0:0:0:0:
160,32,44443,1,8,0:0:0:0:
160,64,44617,5,0,0:0:0:0:
160,32,44704,1,0,0:0:0:0:
160,0,44791,5,0,0:0:0:0:
128,32,44966,1,8,0:0:0:0:
192,32,45140,1,8,0:0:0:0:
160,64,45315,1,0,0:0:0:0:
160,64,45664,1,8,0:0:0:0:
192,32,45838,1,0,0:0:0:0:
192,32,46012,1,0,0:0:0:0:
192,32,46361,1,8,0:0:0:0:
192,32,46536,1,0,0:0:0:0:
160,64,46710,1,0,0:0:0:0:
160,32,46797,1,0,0:0:0:0:
192,32,46884,1,8,0:0:0:0:
160,64,47059,1,0,0:0:0:0:
192,32,47408,5,8,0:0:0:0:
192,32,47582,5,0,0:0:0:0:
192,32,47757,5,8,0:0:0:0:
192,32,47931,5,8,0:0:0:0:
160,32,48018,1,8,0:0:0:0:
160,64,48105,5,0,0:0:0:0:
192,0,48280,1,0,0:0:0:0:
160,64,48454,1,8,0:0:0:0:
160,32,48629,1,0,0:0:0:0:
160,64,48803,1,0,0:0:0:0:
160,0,48890,1,0,0:0:0:0:
192,32,48977,1,0,0:0:0:0:
160,32,49152,1,8,0:0:0:0:
192,0,49239,1,8,0:0:0:0:
160,32,49326,1,8,0:0:0:0:
160,64,49501,1,0,0:0:0:0:
160,64,50024,1,8,0:0:0:0:
160,64,50547,1,8,0:0:0:0:
160,64,50896,5,4,0:0:0:0:
160,32,51158,1,0,0:0:0:0:
256,192,51245,1,8,0:0:0:0:
160,32,51419,1,0,0:0:0:0:
160,32,51768,1,8,0:0:0:0:
160,32,51943,1,0,0:0:0:0:
128,32,52117,1,8,0:0:0:0:
160,32,52204,1,8,0:0:0:0:
160,32,52291,1,0,0:0:0:0:
160,32,52466,1,0,0:0:0:0:
256,192,52640,1,8,0:0:0:0:
160,32,52815,1,0,0:0:0:0:
160,32,52902,1,0,0:0:0:0:
256,192,52989,1,0,0:0:0:0:
160,32,53164,1,8,0:0:0:0:
160,64,53251,1,8,0:0:0:0:
256,192,53338,1,0,0:0:0:0:
160,32,53512,1,8,0:0:0:0:
256,192,53687,1,0,0:0:0:0:
160,96,53861,1,0,0:0:0:0:
256,192,54036,1,8,0:0:0:0:
160,32,54210,1,8,0:0:0:0:
160,32,54559,1,0,0:0:0:0:
256,192,54733,1,8,0:0:0:0:
160,32,54908,1,0,0:0:0:0:
160,32,54995,1,0,0:0:0:0:
160,32,55082,1,8,0:0:0:0:
160,32,55257,1,0,0:0:0:0:
256,192,55431,1,8,0:0:0:0:
160,32,55605,1,0,0:0:0:0:
160,32,55780,1,8,0:0:0:0:
160,32,55867,1,8,0:0:0:0:
160,32,55954,1,0,0:0:0:0:
192,32,56041,1,0,0:0:0:0:
256,192,56129,1,8,0:0:0:0:
160,32,56303,1,8,0:0:0:0:
160,32,56390,1,8,0:0:0:0:
160,32,56477,5,0,0:0:0:0:
160,128,56739,1,0,0:0:0:0:
256,192,56826,1,8,0:0:0:0:
160,128,57001,1,8,0:0:0:0:
160,128,57350,1,8,0:0:0:0:
256,192,57524,1,0,0:0:0:0:
160,0,57698,1,8,0:0:0:0:
160,32,57786,1,8,0:0:0:0:
256,192,57873,1,0,0:0:0:0:
160,64,58047,1,0,0:0:0:0:
160,64,58222,1,8,0:0:0:0:
160,64,58396,1,0,0:0:0:0:
192,0,58483,1,0,0:0:0:0:
256,192,58570,1,8,0:0:0:0:
160,64,58745,1,8,0:0:0:0:
160,64,58832,1,8,0:0:0:0:
256,192,58919,1,0,0:0:0:0:
160,64,59007,1,0,0:0:0:0:
160,64,59094,1,0,0:0:0:0:
160,64,59268,1,8,0:0:0:0:
160,64,59443,1,0,0:0:0:0:
160,64,59617,1,8,0:0:0:0:
160,64,59791,1,8,0:0:0:0:
160,64,60140,1,8,0:0:0:0:
256,192,60315,1,0,0:0:0:0:
160,64,60489,1,8,0:0:0:0:
160,64,60664,1,0,0:0:0:0:
160,64,60751,1,8,0:0:0:0:
160,64,60838,1,0,0:0:0:0:
160,64,60925,1,0,0:0:0:0:
160,64,61012,1,8,0:0:0:0:
160,64,61187,1,0,0:0:0:0:
256,192,61361,1,8,0:0:0:0:
160,64,61448,1,8,0:0:0:0:
160,64,61536,1,0,0:0:0:0:
160,64,61623,1,0,0:0:0:0:
256,192,61710,1,8,0:0:0:0:
160,64,61884,1,0,0:0:0:0:
160,64,62059,5,8,0:0:0:0:
224,0,62320,1,8,0:0:0:0:
256,192,62408,1,0,0:0:0:0:
160,64,62582,1,8,0:0:0:0:
160,64,62931,1,8,0:0:0:0:
160,64,63105,1,0,0:0:0:0:
160,64,63280,1,8,0:0:0:0:
160,64,63367,1,8,0:0:0:0:
160,64,63454,1,0,0:0:0:0:
160,64,63629,1,0,0:0:0:0:
256,192,63803,1,8,0:0:0:0:
160,64,63977,1,0,0:0:0:0:
160,64,64065,1,0,0:0:0:0:
256,192,64152,1,8,0:0:0:0:
160,64,64326,1,0,0:0:0:0:
256,192,64501,1,8,0:0:0:0:
160,64,64675,1,8,0:0:0:0:
160,64,64762,1,8,0:0:0:0:
160,64,64850,1,0,0:0:0:0:
160,32,65024,1,0,0:0:0:0:
256,192,65198,1,8,0:0:0:0:
160,64,65373,1,0,0:0:0:0:
160,64,65722,1,0,0:0:0:0:
256,192,65896,1,8,0:0:0:0:
160,64,66070,1,8,0:0:0:0:
256,192,66245,1,0,0:0:0:0:
160,64,66419,1,0,0:0:0:0:
160,64,66507,1,0,0:0:0:0:
256,192,66594,1,8,0:0:0:0:
160,64,66768,1,8,0:0:0:0:
256,192,66943,1,0,0:0:0:0:
160,64,67030,1,8,0:0:0:0:
160,64,67117,1,0,0:0:0:0:
256,192,67291,1,8,0:0:0:0:
160,64,67466,1,8,0:0:0:0:
160,64,67553,1,8,0:0:0:0:
256,192,67640,5,0,0:0:0:0:
160,32,67815,1,0,0:0:0:0:
256,192,67989,1,8,0:0:0:0:
160,64,68164,1,8,0:0:0:0:
160,64,68512,1,0,0:0:0:0:
256,192,68687,1,8,0:0:0:0:
160,64,68861,1,0,0:0:0:0:
160,64,68948,1,0,0:0:0:0:
256,192,69036,1,0,0:0:0:0:
160,64,69210,1,0,0:0:0:0:
256,192,69384,1,8,0:0:0:0:
160,64,69559,1,8,0:0:0:0:
160,64,69733,1,0,0:0:0:0:
192,32,69820,1,8,0:0:0:0:
160,64,69908,1,0,0:0:0:0:
160,0,69995,1,0,0:0:0:0:
256,192,70082,1,8,0:0:0:0:
160,64,70257,1,8,0:0:0:0:
256,192,70431,1,0,0:0:0:0:
160,32,70518,1,0,0:0:0:0:
160,64,70605,1,8,0:0:0:0:
160,64,70693,1,8,0:0:0:0:
160,64,70780,1,0,0:0:0:0:
160,64,70867,1,0,0:0:0:0:
160,64,70954,1,8,0:0:0:0:
160,64,71041,1,8,0:0:0:0:
256,192,71129,1,0,0:0:0:0:
160,64,71216,1,0,0:0:0:0:
160,64,71303,1,0,0:0:0:0:
160,64,71390,1,0,0:0:0:0:
256,192,71477,1,8,0:0:0:0:
160,64,71565,1,8,0:0:0:0:
160,64,71652,1,0,0:0:0:0:
160,64,71739,1,0,0:0:0:0:
256,192,71826,1,8,0:0:0:0:
160,64,72524,1,8,0:0:0:0:
256,192,73222,5,4,0:0:0:0:
192,192,73570,1,8,0:0:0:0:
192,192,73745,1,0,0:0:0:0:
192,192,73919,1,8,0:0:0:0:
192,192,74007,1,8,0:0:0:0:
192,192,74094,1,0,0:0:0:0:
192,192,74268,1,8,0:0:0:0:
224,160,74355,1,8,0:0:0:0:
192,160,74443,1,8,0:0:0:0:
256,192,74617,1,0,0:0:0:0:
160,96,74704,1,0,0:0:0:0:
192,128,74791,1,8,0:0:0:0:
150,61,74879,1,8,0:0:0:0:
150,61,74966,1,0,0:0:0:0:
150,61,75140,1,8,0:0:0:0:
160,64,75315,1,0,0:0:0:0:
150,61,75402,1,8,0:0:0:0:
192,128,75489,1,0,0:0:0:0:
192,128,75664,1,8,0:0:0:0:
192,128,75838,1,0,0:0:0:0:
153,83,75925,1,0,0:0:0:0:
155,93,76012,1,8,0:0:0:0:
155,93,76187,1,0,0:0:0:0:
192,128,76361,1,8,0:0:0:0:
157,45,76448,1,8,0:0:0:0:
157,45,76536,1,8,0:0:0:0:
157,45,76710,1,0,0:0:0:0:
157,45,76797,1,8,0:0:0:0:
192,128,76884,1,0,0:0:0:0:
192,96,76972,1,0,0:0:0:0:
192,128,77059,1,8,0:0:0:0:
173,82,77233,1,8,0:0:0:0:
173,82,77320,1,8,0:0:0:0:
192,96,77408,1,0,0:0:0:0:
192,96,77582,1,0,0:0:0:0:
192,96,77757,1,8,0:0:0:0:
192,96,77931,1,0,0:0:0:0:
173,82,78018,1,0,0:0:0:0:
192,96,78105,1,0,0:0:0:0:
192,96,78280,1,8,0:0:0:0:
192,96,78367,1,8,0:0:0:0:
192,96,78454,1,0,0:0:0:0:
168,50,78541,1,0,0:0:0:0:
192,96,78629,1,8,0:0:0:0:
192,96,78803,5,4,0:0:0:0:
192,96,79152,1,8,0:0:0:0:
180,53,79326,1,0,0:0:0:0:
192,96,79501,1,8,0:0:0:0:
180,53,79588,1,8,0:0:0:0:
192,96,79675,1,0,0:0:0:0:
180,53,79762,1,0,0:0:0:0:
192,96,79850,1,8,0:0:0:0:
192,96,80024,1,8,0:0:0:0:
192,96,80111,1,8,0:0:0:0:
192,96,80198,1,0,0:0:0:0:
192,96,80373,1,0,0:0:0:0:
192,96,80547,1,8,0:0:0:0:
192,96,80722,1,0,0:0:0:0:
192,96,80809,1,0,0:0:0:0:
192,96,80896,1,8,0:0:0:0:
173,24,80983,1,8,0:0:0:0:
192,96,81070,1,0,0:0:0:0:
192,96,81245,1,8,0:0:0:0:
192,96,81419,1,0,0:0:0:0:
192,64,81507,1,8,0:0:0:0:
192,96,81594,1,0,0:0:0:0:
192,96,81768,1,8,0:0:0:0:
192,96,81943,1,8,0:0:0:0:
192,96,82117,1,0,0:0:0:0:
192,96,82204,1,0,0:0:0:0:
192,96,82291,1,0,0:0:0:0:
192,96,82379,1,0,0:0:0:0:
192,96,82466,1,8,0:0:0:0:
192,96,82640,1,8,0:0:0:0:
192,96,82815,1,8,0:0:0:0:
192,64,82902,1,8,0:0:0:0:
192,96,82989,1,0,0:0:0:0:
188,24,83164,1,0,0:0:0:0:
192,96,83251,1,0,0:0:0:0:
192,96,83338,1,8,0:0:0:0:
192,96,83512,1,0,0:0:0:0:
192,96,83687,1,8,0:0:0:0:
192,96,83774,1,0,0:0:0:0:
192,96,83861,1,0,0:0:0:0:
160,96,83948,1,0,0:0:0:0:
192,96,84036,1,8,0:0:0:0:
192,96,84210,1,8,0:0:0:0:
192,96,84384,1,4,0:0:0:0:
192,128,84733,1,8,0:0:0:0:
192,128,84908,1,0,0:0:0:0:
192,128,85082,1,8,0:0:0:0:
192,128,85169,1,8,0:0:0:0:
192,128,85257,1,0,0:0:0:0:
192,128,85344,1,0,0:0:0:0:
192,128,85431,1,8,0:0:0:0:
192,96,85605,1,8,0:0:0:0:
192,64,85693,1,8,0:0:0:0:
192,96,85780,1,0,0:0:0:0:
192,64,85954,1,0,0:0:0:0:
192,128,86129,1,8,0:0:0:0:
192,96,86303,1,0,0:0:0:0:
192,32,86390,1,0,0:0:0:0:
192,96,86477,1,8,0:0:0:0:
192,96,86652,1,0,0:0:0:0:
192,96,86826,1,8,0:0:0:0:
192,96,87001,1,8,0:0:0:0:
192,32,87088,1,8,0:0:0:0:
192,96,87175,1,0,0:0:0:0:
192,96,87350,1,0,0:0:0:0:
192,96,87524,1,8,0:0:0:0:
192,96,87698,1,0,0:0:0:0:
171,31,87786,1,0,0:0:0:0:
192,96,87873,1,8,0:0:0:0:
192,96,88047,1,0,0:0:0:0:
192,96,88222,1,8,0:0:0:0:
192,96,88309,1,8,0:0:0:0:
192,96,88396,1,8,0:0:0:0:
159,44,88483,1,8,0:0:0:0:
192,96,88570,1,0,0:0:0:0:
192,0,88745,1,0,0:0:0:0:
192,128,88919,1,8,0:0:0:0:
192,128,89094,1,0,0:0:0:0:
192,128,89181,1,8,0:0:0:0:
192,128,89268,1,0,0:0:0:0:
192,128,89443,1,8,0:0:0:0:
192,96,89530,1,8,0:0:0:0:
192,128,89617,1,0,0:0:0:0:
192,96,89704,1,0,0:0:0:0:
192,128,89791,1,8,0:0:0:0:
192,128,89966,1,4,0:0:0:0:
160,96,90315,1,8,0:0:0:0:
160,96,90489,1,0,0:0:0:0:
160,96,90576,1,0,0:0:0:0:
160,96,90664,1,0,0:0:0:0:
160,96,90838,1,0,0:0:0:0:
160,96,91012,1,8,0:0:0:0:
160,96,91187,1,0,0:0:0:0:
160,96,91274,1,0,0:0:0:0:
160,96,91361,1,8,0:0:0:0:
159,18,91536,1,0,0:0:0:0:
160,96,91710,1,8,0:0:0:0:
160,96,91884,1,0,0:0:0:0:
160,96,91972,1,8,0:0:0:0:
160,96,92059,1,0,0:0:0:0:
160,96,92233,1,0,0:0:0:0:
160,96,92408,1,8,0:0:0:0:
160,96,92582,1,8,0:0:0:0:
160,96,92757,1,0,0:0:0:0:
160,96,93105,1,8,0:0:0:0:
160,96,93280,1,8,0:0:0:0:
160,96,93367,1,8,0:0:0:0:
160,96,93454,1,0,0:0:0:0:
160,96,93629,1,0,0:0:0:0:
160,96,93803,1,8,0:0:0:0:
160,96,93977,1,0,0:0:0:0:
160,96,94152,1,8,0:0:0:0:
146,40,94326,1,8,0:0:0:0:
160,96,94675,1,8,0:0:0:0:
160,96,95024,1,8,0:0:0:0:
160,96,95198,1,8,0:0:0:0:
160,96,95547,5,4,0:0:0:0:
166,61,95722,1,0,0:0:0:0:
166,61,95896,1,8,0:0:0:0:
166,61,96245,1,8,0:0:0:0:
166,61,96594,1,0,0:0:0:0:
166,61,96768,1,0,0:0:0:0:
166,61,96943,1,8,0:0:0:0:
166,61,97291,1,8,0:0:0:0:
166,61,97640,1,8,0:0:0:0:
166,61,97989,1,8,0:0:0:0:
146,45,98164,1,8,0:0:0:0:
166,61,98338,1,0,0:0:0:0:
166,61,98512,1,0,0:0:0:0:
166,61,98687,1,8,0:0:0:0:
166,61,99036,1,8,0:0:0:0:
166,61,99384,1,0,0:0:0:0:
166,61,99559,1,0,0:0:0:0:
166,61,99733,1,8,0:0:0:0:
166,61,100082,1,8,0:0:0:0:
138,77,100431,1,8,0:0:0:0:
165,37,100780,1,8,0:0:0:0:
165,37,100954,1,8,0:0:0:0:
165,37,101041,1,8,0:0:0:0:
166,61,101129,1,0,0:0:0:0:
166,61,101303,1,0,0:0:0:0:
165,37,101477,1,8,0:0:0:0:
165,37,101826,1,8,0:0:0:0:
166,61,102175,1,0,0:0:0:0:
166,61,102350,1,0,0:0:0:0:
165,37,102524,1,8,0:0:0:0:
165,37,102873,1,8,0:0:0:0:
165,37,103222,1,8,0:0:0:0:
165,37,103570,1,8,0:0:0:0:
165,37,103745,1,8,0:0:0:0:
166,61,103919,1,0,0:0:0:0:
166,61,104094,1,0,0:0:0:0:
165,37,104268,1,8,0:0:0:0:
165,37,104617,1,8,0:0:0:0:
166,61,104966,1,0,0:0:0:0:
166,61,105140,1,0,0:0:0:0:
165,37,105315,1,8,0:0:0:0:
165,37,105664,1,8,0:0:0:0:
151,36,106012,1,8,0:0:0:0:
141,25,106187,1,8,0:0:0:0:
151,36,106361,1,8,0:0:0:0:
192,192,106710,5,0,0:0:0:0:
160,32,106884,1,0,0:0:0:0:
96,96,107059,1,8,0:0:0:0:
192,128,107233,1,0,0:0:0:0:
128,96,107320,1,0,0:0:0:0:
128,96,107408,1,8,0:0:0:0:
128,96,107582,1,8,0:0:0:0:
192,128,107757,1,0,0:0:0:0:
192,128,107931,1,8,0:0:0:0:
96,96,108105,1,0,0:0:0:0:
192,128,108280,1,0,0:0:0:0:
128,96,108367,1,0,0:0:0:0:
128,96,108454,1,8,0:0:0:0:
128,96,108629,1,0,0:0:0:0:
160,32,108803,1,0,0:0:0:0:
160,32,108890,1,0,0:0:0:0:
96,96,108977,1,8,0:0:0:0:
128,96,109065,1,8,0:0:0:0:
192,128,109152,1,0,0:0:0:0:
128,96,109326,1,8,0:0:0:0:
192,128,109501,1,0,0:0:0:0:
192,128,109675,1,0,0:0:0:0:
96,96,109850,1,8,0:0:0:0:
192,160,110024,1,0,0:0:0:0:
128,96,110111,1,0,0:0:0:0:
128,96,110198,1,8,0:0:0:0:
128,96,110373,1,8,0:0:0:0:
128,96,110460,1,8,0:0:0:0:
192,160,110547,1,0,0:0:0:0:
192,160,110722,1,8,0:0:0:0:
96,96,110896,1,0,0:0:0:0:
128,32,111070,1,0,0:0:0:0:
128,96,111158,1,0,0:0:0:0:
128,96,111245,1,8,0:0:0:0:
160,64,111419,1,0,0:0:0:0:
160,32,111594,1,8,0:0:0:0:
96,96,111768,1,8,0:0:0:0:
160,32,111855,1,8,0:0:0:0:
192,160,111943,1,0,0:0:0:0:
160,32,112030,1,0,0:0:0:0:
128,96,112117,1,8,0:0:0:0:
192,160,112291,1,0,0:0:0:0:
160,32,112466,1,0,0:0:0:0:
160,32,112553,1,0,0:0:0:0:
96,96,112640,1,8,0:0:0:0:
192,160,112815,1,0,0:0:0:0:
192,32,112902,1,8,0:0:0:0:
128,96,112989,1,0,0:0:0:0:
192,32,113076,1,0,0:0:0:0:
128,96,113164,1,8,0:0:0:0:
192,160,113338,1,0,0:0:0:0:
192,160,113512,1,8,0:0:0:0:
192,128,113600,1,8,0:0:0:0:
96,96,113687,1,0,0:0:0:0:
192,160,113861,1,0,0:0:0:0:
160,32,113948,1,0,0:0:0:0:
128,96,114036,1,8,0:0:0:0:
128,96,114210,1,0,0:0:0:0:
160,0,114297,1,0,0:0:0:0:
160,0,114384,1,8,0:0:0:0:
160,64,114472,1,0,0:0:0:0:
160,32,114559,1,8,0:0:0:0:
160,32,114646,1,8,0:0:0:0:
192,160,114733,1,0,0:0:0:0:
96,96,114908,1,8,0:0:0:0:
128,128,115082,1,0,0:0:0:0:
160,32,115169,1,0,0:0:0:0:
160,32,115257,1,0,0:0:0:0:
160,32,115344,1,0,0:0:0:0:
128,128,115431,1,8,0:0:0:0:
128,128,115605,1,0,0:0:0:0:
128,96,115693,1,8,0:0:0:0:
128,128,115780,1,0,0:0:0:0:
128,96,115867,1,0,0:0:0:0:
96,96,115954,1,8,0:0:0:0:
128,64,116041,1,8,0:0:0:0:
96,96,116129,1,0,0:0:0:0:
128,96,116216,1,8,0:0:0:0:
128,96,116303,1,0,0:0:0:0:
128,96,116390,1,0,0:0:0:0:
96,96,116477,1,8,0:0:0:0:
128,96,116565,1,0,0:0:0:0:
128,96,116652,1,8,0:0:0:0:
128,96,116739,1,8,0:0:0:0:
96,96,116826,1,8,0:0:0:0:
128,64,116914,1,8,0:0:0:0:
96,96,117001,1,0,0:0:0:0:
128,96,117088,1,0,0:0:0:0:
128,128,117175,1,8,0:0:0:0:
128,96,117262,1,8,0:0:0:0:
128,128,117350,1,0,0:0:0:0:
128,96,117437,1,0,0:0:0:0:
128,128,117524,1,8,0:0:0:0:
128,96,117611,1,8,0:0:0:0:
128,128,117698,1,8,0:0:0:0:
192,192,117873,5,4,0:0:0:0:
224,160,118047,1,0,0:0:0:0:
160,128,118222,1,8,0:0:0:0:
160,128,118396,1,8,0:0:0:0:
192,192,118919,1,0,0:0:0:0:
224,160,119094,1,0,0:0:0:0:
160,128,119268,1,0,0:0:0:0:
160,128,119443,1,8,0:0:0:0:
160,128,119966,1,8,0:0:0:0:
160,128,120140,1,8,0:0:0:0:
160,128,120315,1,8,0:0:0:0:
160,128,120489,1,8,0:0:0:0:
224,160,120664,1,0,0:0:0:0:
224,160,120838,1,0,0:0:0:0:
160,128,121012,1,8,0:0:0:0:
160,128,121187,1,8,0:0:0:0:
224,160,121710,1,0,0:0:0:0:
224,160,121884,1,0,0:0:0:0:
160,96,122059,1,0,0:0:0:0:
160,96,122233,1,8,0:0:0:0:
160,96,122757,1,8,0:0:0:0:
160,96,122931,1,8,0:0:0:0:
160,96,123105,1,8,0:0:0:0:
224,160,123280,1,0,0:0:0:0:
224,160,123454,1,0,0:0:0:0:
224,160,123629,1,0,0:0:0:0:
160,96,123803,1,8,0:0:0:0:
160,96,123977,1,8,0:0:0:0:
224,160,124501,1,0,0:0:0:0:
224,160,124675,1,0,0:0:0:0:
160,96,124850,1,0,0:0:0:0:
160,96,125024,1,8,0:0:0:0:
160,96,125547,1,8,0:0:0:0:
160,96,125722,1,8,0:0:0:0:
160,96,125896,1,8,0:0:0:0:
160,96,126070,1,8,0:0:0:0:
160,96,126245,1,0,0:0:0:0:
160,96,126419,1,0,0:0:0:0:
160,96,126594,1,8,0:0:0:0:
160,96,126768,1,8,0:0:0:0:
224,160,127291,1,0,0:0:0:0:
224,160,127466,1,8,0:0:0:0:
224,160,127640,1,0,0:0:0:0:
160,96,127815,1,8,0:0:0:0:
160,96,128338,1,8,0:0:0:0:
160,96,128512,1,8,0:0:0:0:
160,96,128687,1,8,0:0:0:0:
160,96,128861,1,8,0:0:0:0:
224,160,129036,1,4,0:0:0:0:
224,160,129210,1,0,0:0:0:0:
224,160,129384,1,8,0:0:0:0:
224,160,129559,1,8,0:0:0:0:
224,160,130082,1,0,0:0:0:0:
224,160,130257,1,0,0:0:0:0:
224,160,130431,1,0,0:0:0:0:
224,160,130605,1,8,0:0:0:0:
160,64,130954,1,0,0:0:0:0:
160,64,131303,1,0,0:0:0:0:
224,160,131652,1,0,0:0:0:0:
224,160,131826,1,4,0:0:0:0:
224,160,132001,1,0,0:0:0:0:
224,160,132175,1,8,0:0:0:0:
224,160,132350,1,8,0:0:0:0:
224,160,132873,1,0,0:0:0:0:
224,160,133047,1,0,0:0:0:0:
224,160,133222,1,0,0:0:0:0:
224,160,133396,1,8,0:0:0:0:
160,64,133745,1,0,0:0:0:0:
224,160,133919,1,8,0:0:0:0:
224,160,134094,1,0,0:0:0:0:
224,160,134268,1,8,0:0:0:0:
224,160,134443,1,0,0:0:0:0:
224,160,134617,1,4,0:0:0:0:
224,160,134791,1,0,0:0:0:0:
224,160,134966,1,8,0:0:0:0:
224,160,135140,1,8,0:0:0:0:
192,64,135489,1,0,0:0:0:0:
173,70,135664,1,8,0:0:0:0:
224,160,135838,1,0,0:0:0:0:
224,160,136012,1,4,0:0:0:0:
224,160,136187,1,8,0:0:0:0:
224,160,136536,1,0,0:0:0:0:
224,160,136710,1,8,0:0:0:0:
224,160,136884,1,8,0:0:0:0:
224,160,137059,1,8,0:0:0:0:
224,160,137233,1,0,0:0:0:0:
224,160,137408,1,4,0:0:0:0:
224,160,137582,1,0,0:0:0:0:
224,160,137757,1,8,0:0:0:0:
224,160,137931,1,8,0:0:0:0:
224,160,138105,1,4,0:0:0:0:
224,160,138280,1,0,0:0:0:0:
224,160,138367,1,0,0:0:0:0:
224,160,138454,1,8,0:0:0:0:
224,160,138629,1,8,0:0:0:0:
224,160,138803,1,4,0:0:0:0:
192,96,138977,1,8,0:0:0:0:
160,32,139065,1,8,0:0:0:0:
160,32,139152,1,0,0:0:0:0:
160,32,139326,1,8,0:0:0:0:
160,0,139414,1,8,0:0:0:0:
160,32,139501,1,0,0:0:0:0:
160,32,139588,1,0,0:0:0:0:
224,160,139675,1,8,0:0:0:0:
160,32,139762,1,8,0:0:0:0:
224,128,140024,1,0,0:0:0:0:
224,96,140111,1,0,0:0:0:0:
160,96,140198,5,0,0:0:0:0:
160,96,140547,1,0,0:0:0:0:
160,96,140722,1,8,0:0:0:0:
160,96,140896,1,0,0:0:0:0:
160,64,140983,1,0,0:0:0:0:
160,64,141070,1,0,0:0:0:0:
160,96,141245,1,8,0:0:0:0:
160,96,141419,1,0,0:0:0:0:
160,96,141594,1,0,0:0:0:0:
160,96,141768,1,8,0:0:0:0:
160,64,141855,1,8,0:0:0:0:
160,96,141943,1,0,0:0:0:0:
160,96,142291,1,8,0:0:0:0:
160,96,142466,1,8,0:0:0:0:
160,96,142640,1,0,0:0:0:0:
160,96,142815,1,8,0:0:0:0:
160,96,142989,1,0,0:0:0:0:
160,96,143338,1,0,0:0:0:0:
160,96,143512,1,8,0:0:0:0:
160,64,143687,1,0,0:0:0:0:
160,32,143774,1,0,0:0:0:0:
160,64,143861,1,8,0:0:0:0:
160,96,144036,1,0,0:0:0:0:
160,96,144210,1,8,0:0:0:0:
160,64,144297,1,8,0:0:0:0:
160,96,144384,1,0,0:0:0:0:
160,96,144559,1,8,0:0:0:0:
160,96,144733,1,0,0:0:0:0:
160,96,145082,1,8,0:0:0:0:
160,96,145257,1,8,0:0:0:0:
160,96,145431,1,0,0:0:0:0:
160,32,145605,1,8,0:0:0:0:
160,64,145693,1,8,0:0:0:0:
160,96,145780,1,0,0:0:0:0:
160,32,146129,1,0,0:0:0:0:
128,64,146303,1,0,0:0:0:0:
160,96,146390,1,0,0:0:0:0:
160,96,146477,1,8,0:0:0:0:
128,64,146652,1,0,0:0:0:0:
160,96,146826,1,8,0:0:0:0:
160,32,147001,1,0,0:0:0:0:
160,32,147088,1,8,0:0:0:0:
160,64,147175,1,0,0:0:0:0:
192,32,147350,1,8,0:0:0:0:
160,32,147524,1,0,0:0:0:0:
160,32,147698,1,8,0:0:0:0:
192,32,147786,1,0,0:0:0:0:
160,32,147873,1,8,0:0:0:0:
128,64,148047,1,0,0:0:0:0:
192,32,148222,1,8,0:0:0:0:
160,96,148396,1,0,0:0:0:0:
128,32,148483,1,0,0:0:0:0:
160,96,148570,1,8,0:0:0:0:
128,32,148658,1,0,0:0:0:0:
160,32,148832,1,0,0:0:0:0:
160,32,148919,1,8,0:0:0:0:
160,32,149094,1,0,0:0:0:0:
160,32,149268,1,8,0:0:0:0:
128,32,149355,1,8,0:0:0:0:
160,32,149530,1,0,0:0:0:0:
160,32,149617,1,8,0:0:0:0:
160,64,149791,1,0,0:0:0:0:
160,96,149966,1,8,0:0:0:0:
128,64,150053,1,0,0:0:0:0:
160,64,150227,1,0,0:0:0:0:
160,96,150315,1,8,0:0:0:0:
160,32,150489,1,0,0:0:0:0:
160,96,150664,1,8,0:0:0:0:
160,32,150751,1,8,0:0:0:0:
160,32,150838,1,0,0:0:0:0:
160,64,150925,1,0,0:0:0:0:
160,96,151012,1,8,0:0:0:0:
160,64,151187,1,8,0:0:0:0:
160,96,151361,1,4,0:0:0:0:
192,32,151710,1,8,0:0:0:0:
192,32,151884,1,8,0:0:0:0:
160,64,152059,1,0,0:0:0:0:
160,64,152408,1,0,0:0:0:0:
192,32,152582,1,8,0:0:0:0:
192,0,152669,1,8,0:0:0:0:
160,64,152757,1,0,0:0:0:0:
160,32,152931,1,8,0:0:0:0:
160,32,153105,1,0,0:0:0:0:
128,96,153280,1,0,0:0:0:0:
128,96,153367,1,0,0:0:0:0:
160,32,153454,1,8,0:0:0:0:
160,32,153629,1,8,0:0:0:0:
160,32,153803,1,0,0:0:0:0:
192,32,153977,1,8,0:0:0:0:
160,64,154152,1,0,0:0:0:0:
192,32,154501,1,8,0:0:0:0:
192,32,154675,1,0,0:0:0:0:
160,32,154762,1,0,0:0:0:0:
160,64,154850,1,0,0:0:0:0:
160,32,155024,1,8,0:0:0:0:
160,64,155198,1,0,0:0:0:0:
160,32,155373,1,8,0:0:0:0:
160,32,155460,1,8,0:0:0:0:
160,32,155547,1,0,0:0:0:0:
160,32,155722,1,0,0:0:0:0:
160,32,155896,1,8,0:0:0:0:
192,32,156070,1,0,0:0:0:0:
160,64,156245,1,8,0:0:0:0:
160,32,156419,1,0,0:0:0:0:
160,32,156507,1,0,0:0:0:0:
160,32,156594,1,8,0:0:0:0:
192,32,156768,1,8,0:0:0:0:
160,64,156943,1,0,0:0:0:0:
160,64,157291,1,8,0:0:0:0:
160,128,157466,1,0,0:0:0:0:
160,128,157640,1,0,0:0:0:0:
192,32,157989,1,8,0:0:0:0:
192,32,158164,1,0,0:0:0:0:
160,64,158338,1,0,0:0:0:0:
160,32,158425,1,0,0:0:0:0:
192,32,158512,1,8,0:0:0:0:
160,64,158687,1,0,0:0:0:0:
192,64,158861,1,0,0:0:0:0:
192,32,159036,1,8,0:0:0:0:
160,64,159210,1,0,0:0:0:0:
192,32,159297,1,0,0:0:0:0:
192,32,159384,1,8,0:0:0:0:
192,32,159559,1,8,0:0:0:0:
160,64,159733,1,0,0:0:0:0:
160,0,159820,1,0,0:0:0:0:
160,32,159908,1,0,0:0:0:0:
160,64,160082,1,8,0:0:0:0:
160,32,160257,1,8,0:0:0:0:
160,0,160344,1,8,0:0:0:0:
160,64,160431,1,0,0:0:0:0:
192,32,160605,1,0,0:0:0:0:
160,32,160780,1,8,0:0:0:0:
160,32,160954,1,0,0:0:0:0:
160,32,161041,1,0,0:0:0:0:
160,64,161129,1,8,0:0:0:0:
160,64,161477,1,8,0:0:0:0:
160,64,161652,1,0,0:0:0:0:
160,64,161826,1,8,0:0:0:0:
160,32,161914,1,8,0:0:0:0:
160,64,162001,1,8,0:0:0:0:
160,32,162088,1,8,0:0:0:0:
128,128,162175,1,0,0:0:0:0:
160,64,162350,1,8,0:0:0:0:
160,64,162524,5,4,0:0:0:0:
160,32,162786,1,0,0:0:0:0:
256,192,162873,1,8,0:0:0:0:
160,32,163047,1,0,0:0:0:0:
160,32,163396,1,8,0:0:0:0:
160,32,163570,1,0,0:0:0:0:
128,32,163745,1,8,0:0:0:0:
160,0,163832,1,8,0:0:0:0:
160,32,163919,1,0,0:0:0:0:
160,32,164094,1,0,0:0:0:0:
256,192,164268,1,8,0:0:0:0:
160,32,164443,1,0,0:0:0:0:
160,32,164530,1,0,0:0:0:0:
256,192,164617,1,0,0:0:0:0:
160,32,164791,1,8,0:0:0:0:
256,192,164966,1,8,0:0:0:0:
160,32,165140,5,0,0:0:0:0:
160,64,165227,1,8,0:0:0:0:
256,192,165315,1,0,0:0:0:0:
160,32,165489,1,0,0:0:0:0:
256,192,165664,1,8,0:0:0:0:
160,32,165838,1,8,0:0:0:0:
160,32,166187,1,0,0:0:0:0:
256,192,166361,1,8,0:0:0:0:
160,32,166536,1,0,0:0:0:0:
160,32,166623,1,0,0:0:0:0:
160,32,166710,5,8,0:0:0:0:
160,32,166884,1,0,0:0:0:0:
256,192,167059,1,8,0:0:0:0:
160,32,167233,1,8,0:0:0:0:
160,32,167408,1,0,0:0:0:0:
160,32,167495,1,0,0:0:0:0:
160,32,167582,1,8,0:0:0:0:
160,32,167669,1,8,0:0:0:0:
256,192,167757,1,8,0:0:0:0:
160,32,167931,1,0,0:0:0:0:
160,32,168018,1,8,0:0:0:0:
160,32,168105,1,0,0:0:0:0:
160,32,168367,1,0,0:0:0:0:
256,192,168454,1,8,0:0:0:0:
160,128,168629,1,8,0:0:0:0:
160,128,168977,1,8,0:0:0:0:
256,192,169152,1,0,0:0:0:0:
160,0,169326,1,8,0:0:0:0:
160,32,169414,1,8,0:0:0:0:
256,192,169501,1,0,0:0:0:0:
160,64,169675,1,0,0:0:0:0:
160,64,169850,1,8,0:0:0:0:
160,64,170024,1,0,0:0:0:0:
192,0,170111,1,0,0:0:0:0:
256,192,170198,1,8,0:0:0:0:
160,64,170373,1,8,0:0:0:0:
160,64,170460,1,8,0:0:0:0:
256,192,170547,1,0,0:0:0:0:
160,64,170634,1,0,0:0:0:0:
160,64,170722,1,0,0:0:0:0:
160,64,170896,1,8,0:0:0:0:
156,44,171070,1,0,0:0:0:0:
256,192,171245,1,8,0:0:0:0:
160,64,171419,1,8,0:0:0:0:
160,64,171768,1,8,0:0:0:0:
256,192,171943,1,0,0:0:0:0:
160,64,172117,1,8,0:0:0:0:
160,32,172204,1,8,0:0:0:0:
160,64,172291,1,0,0:0:0:0:
160,64,172466,1,8,0:0:0:0:
160,64,172553,1,8,0:0:0:0:
160,64,172640,1,8,0:0:0:0:
160,64,172815,1,0,0:0:0:0:
256,192,172989,1,8,0:0:0:0:
192,64,173076,1,8,0:0:0:0:
192,64,173164,1,0,0:0:0:0:
192,64,173251,1,0,0:0:0:0:
256,192,173338,1,8,0:0:0:0:
160,64,173512,1,0,0:0:0:0:
160,64,173687,1,8,0:0:0:0:
160,32,173948,1,8,0:0:0:0:
160,32,174036,1,0,0:0:0:0:
160,32,174210,1,8,0:0:0:0:
160,64,174559,1,8,0:0:0:0:
160,64,174733,1,0,0:0:0:0:
160,64,174908,1,8,0:0:0:0:
160,64,174995,1,8,0:0:0:0:
160,64,175082,1,0,0:0:0:0:
160,64,175257,1,8,0:0:0:0:
256,192,175431,1,8,0:0:0:0:
160,64,175605,1,0,0:0:0:0:
160,64,175693,1,8,0:0:0:0:
256,192,175780,1,0,0:0:0:0:
160,64,175954,1,0,0:0:0:0:
256,192,176129,1,8,0:0:0:0:
160,32,176216,1,0,0:0:0:0:
160,64,176303,1,8,0:0:0:0:
160,64,176390,1,8,0:0:0:0:
160,64,176477,1,0,0:0:0:0:
160,64,176652,1,0,0:0:0:0:
256,192,176826,1,8,0:0:0:0:
160,64,177001,1,0,0:0:0:0:
160,64,177350,1,0,0:0:0:0:
256,192,177524,1,8,0:0:0:0:
160,64,177698,1,8,0:0:0:0:
256,192,177873,1,0,0:0:0:0:
160,64,178047,1,0,0:0:0:0:
160,64,178134,1,0,0:0:0:0:
256,192,178222,1,8,0:0:0:0:
160,64,178396,1,0,0:0:0:0:
256,192,178570,1,0,0:0:0:0:
160,64,178658,1,0,0:0:0:0:
160,64,178745,1,0,0:0:0:0:
160,64,178832,1,0,0:0:0:0:
256,192,178919,1,8,0:0:0:0:
160,64,179094,1,8,0:0:0:0:
256,192,179268,1,0,0:0:0:0:
160,64,179443,1,0,0:0:0:0:
256,192,179617,1,8,0:0:0:0:
160,64,179791,1,8,0:0:0:0:
160,64,180140,1,0,0:0:0:0:
256,192,180315,1,8,0:0:0:0:
160,32,180489,1,0,0:0:0:0:
160,32,180576,1,0,0:0:0:0:
256,192,180664,1,0,0:0:0:0:
160,64,180838,1,0,0:0:0:0:
256,192,181012,1,8,0:0:0:0:
160,32,181187,1,8,0:0:0:0:
160,32,181274,1,8,0:0:0:0:
160,64,181361,1,0,0:0:0:0:
160,64,181536,1,0,0:0:0:0:
192,32,181623,1,0,0:0:0:0:
256,192,181710,1,8,0:0:0:0:
160,64,181884,1,8,0:0:0:0:
256,192,182059,1,0,0:0:0:0:
160,64,182146,1,0,0:0:0:0:
160,64,182233,1,8,0:0:0:0:
160,64,182320,1,8,0:0:0:0:
160,64,182408,1,0,0:0:0:0:
160,64,182495,1,0,0:0:0:0:
160,64,182582,1,8,0:0:0:0:
160,64,182669,1,8,0:0:0:0:
256,192,182757,1,0,0:0:0:0:
160,64,182844,1,0,0:0:0:0:
160,64,182931,1,8,0:0:0:0:
160,64,183018,1,8,0:0:0:0:
256,192,183105,1,8,0:0:0:0:
160,64,183193,1,8,0:0:0:0:
160,64,183280,1,0,0:0:0:0:
160,64,183367,1,0,0:0:0:0:
256,192,183454,1,8,0:0:0:0:
160,64,184152,1,8,0:0:0:0:
256,192,184850,5,4,0:0:0:0:
192,192,185198,1,8,0:0:0:0:
192,192,185373,1,0,0:0:0:0:
192,192,185547,1,8,0:0:0:0:
192,192,185634,1,8,0:0:0:0:
192,192,185722,1,0,0:0:0:0:
192,192,185896,1,8,0:0:0:0:
160,32,185983,1,8,0:0:0:0:
192,160,186070,1,8,0:0:0:0:
192,128,186158,1,8,0:0:0:0:
256,192,186245,1,0,0:0:0:0:
150,61,186419,1,0,0:0:0:0:
160,32,186507,1,0,0:0:0:0:
150,61,186594,1,8,0:0:0:0:
160,32,186768,1,0,0:0:0:0:
160,64,186943,1,0,0:0:0:0:
150,61,187030,1,8,0:0:0:0:
192,128,187117,1,0,0:0:0:0:
160,32,187204,1,0,0:0:0:0:
192,128,187291,1,8,0:0:0:0:
192,128,187466,1,0,0:0:0:0:
153,83,187553,1,0,0:0:0:0:
155,93,187640,1,8,0:0:0:0:
155,93,187815,1,0,0:0:0:0:
192,128,187989,1,8,0:0:0:0:
160,32,188076,1,8,0:0:0:0:
157,45,188164,1,8,0:0:0:0:
192,64,188338,1,0,0:0:0:0:
192,64,188425,1,0,0:0:0:0:
192,128,188512,1,8,0:0:0:0:
192,128,188600,1,0,0:0:0:0:
192,96,188687,1,8,0:0:0:0:
173,82,188861,1,8,0:0:0:0:
192,64,188948,1,8,0:0:0:0:
192,96,189036,1,0,0:0:0:0:
192,96,189210,1,0,0:0:0:0:
192,96,189384,1,8,0:0:0:0:
192,64,189559,1,0,0:0:0:0:
160,32,189646,1,0,0:0:0:0:
192,96,189733,1,0,0:0:0:0:
192,96,189908,1,8,0:0:0:0:
173,82,189995,1,8,0:0:0:0:
192,96,190082,1,0,0:0:0:0:
192,96,190169,1,0,0:0:0:0:
160,32,190257,1,8,0:0:0:0:
192,96,190431,5,4,0:0:0:0:
192,96,190780,1,8,0:0:0:0:
180,53,190954,1,0,0:0:0:0:
192,96,191129,1,8,0:0:0:0:
180,53,191216,1,8,0:0:0:0:
192,96,191303,1,8,0:0:0:0:
180,53,191390,1,8,0:0:0:0:
192,96,191477,1,0,0:0:0:0:
192,96,191652,1,8,0:0:0:0:
192,96,191826,1,0,0:0:0:0:
192,96,191914,1,0,0:0:0:0:
192,96,192001,1,0,0:0:0:0:
147,38,192088,1,0,0:0:0:0:
192,96,192175,1,8,0:0:0:0:
192,96,192350,1,0,0:0:0:0:
192,96,192437,1,8,0:0:0:0:
173,24,192524,1,0,0:0:0:0:
192,96,192698,1,0,0:0:0:0:
192,96,192873,1,8,0:0:0:0:
192,96,193047,1,8,0:0:0:0:
192,64,193134,1,8,0:0:0:0:
192,96,193222,1,0,0:0:0:0:
192,96,193396,1,0,0:0:0:0:
192,96,193570,1,8,0:0:0:0:
192,96,193745,1,0,0:0:0:0:
192,96,193832,1,0,0:0:0:0:
192,96,193919,1,8,0:0:0:0:
192,96,194007,1,8,0:0:0:0:
192,96,194094,1,0,0:0:0:0:
192,96,194268,1,8,0:0:0:0:
192,96,194443,1,8,0:0:0:0:
192,64,194530,1,8,0:0:0:0:
192,96,194617,1,0,0:0:0:0:
192,96,194791,1,0,0:0:0:0:
188,24,194879,1,0,0:0:0:0:
192,96,194966,1,8,0:0:0:0:
192,96,195140,1,0,0:0:0:0:
192,96,195315,1,8,0:0:0:0:
192,96,195402,1,8,0:0:0:0:
192,96,195489,1,0,0:0:0:0:
160,96,195576,1,0,0:0:0:0:
192,96,195664,1,8,0:0:0:0:
192,96,195838,1,8,0:0:0:0:
192,96,196012,1,4,0:0:0:0:
192,128,196361,1,8,0:0:0:0:
192,128,196536,1,0,0:0:0:0:
192,128,196710,1,8,0:0:0:0:
192,128,196797,1,8,0:0:0:0:
192,128,196884,1,0,0:0:0:0:
192,128,197059,1,8,0:0:0:0:
160,64,197146,1,0,0:0:0:0:
192,96,197233,1,8,0:0:0:0:
170,29,197320,1,8,0:0:0:0:
192,96,197408,1,0,0:0:0:0:
192,64,197582,1,0,0:0:0:0:
192,128,197757,1,8,0:0:0:0:
192,96,197931,1,0,0:0:0:0:
192,96,198018,1,0,0:0:0:0:
192,96,198105,1,8,0:0:0:0:
194,33,198193,1,8,0:0:0:0:
192,96,198280,1,0,0:0:0:0:
192,96,198454,1,8,0:0:0:0:
192,96,198629,1,8,0:0:0:0:
192,32,198716,1,8,0:0:0:0:
192,96,198803,1,0,0:0:0:0:
192,96,198977,1,0,0:0:0:0:
192,96,199152,1,8,0:0:0:0:
192,96,199326,1,0,0:0:0:0:
171,31,199414,1,0,0:0:0:0:
192,96,199501,1,8,0:0:0:0:
183,34,199588,1,0,0:0:0:0:
192,96,199675,1,0,0:0:0:0:
192,96,199850,1,8,0:0:0:0:
192,96,200024,1,8,0:0:0:0:
159,44,200111,1,8,0:0:0:0:
192,96,200198,1,0,0:0:0:0:
192,0,200373,1,0,0:0:0:0:
192,128,200547,1,8,0:0:0:0:
192,128,200722,1,0,0:0:0:0:
192,128,200809,1,8,0:0:0:0:
192,128,200896,1,0,0:0:0:0:
192,128,201070,1,8,0:0:0:0:
192,96,201158,1,8,0:0:0:0:
192,128,201245,1,0,0:0:0:0:
192,96,201332,1,0,0:0:0:0:
192,128,201419,1,8,0:0:0:0:
192,128,201594,1,4,0:0:0:0:
160,96,201943,1,8,0:0:0:0:
160,96,202117,1,0,0:0:0:0:
160,96,202204,1,0,0:0:0:0:
160,96,202291,1,0,0:0:0:0:
160,96,202466,1,0,0:0:0:0:
160,96,202640,1,8,0:0:0:0:
160,96,202815,1,0,0:0:0:0:
160,96,202902,1,0,0:0:0:0:
160,96,202989,1,8,0:0:0:0:
159,18,203164,1,0,0:0:0:0:
160,96,203338,1,8,0:0:0:0:
160,96,203512,1,0,0:0:0:0:
160,96,203600,1,8,0:0:0:0:
160,96,203687,1,0,0:0:0:0:
160,96,203861,1,0,0:0:0:0:
160,96,204036,1,8,0:0:0:0:
160,96,204210,1,8,0:0:0:0:
160,96,204384,1,0,0:0:0:0:
140,53,204559,1,0,0:0:0:0:
140,53,204646,1,0,0:0:0:0:
160,96,204733,1,8,0:0:0:0:
160,96,204908,1,0,0:0:0:0:
155,28,204995,1,0,0:0:0:0:
160,96,205082,1,8,0:0:0:0:
153,44,205169,1,8,0:0:0:0:
160,96,205257,1,0,0:0:0:0:
170,48,205344,1,0,0:0:0:0:
160,96,205431,1,8,0:0:0:0:
160,96,205605,1,0,0:0:0:0:
156,29,205693,1,0,0:0:0:0:
160,96,205780,1,8,0:0:0:0:
156,29,205867,1,0,0:0:0:0:
160,64,205954,1,0,0:0:0:0:
154,21,206041,1,0,0:0:0:0:
160,64,206129,1,8,0:0:0:0:
160,96,206303,1,8,0:0:0:0:
160,64,206390,1,8,0:0:0:0:
160,64,206477,1,0,0:0:0:0:
160,64,206565,1,8,0:0:0:0:
160,64,206652,1,0,0:0:0:0:
160,64,206739,1,0,0:0:0:0:
160,64,206826,1,8,0:0:0:0:
160,64,206914,1,8,0:0:0:0:
160,64,207001,1,8,0:0:0:0:
160,64,207175,1,4,0:0:0:0:
224,192,207706,1,0,0:0:0:0:
224,192,208055,1,0,0:0:0:0:
224,192,208403,1,8,0:0:0:0:
224,192,208752,1,8,0:0:0:0:
224,192,209276,1,8,0:0:0:0:
224,192,209624,1,8,0:0:0:0:
160,128,209973,1,0,0:0:0:0:
224,192,210496,1,8,0:0:0:0:
224,192,210845,1,8,0:0:0:0:
224,192,211194,1,0,0:0:0:0:
224,192,212415,1,0,0:0:0:0:
224,192,212589,1,0,0:0:0:0:
224,192,212764,1,8,0:0:0:0:
149,81,213113,1,0,0:0:0:0:
149,81,213287,1,8,0:0:0:0:
224,160,213636,1,0,0:0:0:0:
224,192,213985,1,8,0:0:0:0:
224,192,214857,1,8,0:0:0:0:
224,160,215555,1,0,0:0:0:0:
224,160,216078,1,8,0:0:0:0:
224,192,216427,1,0,0:0:0:0:
224,192,216776,1,8,0:0:0:0:
224,192,217648,1,8,0:0:0:0:
224,192,217822,1,8,0:0:0:0:
192,64,217996,1,8,0:0:0:0:
192,64,218171,1,8,0:0:0:0:
160,128,218345,1,0,0:0:0:0:
224,192,218869,1,0,0:0:0:0:
224,192,219217,1,0,0:0:0:0:
224,192,219566,1,8,0:0:0:0:
224,192,219915,1,8,0:0:0:0:
224,192,220438,1,8,0:0:0:0:
224,192,220787,1,8,0:0:0:0:
160,128,221136,1,0,0:0:0:0:
224,192,221659,1,8,0:0:0:0:
224,192,222008,1,8,0:0:0:0:
224,192,222357,1,0,0:0:0:0:
224,192,223578,1,0,0:0:0:0:
224,192,223752,1,0,0:0:0:0:
224,192,223927,1,8,0:0:0:0:
190,96,224276,1,0,0:0:0:0:
224,192,224450,1,8,0:0:0:0:
224,192,224799,1,0,0:0:0:0:
224,192,225148,1,8,0:0:0:0:
192,160,226020,1,8,0:0:0:0:
192,192,226717,1,0,0:0:0:0:
192,160,227241,1,8,0:0:0:0:
192,160,227589,1,0,0:0:0:0:
192,96,227938,1,0,0:0:0:0:
192,192,228113,1,8,0:0:0:0:
160,32,228462,1,8,0:0:0:0:
160,32,228810,1,0,0:0:0:0:
192,192,229508,1,0,0:0:0:0:
146,67,230031,1,8,0:0:0:0:
146,67,230380,1,0,0:0:0:0:
192,192,230555,1,0,0:0:0:0:
192,192,230903,1,12,0:0:0:0:
160,64,231601,1,8,0:0:0:0:
192,192,232299,1,0,0:0:0:0:
192,64,232822,1,8,0:0:0:0:
192,64,233171,1,0,0:0:0:0:
192,192,233345,1,0,0:0:0:0:
192,192,233694,1,12,0:0:0:0:
160,96,234392,1,0,0:0:0:0:
192,192,235089,1,8,0:0:0:0:
192,96,235613,1,8,0:0:0:0:
192,96,235962,1,0,0:0:0:0:
192,192,236136,1,8,0:0:0:0:
192,192,236485,1,12,0:0:0:0:
192,64,237183,1,8,0:0:0:0:
192,128,237531,1,8,0:0:0:0:
192,192,237873,1,4,0:0:0:0:
192,96,238047,1,8,0:0:0:0:
192,192,238221,1,0,0:0:0:0:
160,32,238309,1,0,0:0:0:0:
192,96,238396,1,8,0:0:0:0:
192,192,238570,1,0,0:0:0:0:
192,64,238657,1,0,0:0:0:0:
192,96,238745,1,8,0:0:0:0:
160,32,238832,1,8,0:0:0:0:
192,192,238919,1,0,0:0:0:0:
192,96,239093,1,8,0:0:0:0:
192,192,239268,1,0,0:0:0:0:
192,96,239442,1,8,0:0:0:0:
192,64,239529,1,8,0:0:0:0:
192,192,239617,1,0,0:0:0:0:
192,64,239704,1,0,0:0:0:0:
192,64,239791,1,8,0:0:0:0:
192,192,239966,1,0,0:0:0:0:
192,64,240053,1,0,0:0:0:0:
192,64,240140,1,8,0:0:0:0:
192,64,240227,1,8,0:0:0:0:
192,192,240314,1,0,0:0:0:0:
192,64,240402,1,0,0:0:0:0:
192,64,240489,1,8,0:0:0:0:
192,192,240663,1,0,0:0:0:0:
192,64,240838,1,0,0:0:0:0:
192,32,241012,1,8,0:0:0:0:
192,32,241186,1,8,0:0:0:0:
192,32,241361,1,0,0:0:0:0:
192,32,241535,1,8,0:0:0:0:
192,32,241623,1,8,0:0:0:0:
192,32,241710,1,0,0:0:0:0:
192,32,241797,1,0,0:0:0:0:
192,32,241884,1,8,0:0:0:0:
192,32,241971,1,8,0:0:0:0:
192,192,242059,1,8,0:0:0:0:
192,32,242233,1,0,0:0:0:0:
192,32,242407,1,8,0:0:0:0:
160,64,242495,1,8,0:0:0:0:
175,1,242582,1,0,0:0:0:0:
192,32,242756,1,8,0:0:0:0:
192,32,242843,1,8,0:0:0:0:
192,32,242931,1,8,0:0:0:0:
192,32,243018,1,8,0:0:0:0:
192,32,243105,1,8,0:0:0:0:
192,32,243192,1,8,0:0:0:0:
192,32,243279,1,8,0:0:0:0:
192,32,243367,1,8,0:0:0:0:
192,32,243454,5,0,0:0:0:0:
160,64,243803,1,8,0:0:0:0:
160,64,244152,1,8,0:0:0:0:
160,64,244500,1,8,0:0:0:0:
160,64,244849,1,0,0:0:0:0:
160,64,245198,1,8,0:0:0:0:
160,64,245373,1,0,0:0:0:0:
160,64,246070,1,0,0:0:0:0:
160,64,246245,1,8,0:0:0:0:
160,64,246593,1,8,0:0:0:0:
160,64,246942,1,8,0:0:0:0:
160,64,247291,1,8,0:0:0:0:
160,64,247640,1,0,0:0:0:0:
160,32,247814,1,0,0:0:0:0:
160,64,247989,1,8,0:0:0:0:
160,64,248163,1,0,0:0:0:0:
160,64,248512,1,0,0:0:0:0:
160,64,248686,1,0,0:0:0:0:
160,64,249035,1,0,0:0:0:0:
160,64,249733,1,8,0:0:0:0:
160,64,250082,1,0,0:0:0:0:
160,64,250431,1,0,0:0:0:0:
160,64,250954,1,0,0:0:0:0:
160,64,251128,1,0,0:0:0:0:
192,64,251652,1,0,0:0:0:0:
160,64,251826,1,8,0:0:0:0:
192,64,252000,1,0,0:0:0:0:
160,64,252175,1,0,0:0:0:0:
160,64,252349,1,8,0:0:0:0:
160,64,252698,1,8,0:0:0:0:
192,32,253047,1,8,0:0:0:0:
192,32,253221,1,8,0:0:0:0:
192,32,253919,1,8,0:0:0:0:
192,0,254268,1,8,0:0:0:0:
192,0,254442,1,8,0:0:0:0:
192,32,254617,1,0,0:0:0:0:
192,32,254966,1,8,0:0:0:0:
192,32,255314,1,8,0:0:0:0:
192,32,255663,1,8,0:0:0:0:
192,32,255838,1,8,0:0:0:0:
192,32,256012,1,0,0:0:0:0:
192,32,256186,1,0,0:0:0:0:
192,32,256361,1,8,0:0:0:0:
192,32,256535,1,0,0:0:0:0:
192,32,256884,1,0,0:0:0:0:
192,32,257233,1,0,0:0:0:0:
192,32,257407,1,8,0:0:0:0:
192,32,257582,1,0,0:0:0:0:
192,32,257931,1,0,0:0:0:0:
192,32,258105,1,8,0:0:0:0:
192,32,258279,1,0,0:0:0:0:
192,32,258454,1,0,0:0:0:0:
192,32,258628,1,8,0:0:0:0:
192,32,258803,1,0,0:0:0:0:
160,32,259326,5,8,0:0:0:0:
160,32,259413,1,8,0:0:0:0:
160,32,259500,1,0,0:0:0:0:
160,64,260024,1,0,0:0:0:0:
192,192,260198,1,0,0:0:0:0:
160,32,261593,1,8,0:0:0:0:
160,32,261942,1,0,0:0:0:0:
160,32,262117,1,0,0:0:0:0:
160,96,262466,1,8,0:0:0:0:
160,96,262814,1,8,0:0:0:0:
192,192,262989,1,0,0:0:0:0:
151,119,263338,1,0,0:0:0:0:
151,119,263512,1,8,0:0:0:0:
160,32,263861,1,0,0:0:0:0:
160,32,264210,1,8,0:0:0:0:
192,192,264384,1,0,0:0:0:0:
192,192,264471,1,0,0:0:0:0:
192,192,264559,1,0,0:0:0:0:
192,192,264646,1,0,0:0:0:0:
192,192,264733,1,0,0:0:0:0:
192,192,264820,1,0,0:0:0:0:
192,192,264907,1,0,0:0:0:0:
192,192,264995,1,0,0:0:0:0:
192,192,265082,1,8,0:0:0:0:
192,192,265169,1,8,0:0:0:0:
192,192,265256,1,8,0:0:0:0:
192,192,265343,1,8,0:0:0:0:
192,192,265431,1,8,0:0:0:0:
192,192,265518,1,8,0:0:0:0:
192,192,265605,1,8,0:0:0:0:
192,192,265692,1,8,0:0:0:0:
160,96,265779,1,0,0:0:0:0:
160,32,266128,1,8,0:0:0:0:
160,32,266216,1,8,0:0:0:0:
160,32,266303,1,0,0:0:0:0:
192,192,266477,1,12,0:0:0:0:
128,128,266652,1,0,0:0:0:0:
128,128,266826,1,8,0:0:0:0:
128,128,266913,1,8,0:0:0:0:
128,128,267000,1,8,0:0:0:0:
160,32,267088,1,8,0:0:0:0:
128,128,267175,1,0,0:0:0:0:
160,32,267349,1,0,0:0:0:0:
160,32,267436,1,0,0:0:0:0:
160,64,267524,1,8,0:0:0:0:
160,64,267698,1,0,0:0:0:0:
160,64,267873,1,0,0:0:0:0:
128,32,267960,1,0,0:0:0:0:
160,64,268047,1,0,0:0:0:0:
192,64,268134,1,0,0:0:0:0:
160,64,268221,1,8,0:0:0:0:
160,64,268396,1,8,0:0:0:0:
160,32,268483,1,8,0:0:0:0:
160,64,268570,1,0,0:0:0:0:
128,64,268745,1,0,0:0:0:0:
128,64,268919,1,8,0:0:0:0:
128,96,269006,1,8,0:0:0:0:
128,64,269093,1,8,0:0:0:0:
128,64,269268,1,0,0:0:0:0:
128,96,269355,1,8,0:0:0:0:
128,64,269442,1,0,0:0:0:0:
128,64,269529,1,0,0:0:0:0:
128,64,269617,1,8,0:0:0:0:
128,64,269791,1,8,0:0:0:0:
128,64,269878,1,8,0:0:0:0:
128,64,269966,1,0,0:0:0:0:
128,64,270140,1,0,0:0:0:0:
128,64,270314,1,8,0:0:0:0:
128,64,270489,1,0,0:0:0:0:
128,64,270576,1,0,0:0:0:0:
128,64,270663,1,0,0:0:0:0:
128,64,270838,1,8,0:0:0:0:
128,64,270925,1,8,0:0:0:0:
128,64,271012,1,0,0:0:0:0:
128,32,271099,1,0,0:0:0:0:
128,64,271186,1,8,0:0:0:0:
128,64,271361,1,4,0:0:0:0:
128,64,271710,1,8,0:0:0:0:
128,64,271884,1,0,0:0:0:0:
128,64,272059,1,8,0:0:0:0:
128,64,272146,1,8,0:0:0:0:
128,64,272233,1,0,0:0:0:0:
128,64,272320,1,0,0:0:0:0:
128,64,272407,1,8,0:0:0:0:
128,64,272582,1,0,0:0:0:0:
128,64,272756,1,8,0:0:0:0:
128,64,272843,1,8,0:0:0:0:
128,64,272931,1,8,0:0:0:0:
128,64,273018,1,8,0:0:0:0:
128,64,273105,1,0,0:0:0:0:
128,64,273279,1,8,0:0:0:0:
128,64,273454,1,0,0:0:0:0:
128,64,273541,1,0,0:0:0:0:
128,64,273628,1,0,0:0:0:0:
137,24,273716,1,0,0:0:0:0:
128,64,273803,1,8,0:0:0:0:
128,64,273977,1,0,0:0:0:0:
128,64,274064,1,8,0:0:0:0:
128,64,274152,1,0,0:0:0:0:
128,64,274326,1,8,0:0:0:0:
128,64,274500,1,8,0:0:0:0:
128,64,274675,1,0,0:0:0:0:
128,64,274762,1,0,0:0:0:0:
128,64,274849,1,8,0:0:0:0:
128,64,274936,1,8,0:0:0:0:
128,64,275024,1,0,0:0:0:0:
128,64,275198,1,8,0:0:0:0:
128,64,275373,1,8,0:0:0:0:
128,64,275460,1,8,0:0:0:0:
128,64,275547,1,0,0:0:0:0:
158,23,275634,1,8,0:0:0:0:
160,32,275721,1,0,0:0:0:0:
128,64,275896,1,8,0:0:0:0:
128,64,276070,1,0,0:0:0:0:
158,23,276157,1,0,0:0:0:0:
128,64,276245,1,8,0:0:0:0:
160,32,276332,1,0,0:0:0:0:
128,64,276419,1,0,0:0:0:0:
151,30,276506,1,0,0:0:0:0:
128,64,276593,1,8,0:0:0:0:
128,64,276768,1,8,0:0:0:0:
128,64,276942,1,4,0:0:0:0:
128,32,277291,1,8,0:0:0:0:
128,32,277466,1,0,0:0:0:0:
128,32,277640,1,8,0:0:0:0:
128,32,277727,1,8,0:0:0:0:
128,32,277814,1,0,0:0:0:0:
128,32,277902,1,0,0:0:0:0:
128,32,277989,1,8,0:0:0:0:
160,96,278163,1,8,0:0:0:0:
160,32,278250,1,8,0:0:0:0:
160,32,278338,1,0,0:0:0:0:
164,19,278425,1,0,0:0:0:0:
128,64,278512,1,0,0:0:0:0:
128,64,278686,1,8,0:0:0:0:
128,64,278861,1,0,0:0:0:0:
161,14,278948,1,0,0:0:0:0:
128,64,279035,1,8,0:0:0:0:
128,64,279210,1,0,0:0:0:0:
128,64,279297,1,0,0:0:0:0:
128,64,279384,1,8,0:0:0:0:
128,64,279471,1,8,0:0:0:0:
128,64,279559,1,8,0:0:0:0:
128,64,279646,1,8,0:0:0:0:
128,64,279733,1,0,0:0:0:0:
128,64,279907,1,0,0:0:0:0:
128,64,280082,1,8,0:0:0:0:
160,32,280256,1,0,0:0:0:0:
128,32,280343,1,8,0:0:0:0:
128,64,280431,1,8,0:0:0:0:
128,64,280605,1,0,0:0:0:0:
160,32,280692,1,0,0:0:0:0:
128,64,280779,1,8,0:0:0:0:
160,0,280867,1,0,0:0:0:0:
128,32,280954,1,8,0:0:0:0:
128,64,281041,1,8,0:0:0:0:
128,64,281128,1,0,0:0:0:0:
160,32,281303,1,0,0:0:0:0:
128,64,281477,1,8,0:0:0:0:
128,64,281652,1,0,0:0:0:0:
160,32,281826,1,0,0:0:0:0:
160,32,281913,1,8,0:0:0:0:
160,32,282000,1,0,0:0:0:0:
160,0,282088,1,0,0:0:0:0:
160,32,282175,1,8,0:0:0:0:
128,64,282349,1,8,0:0:0:0:
128,64,282524,1,4,0:0:0:0:
128,64,282873,1,8,0:0:0:0:
160,32,283047,1,0,0:0:0:0:
160,32,283134,1,0,0:0:0:0:
128,64,283221,1,0,0:0:0:0:
128,64,283396,1,0,0:0:0:0:
128,64,283570,1,8,0:0:0:0:
128,64,283745,1,0,0:0:0:0:
154,6,283832,1,0,0:0:0:0:
128,64,283919,1,8,0:0:0:0:
140,46,284093,1,0,0:0:0:0:
128,64,284268,1,8,0:0:0:0:
128,64,284442,1,0,0:0:0:0:
160,64,284529,1,0,0:0:0:0:
128,64,284617,1,8,0:0:0:0:
160,32,284704,1,8,0:0:0:0:
152,13,284791,1,0,0:0:0:0:
128,64,284966,1,8,0:0:0:0:
128,64,285140,1,0,0:0:0:0:
160,64,285227,1,8,0:0:0:0:
128,64,285314,1,0,0:0:0:0:
128,64,285663,1,8,0:0:0:0:
128,64,285838,1,0,0:0:0:0:
160,32,285925,1,0,0:0:0:0:
128,64,286012,1,0,0:0:0:0:
128,64,286186,1,0,0:0:0:0:
128,32,286361,1,8,0:0:0:0:
160,32,286535,1,8,0:0:0:0:
138,31,286623,1,8,0:0:0:0:
160,32,286710,1,0,0:0:0:0:
143,18,286884,1,0,0:0:0:0:
160,32,287059,1,8,0:0:0:0:
160,32,287233,1,0,0:0:0:0:
160,32,287320,1,8,0:0:0:0:
160,32,287407,1,0,0:0:0:0:
144,26,287495,1,8,0:0:0:0:
160,32,287582,1,0,0:0:0:0:
160,32,287756,1,8,0:0:0:0:
160,32,287931,1,8,0:0:0:0:
160,32,288018,1,8,0:0:0:0:
160,32,288105,1,0,0:0:0:0:
160,32,288454,1,8,0:0:0:0:
160,32,288628,1,0,0:0:0:0:
160,32,288716,1,0,0:0:0:0:
160,32,288803,1,0,0:0:0:0:
160,32,288977,1,0,0:0:0:0:
160,32,289152,1,8,0:0:0:0:
160,32,289326,1,8,0:0:0:0:
152,10,289413,1,8,0:0:0:0:
160,32,289500,1,0,0:0:0:0:
160,64,289675,1,0,0:0:0:0:
160,32,289849,1,8,0:0:0:0:
160,32,290024,1,0,0:0:0:0:
160,32,290111,1,8,0:0:0:0:
160,32,290198,1,0,0:0:0:0:
160,32,290373,1,0,0:0:0:0:
128,64,290547,1,8,0:0:0:0:
128,64,290721,1,8,0:0:0:0:
160,32,290809,1,8,0:0:0:0:
128,64,290896,1,0,0:0:0:0:
128,64,291245,1,8,0:0:0:0:
128,64,291419,1,0,0:0:0:0:
128,32,291506,1,0,0:0:0:0:
128,64,291593,1,0,0:0:0:0:
128,64,291768,1,0,0:0:0:0:
128,64,291942,1,8,0:0:0:0:
128,64,292117,1,8,0:0:0:0:
128,64,292291,1,0,0:0:0:0:
128,32,292466,1,0,0:0:0:0:
160,32,292553,1,0,0:0:0:0:
128,64,292640,1,8,0:0:0:0:
128,32,292814,1,8,0:0:0:0:
128,32,292902,1,8,0:0:0:0:
128,32,292989,1,0,0:0:0:0:
128,32,293163,1,0,0:0:0:0:
128,64,293338,1,8,0:0:0:0:
161,13,293425,1,8,0:0:0:0:
160,32,293512,1,8,0:0:0:0:
160,32,293599,1,8,0:0:0:0:
160,32,293686,1,0,0:0:0:0:
128,64,294035,1,8,0:0:0:0:
160,0,294210,1,0,0:0:0:0:
160,0,294297,1,0,0:0:0:0:
160,0,294384,1,8,0:0:0:0:
160,0,294559,1,0,0:0:0:0:
128,64,294733,1,8,0:0:0:0:
160,0,294907,1,8,0:0:0:0:
160,0,295082,1,0,0:0:0:0:
128,64,295431,1,8,0:0:0:0:
160,0,295605,1,0,0:0:0:0:
160,0,295692,1,0,0:0:0:0:
160,0,295779,1,8,0:0:0:0:
160,0,295954,1,0,0:0:0:0:
128,64,296128,1,8,0:0:0:0:
160,0,296303,1,8,0:0:0:0:
160,32,296390,1,8,0:0:0:0:
160,0,296477,1,0,0:0:0:0:
160,32,296652,1,0,0:0:0:0:
128,64,296826,1,8,0:0:0:0:
160,32,297000,1,0,0:0:0:0:
160,0,297088,1,0,0:0:0:0:
160,32,297175,1,0,0:0:0:0:
160,32,297349,1,0,0:0:0:0:
128,64,297524,1,8,0:0:0:0:
160,0,297698,1,8,0:0:0:0:
160,0,297873,1,0,0:0:0:0:
160,0,298047,1,0,0:0:0:0:
160,0,298134,1,0,0:0:0:0:
128,64,298221,1,8,0:0:0:0:
160,0,298396,1,0,0:0:0:0:
160,0,298570,1,0,0:0:0:0:
160,0,298657,1,8,0:0:0:0:
160,0,298745,1,0,0:0:0:0:
160,0,298832,1,0,0:0:0:0:
128,64,298919,1,8,0:0:0:0:
160,0,299093,1,8,0:0:0:0:
160,0,299181,1,8,0:0:0:0:
160,0,299268,1,0,0:0:0:0:
128,64,299617,1,8,0:0:0:0:
160,32,299791,1,0,0:0:0:0:
160,32,299878,1,0,0:0:0:0:
160,32,299966,1,0,0:0:0:0:
160,32,300140,1,0,0:0:0:0:
128,64,300314,1,8,0:0:0:0:
160,32,300489,1,8,0:0:0:0:
154,17,300576,1,8,0:0:0:0:
160,32,300663,1,0,0:0:0:0:
160,0,300838,1,0,0:0:0:0:
128,64,301012,1,8,0:0:0:0:
160,32,301186,1,0,0:0:0:0:
160,32,301274,1,0,0:0:0:0:
160,32,301361,1,8,0:0:0:0:
160,32,301535,1,0,0:0:0:0:
128,64,301710,1,8,0:0:0:0:
160,32,301797,1,8,0:0:0:0:
160,32,301884,1,8,0:0:0:0:
160,32,301971,1,8,0:0:0:0:
160,32,302059,1,0,0:0:0:0:
128,64,302407,1,8,0:0:0:0:
160,64,302582,1,0,0:0:0:0:
160,64,302669,1,0,0:0:0:0:
160,64,302756,1,0,0:0:0:0:
160,64,302931,1,0,0:0:0:0:
128,64,303105,1,8,0:0:0:0:
160,64,303279,1,8,0:0:0:0:
192,64,303367,1,8,0:0:0:0:
160,64,303454,1,0,0:0:0:0:
154,20,303628,1,0,0:0:0:0:
128,64,303803,1,8,0:0:0:0:
160,32,303977,1,0,0:0:0:0:
160,32,304152,1,8,0:0:0:0:
128,0,304239,1,0,0:0:0:0:
128,0,304413,1,0,0:0:0:0:
128,0,304500,1,8,0:0:0:0:
128,64,304675,1,8,0:0:0:0:
160,32,304849,1,0,0:0:0:0:
128,32,305024,1,0,0:0:0:0:
160,32,305111,1,0,0:0:0:0:
128,64,305198,1,8,0:0:0:0:
128,64,305373,1,8,0:0:0:0:
128,64,305547,1,0,0:0:0:0:
160,32,305634,1,0,0:0:0:0:
128,64,305721,1,0,0:0:0:0:
128,64,305896,1,8,0:0:0:0:
128,64,306070,1,0,0:0:0:0:
128,64,306157,1,0,0:0:0:0:
128,64,306245,1,8,0:0:0:0:
146,27,306419,1,0,0:0:0:0:
128,64,306593,1,8,0:0:0:0:
128,64,306768,1,8,0:0:0:0:
128,64,306855,1,8,0:0:0:0:
128,64,306942,1,0,0:0:0:0:
147,18,307029,1,8,0:0:0:0:
128,64,307117,1,0,0:0:0:0:
128,64,307291,1,8,0:0:0:0:
128,64,307466,1,8,0:0:0:0:
128,64,307553,1,8,0:0:0:0:
128,64,307640,1,0,0:0:0:0:
128,64,307814,1,0,0:0:0:0:
128,64,307902,1,0,0:0:0:0:
128,64,307989,1,8,0:0:0:0:
128,64,308163,1,0,0:0:0:0:
128,64,308250,1,8,0:0:0:0:
128,64,308338,1,0,0:0:0:0:
128,64,308512,1,0,0:0:0:0:
128,64,308599,1,0,0:0:0:0:
128,64,308686,1,8,0:0:0:0:
128,64,308861,1,0,0:0:0:0:
156,25,308948,1,8,0:0:0:0:
156,25,309035,5,0,0:0:0:0:
128,64,309123,1,0,0:0:0:0:
128,64,309210,1,8,0:0:0:0:
128,64,309297,1,0,0:0:0:0:
128,64,309384,1,8,0:0:0:0:
128,32,309471,1,8,0:0:0:0:
128,32,309559,1,0,0:0:0:0:
128,32,309646,1,8,0:0:0:0:
128,32,309733,5,0,0:0:0:0:
128,32,309820,1,8,0:0:0:0:
128,32,309907,1,0,0:0:0:0:
128,32,309995,1,0,0:0:0:0:
128,64,310082,1,8,0:0:0:0:
128,32,310169,1,8,0:0:0:0:
128,32,310256,1,8,0:0:0:0:
128,32,310343,1,8,0:0:0:0:
128,64,310622,5,0,0:0:0:0:
128,64,311105,1,0,0:0:0:0:
128,64,311332,1,0,0:0:0:0:
128,64,311560,1,8,0:0:0:0:
128,64,311796,1,8,0:0:0:0:
128,64,312445,5,0,0:0:0:0:
128,64,312675,1,0,0:0:0:0:
128,64,312906,1,8,0:0:0:0:
128,64,313137,1,0,0:0:0:0:
128,64,313396,1,8,0:0:0:0:
128,64,313681,1,8,0:0:0:0:
128,64,314467,5,0,0:0:0:0:
128,64,314721,1,0,0:0:0:0:
128,64,314988,1,8,0:0:0:0:
128,64,315288,1,8,0:0:0:0:
128,64,315617,1,0,0:0:0:0:
128,64,315943,1,8,0:0:0:0:
128,64,316300,1,8,0:0:0:0:
128,64,316694,1,8,0:0:0:0:
128,64,317385,5,8,0:0:0:0:
