osu file format v12

[General]
AudioFilename: Namae no Nai Kaibutsu (TV Edit 92s ver).mp3
AudioLeadIn: 1000
PreviewTime: 43957
Countdown: 0
SampleSet: Normal
StackLeniency: 0.3
Mode: 0
LetterboxInBreaks: 1

[Editor]
DistanceSpacing: 1.1
BeatDivisor: 4
GridSize: 4

[Metadata]
Title:Namae no Nai Kaibutsu (TV Edit 92s ver)
TitleUnicode:名前のない怪物 (TV Edit 92s ver)
Artist:EGOIST
ArtistUnicode:EGOIST
Creator:No_Gu
Version:Easy
Source:PSYCHO-PASS
Tags:Pokie Fumika Netsukawa supercell ryo chelly ending
BeatmapID:206942
BeatmapSetID:71576

[Difficulty]
HPDrainRate:2
CircleSize:3
OverallDifficulty:1
ApproachRate:5
SliderMultiplier:0.8
SliderTickRate:1

[Events]
//Background and Video events
Video,623,"video.flv"
0,0,"BG.jpg",1,1
//Break Periods
//Storyboard Layer 0 (Background)
//Storyboard Layer 1 (Fail)
//Storyboard Layer 2 (Pass)
//Storyboard Layer 3 (Foreground)
//Storyboard Sound Samples
//Background Colour Transformations
3,100,163,162,255

[TimingPoints]
124,333.333333333333,4,1,2,70,1,0
1457,-100,4,1,2,25,0,0
12790,-100,4,2,1,5,0,0
12957,-100,4,1,2,25,0,0
14123,-100,4,2,1,5,0,0
14290,-100,4,1,2,25,0,0
15457,-100,4,2,1,5,0,0
15623,-100,4,1,2,25,0,0
16790,-100,4,2,1,5,0,0
16957,-100,4,1,2,25,0,0
17457,-100,4,1,2,50,0,0
17957,-100,4,2,1,30,0,0
18040,-100,4,1,2,50,0,0
18123,-100,4,2,1,30,0,0
18290,-100,4,1,2,50,0,0
18457,-100,4,2,1,30,0,0
18623,-100,4,1,2,50,0,0
18790,-100,4,2,1,30,0,0
18873,-100,4,1,2,50,0,0
20540,-100,4,2,1,30,0,0
20707,-100,4,1,2,50,0,0
20790,-100,4,2,1,30,0,0
20957,-100,4,1,2,50,0,0
21123,-100,4,2,1,30,0,0
21123,-100,4,1,2,50,0,0
21290,-100,4,1,2,50,0,0
21373,-100,4,2,1,30,0,0
21457,-100,4,1,2,50,0,0
21957,-100,4,2,2,50,0,0
22123,-100,4,1,1,50,0,0
22790,-100,4,1,1,70,0,0
24790,-100,4,2,1,70,0,0
24957,-100,4,1,3,70,0,0
25123,-100,4,1,1,70,0,0
26290,-100,4,1,3,70,0,0
26457,-100,4,1,1,70,0,0
27457,-100,4,2,1,70,0,0
27623,-100,4,1,3,70,0,0
27790,-100,4,1,1,70,0,0
28790,-100,4,2,1,70,0,0
28957,-100,4,1,3,70,0,0
29123,-100,4,1,1,70,0,0
29457,-100,4,1,3,70,0,0
29790,-100,4,1,1,70,0,0
30290,-100,4,1,3,70,0,0
30457,-100,4,1,1,70,0,0
31457,-100,4,2,1,70,0,0
31623,-100,4,1,3,70,0,0
31790,-100,4,1,1,70,0,0
32707,-100,4,1,3,70,0,0
32873,-100,4,1,1,70,0,0
32957,-100,4,1,3,70,0,0
33123,-100,4,1,1,70,0,0
35623,-100,4,1,3,70,0,0
35790,-100,4,1,1,70,0,0
38123,-100,4,2,1,70,0,0
38290,-100,4,1,3,70,0,0
38457,-100,4,1,1,70,0,0
39457,-100,4,2,1,70,0,0
39623,-100,4,1,3,70,0,0
39790,-100,4,1,1,70,0,0
40790,-100,4,2,1,70,0,0
40957,-100,4,1,3,70,0,0
41123,-100,4,1,1,70,0,0
41457,-100,4,2,1,70,0,0
43457,-100,4,2,1,70,0,0
44123,-100,4,1,1,70,0,1
44290,-100,4,2,1,70,0,1
44457,-100,4,1,1,70,0,1
44623,-100,4,2,1,70,0,1
44790,-100,4,1,1,70,0,1
44957,-100,4,2,1,70,0,1
45123,-100,4,1,1,70,0,1
45290,-100,4,2,1,70,0,1
45457,-100,4,1,1,70,0,1
45623,-100,4,2,1,70,0,1
45790,-100,4,1,1,70,0,1
45957,-100,4,2,1,70,0,1
46123,-100,4,1,1,70,0,1
46290,-100,4,2,1,70,0,1
46457,-100,4,1,1,70,0,1
46623,-100,4,2,1,70,0,1
46790,-100,4,1,1,70,0,1
46957,-100,4,2,1,70,0,1
47123,-100,4,1,1,70,0,1
47290,-100,4,2,1,70,0,1
47457,-100,4,1,1,70,0,1
47623,-100,4,2,1,70,0,1
47790,-100,4,1,1,70,0,1
47957,-100,4,2,1,70,0,1
48123,-100,4,1,1,70,0,1
48290,-100,4,2,1,70,0,1
48457,-100,4,1,1,70,0,1
48623,-100,4,2,1,70,0,1
48790,-100,4,1,1,70,0,1
48957,-100,4,2,1,70,0,1
49123,-100,4,1,1,70,0,1
49290,-100,4,2,1,70,0,1
49457,-100,4,1,1,70,0,1
49624,-100,4,2,1,70,0,1
49791,-100,4,1,1,70,0,1
49957,-100,4,2,1,70,0,1
50124,-100,4,1,1,70,0,1
50291,-100,4,2,1,70,0,1
50457,-100,4,1,1,70,0,1
50624,-100,4,2,1,70,0,1
50791,-100,4,1,1,70,0,1
50957,-100,4,2,1,70,0,1
51124,-100,4,1,1,70,0,1
51291,-100,4,2,1,70,0,1
51457,-100,4,1,1,70,0,1
51624,-100,4,2,1,70,0,1
51791,-100,4,1,1,70,0,1
51957,-100,4,2,1,70,0,1
52124,-100,4,1,1,70,0,1
52291,-100,4,2,1,70,0,1
52457,-100,4,1,1,70,0,1
52624,-100,4,2,1,70,0,1
52791,-100,4,1,1,70,0,1
52957,-100,4,2,1,70,0,1
53124,-100,4,1,1,70,0,1
53291,-100,4,2,1,70,0,1
53457,-100,4,1,1,70,0,1
53540,-100,4,2,1,70,0,1
53790,-100,4,1,1,70,0,1
53957,-100,4,2,1,70,0,1
54123,-100,4,1,1,70,0,1
54291,-100,4,2,1,70,0,1
54457,-100,4,1,1,70,0,1
54623,-100,4,2,1,70,0,1
54707,-100,4,2,1,70,0,0
54790,-100,4,1,1,70,0,1
54958,-100,4,2,1,70,0,1
55125,-100,4,1,1,70,0,1
55291,-100,4,2,1,70,0,1
55458,-100,4,1,1,70,0,1
55625,-100,4,2,1,70,0,1
55791,-100,4,1,1,70,0,1
55958,-100,4,2,1,70,0,1
56125,-100,4,1,1,70,0,1
56291,-100,4,2,1,70,0,1
56458,-100,4,1,1,70,0,1
56625,-100,4,2,1,70,0,1
56791,-100,4,1,1,70,0,1
56958,-100,4,2,1,70,0,1
57125,-100,4,1,1,70,0,1
57291,-100,4,2,1,70,0,1
57458,-100,4,1,1,70,0,1
57625,-100,4,2,1,70,0,1
57791,-100,4,1,1,70,0,1
57958,-100,4,2,1,70,0,1
58125,-100,4,1,1,70,0,1
58291,-100,4,2,1,70,0,1
58458,-100,4,1,1,70,0,1
58625,-100,4,2,1,70,0,1
58791,-100,4,1,1,70,0,1
58958,-100,4,2,1,70,0,1
59125,-100,4,1,1,70,0,1
59291,-100,4,2,1,70,0,1
59458,-100,4,1,1,70,0,1
59625,-100,4,2,1,70,0,1
59791,-100,4,1,1,70,0,1
59958,-100,4,2,1,70,0,1
60125,-100,4,1,1,70,0,1
60292,-100,4,2,1,70,0,1
60459,-100,4,1,1,70,0,1
60625,-100,4,2,1,70,0,1
60792,-100,4,1,1,70,0,1
60959,-100,4,2,1,70,0,1
61125,-100,4,1,1,70,0,1
61292,-100,4,2,1,70,0,1
61459,-100,4,1,1,70,0,1
61625,-100,4,2,1,70,0,1
61792,-100,4,1,1,70,0,1
61959,-100,4,2,1,70,0,1
62125,-100,4,1,1,70,0,1
62292,-100,4,2,1,70,0,1
62459,-100,4,1,1,70,0,1
62625,-100,4,2,1,70,0,1
62792,-100,4,1,1,70,0,1
62959,-100,4,2,1,70,0,1
63125,-100,4,1,1,70,0,1
63292,-100,4,2,1,70,0,1
63459,-100,4,1,1,70,0,1
63625,-100,4,2,1,70,0,1
63792,-100,4,1,1,70,0,1
63959,-100,4,2,1,70,0,1
64123,-100,4,2,1,70,0,0
64291,-100,4,2,1,5,0,0
64959,-100,4,2,1,50,0,0
65457,-100,4,1,1,70,0,1
65626,-100,4,2,1,70,0,1
65793,-100,4,1,1,70,0,1
65959,-100,4,2,1,70,0,1
66126,-100,4,1,1,70,0,1
66293,-100,4,2,1,70,0,1
66459,-100,4,1,1,70,0,1
66626,-100,4,2,1,70,0,1
66790,-100,4,1,1,70,0,1
66959,-100,4,2,1,70,0,1
67126,-100,4,1,1,70,0,1
67293,-100,4,2,1,70,0,1
67459,-100,4,1,1,70,0,1
67626,-100,4,2,1,70,0,1
67793,-100,4,1,1,70,0,1
67959,-100,4,2,1,70,0,1
68126,-100,4,1,1,70,0,1
68293,-100,4,2,1,70,0,1
68459,-100,4,1,1,70,0,1
68626,-100,4,2,1,70,0,1
68793,-100,4,1,1,70,0,1
68959,-100,4,2,1,70,0,1
69126,-100,4,1,1,70,0,1
69293,-100,4,2,1,70,0,1
69457,-100,4,1,1,70,0,1
69626,-100,4,2,1,70,0,1
69793,-100,4,1,1,70,0,1
69959,-100,4,2,1,70,0,1
70126,-100,4,1,1,70,0,1
70293,-100,4,2,1,70,0,1
70459,-100,4,1,1,70,0,1
70626,-100,4,2,1,70,0,1
70793,-100,4,1,1,70,0,1
70960,-100,4,2,1,70,0,1
71127,-100,4,1,1,70,0,1
71293,-100,4,2,1,70,0,1
71460,-100,4,1,1,70,0,1
71627,-100,4,2,1,70,0,1
71793,-100,4,1,1,70,0,1
71960,-100,4,2,1,70,0,1
72123,-100,4,1,1,70,0,1
72293,-100,4,2,1,70,0,1
72460,-100,4,1,1,70,0,1
72627,-100,4,2,1,70,0,1
72793,-100,4,1,1,70,0,1
72960,-100,4,2,1,70,0,1
73127,-100,4,1,1,70,0,1
73293,-100,4,2,1,70,0,1
73460,-100,4,1,1,70,0,1
73627,-100,4,2,1,70,0,1
73793,-100,4,1,1,70,0,1
73960,-100,4,2,1,70,0,1
74123,-100,4,1,1,70,0,1
74293,-100,4,2,1,70,0,1
74460,-100,4,1,1,70,0,1
74627,-100,4,2,1,70,0,1
74793,-100,4,1,1,70,0,1
74959,-100,4,2,1,70,0,1
75126,-100,4,1,1,70,0,1
75293,-100,4,2,1,70,0,1
75459,-100,4,1,1,70,0,1
75627,-100,4,2,1,70,0,1
75793,-100,4,1,1,70,0,1
75873,-100,4,2,1,70,0,1
76040,-100,4,2,1,70,0,0
76123,-100,4,1,1,70,0,1
76290,-100,4,2,1,70,0,1
76457,-100,4,1,1,70,0,1
76623,-100,4,2,1,70,0,1
76790,-100,4,1,1,70,0,1
76957,-100,4,2,1,70,0,1
77123,-100,4,1,1,70,0,1
77290,-100,4,2,1,70,0,1
77457,-100,4,1,1,70,0,1
77623,-100,4,2,1,70,0,1
77790,-100,4,1,1,70,0,1
77957,-100,4,2,1,70,0,1
78123,-100,4,1,1,70,0,1
78290,-100,4,2,1,70,0,1
78457,-100,4,1,1,70,0,1
78623,-100,4,2,1,70,0,1
78790,-100,4,1,1,70,0,1
78957,-100,4,2,1,70,0,1
79123,-100,4,1,1,70,0,1
79290,-100,4,2,1,70,0,1
79457,-100,4,1,1,70,0,1
79623,-100,4,2,1,70,0,1
79790,-100,4,1,1,70,0,1
79957,-100,4,2,1,70,0,1
80123,-100,4,1,1,70,0,1
80290,-100,4,2,1,70,0,1
80457,-100,4,1,1,70,0,1
80623,-100,4,2,1,70,0,1
80790,-100,4,1,1,70,0,1
80957,-100,4,2,1,70,0,1
81123,-100,4,1,1,70,0,1
81290,-100,4,2,1,70,0,1
81457,-100,4,1,1,70,0,1
81624,-100,4,2,1,70,0,1
81791,-100,4,1,1,70,0,1
81957,-100,4,2,1,70,0,1
82124,-100,4,1,1,70,0,1
82291,-100,4,2,1,70,0,1
82457,-100,4,1,1,70,0,1
82624,-100,4,2,1,70,0,1
82791,-100,4,1,1,70,0,1
82957,-100,4,2,1,70,0,1
83124,-100,4,1,1,70,0,1
83291,-100,4,2,1,70,0,1
83457,-100,4,1,1,70,0,1
83624,-100,4,2,1,70,0,1
83791,-100,4,1,1,70,0,1
83957,-100,4,2,1,70,0,1
84124,-100,4,1,1,70,0,1
84291,-100,4,2,1,70,0,1
84457,-100,4,1,1,70,0,1
85457,-100,4,1,3,70,0,1
85623,-100,4,2,1,70,0,1
85707,-100,4,1,1,70,0,1
86790,-100,4,2,1,70,0,0
87457,-100,4,2,1,40,0,1
87540,-100,4,2,1,5,0,0

[Colours]
Combo1 : 128,0,0
Combo2 : 0,64,128
Combo3 : 0,128,192
Combo4 : 64,0,64

[HitObjects]
52,96,1457,2,0,P|112:108|172:92,1,120
236,40,2290,2,0,P|276:36|316:44,1,80
256,192,2790,12,0,5123,3:0:0:0:
352,240,5957,6,0,L|432:248,2,80
156,136,7457,2,0,L|96:130,2,60,0|0|0,0:0|0:0|0:0,0:0:0:0:
256,192,8123,12,0,10457,3:0:0:0:
304,216,11290,6,0,P|316:264|312:296,1,80
228,264,11957,2,0,P|204:204|224:100,1,160
216,24,12957,1,0,0:0:0:0:
296,60,13290,2,0,B|372:88|440:40|440:40|492:84|468:160,1,280,0|0,0:0|3:0,0:0:0:0:
256,192,14790,12,0,17123,3:0:0:0:
256,192,17957,6,0,P|184:216|112:176,1,160
256,192,18790,12,0,21290,0:0:0:0:
256,188,22123,6,0,L|260:232,2,40,0|0|8,0:0|0:0|0:0,0:0:0:0:
184,140,22790,6,0,P|144:136|104:144,1,80,6|8,0:0|0:0,0:0:0:0:
24,248,23623,2,0,L|48:204,1,40,0|8,0:0|0:0,0:0:0:0:
16,128,24123,1,2,0:0:0:0:
76,64,24457,2,0,P|152:40|236:52,1,160,8|8,0:0|0:0,0:0:0:0:
296,108,25457,6,0,P|336:112|376:104,1,80,2|8,0:0|0:0,0:0:0:0:
408,24,26123,2,0,P|368:20|328:28,1,80,0|8,2:0|0:0,0:0:0:0:
240,36,26790,1,2,0:0:0:0:
180,100,27123,2,8,L|196:260,1,160
256,324,28123,5,2,0:0:0:0:
328,276,28457,2,8,B|376:240|440:248|440:248|480:276,2,160
256,324,30123,2,0,P|216:332|172:320,1,80,2|8,2:0|0:0,0:0:0:0:
148,240,30790,5,2,0:0:0:0:
188,160,31123,2,8,P|256:124|324:160,1,160
364,240,32123,1,2,0:0:0:0:
300,300,32457,2,8,B|272:276|256:234|256:234|240:276|212:300,1,160
144,244,33457,6,0,P|156:208|160:164,1,80,4|8,0:0|0:0,0:0:0:0:
208,48,34290,2,0,L|212:96,1,40,0|8,0:0|0:0,0:0:0:0:
300,88,34790,2,0,L|303:48,2,40,0|2|8,0:0|2:0|0:0,0:0:0:0:
351,166,35457,2,0,P|356:208|368:244,1,80,2|8,2:0|0:0,0:0:0:0:
296,292,36123,6,0,P|256:284|216:292,1,80,2|8,0:0|0:0,0:0:0:0:
256,164,36957,2,0,L|256:120,1,40,0|8,0:0|0:0,0:0:0:0:
188,68,37457,1,2,0:0:0:0:
164,152,37790,2,8,P|144:228|204:272,1,160
256,340,38790,5,2,0:0:0:0:
310,271,39123,2,8,P|368:228|348:152,1,160
276,100,40123,1,0,0:0:0:0:
200,144,40457,2,8,P|124:160|48:128,1,160
256,192,41457,12,2,43457,0:0:0:0:
256,192,44123,5,4,0:0:0:0:
212,116,44457,2,8,P|128:104|56:132,1,160
12,204,45457,1,0,0:0:0:0:
56,280,45790,2,8,P|140:292|212:264,1,160
256,340,46790,5,0,0:0:0:0:
303,266,47123,2,8,P|372:292|456:280,1,160
500,204,48123,1,0,0:0:0:0:
452,129,48457,2,8,P|384:104|300:116,1,160
212,96,49457,6,0,P|232:60|268:36,2,80,0|8|0,0:0|0:0|0:0,0:0:0:0:
236,180,50457,2,8,B|216:248|216:248|168:268|132:232,1,160
84,160,51457,2,0,P|80:124|88:76,1,80,0|8,0:0|0:0,0:0:0:0:
152,24,52123,5,0,0:0:0:0:
184,104,52457,2,8,B|216:96|216:96|240:124|272:124|296:96|296:96|328:104,1,160
360,24,53457,1,0,0:0:0:0:
425,80,53790,2,0,P|432:124|428:160,1,80,8|0,0:0|0:0,0:0:0:0:
364,220,54457,2,0,P|357:264|361:300,1,80,8|4,0:0|0:0,0:0:0:0:
304,368,55123,6,8,B|272:348|256:304|256:304|240:348|208:364,1,160
151,299,56123,2,0,P|155:264|148:220,1,80,0|8,0:0|0:0,0:0:0:0:
112,140,56790,1,0,0:0:0:0:
176,80,57123,6,8,P|256:88|336:80,1,160
400,140,58123,1,0,0:0:0:0:
364,220,58457,2,0,P|357:264|361:299,1,80,8|0,0:0|0:0,0:0:0:0:
312,372,59123,1,8,0:0:0:0:
256,304,59457,2,0,B|260:280|260:280|252:252|252:252|256:224,2,80,0|8|0,0:0|0:0|0:0,0:0:0:0:
200,372,60457,5,8,0:0:0:0:
140,308,60790,2,0,L|60:316,1,80,0|8,0:0|0:0,0:0:0:0:
12,244,61457,1,0,0:0:0:0:
72,180,61790,2,8,P|120:120|108:36,1,160
196,12,62790,5,0,0:0:0:0:
256,76,63123,2,0,B|252:104|252:104|260:132|260:132|256:156,2,80,8|0|8,0:0|0:0|0:0,0:0:0:0:
316,12,64123,1,2,0:0:0:0:
424,348,65457,6,0,P|384:344|344:352,1,80,4|8,0:0|0:0,0:0:0:0:
300,276,66123,1,0,0:0:0:0:
256,200,66457,2,8,B|264:148|264:148|248:96|248:96|256:40,2,160
212,276,68123,5,0,0:0:0:0:
166,351,68457,2,0,P|128:344|88:348,1,80,8|0,0:0|0:0,0:0:0:0:
36,280,69123,2,8,P|72:180|64:128,1,160
112,56,70123,2,0,P|152:48|192:48,1,80,0|8,0:0|0:0,0:0:0:0:
256,108,70790,5,0,0:0:0:0:
320,48,71123,2,0,P|360:48|400:56,1,80,8|0,0:0|0:0,0:0:0:0:
447,129,71790,2,8,P|440:180|476:280,1,160
400,324,72790,2,0,P|376:288|368:248,1,80,0|8,0:0|0:0,0:0:0:0:
340,168,73457,5,0,0:0:0:0:
312,84,73790,2,8,B|276:104|256:140|256:140|236:104|200:84,1,160
172,168,74790,1,0,0:0:0:0:
143,252,75123,2,0,P|136:288|112:324,2,80,8|0|8,0:0|0:0|0:0,0:0:0:0:
88,184,76123,5,4,0:0:0:0:
116,100,76457,2,8,B|168:120|172:176|172:176|208:128,1,160
256,52,77457,1,0,0:0:0:0:
304,128,77790,2,8,B|340:176|340:176|344:120|396:100,1,160
424,184,78790,5,0,0:0:0:0:
400,268,79123,2,0,P|360:272|320:264,1,80,8|0,0:0|0:0,0:0:0:0:
256,204,79790,1,8,0:0:0:0:
190,264,80123,2,0,P|152:272|112:268,1,80,0|8,0:0|0:0,0:0:0:0:
56,200,80790,2,0,L|64:120,1,80,0|8,0:0|0:0,0:0:0:0:
120,52,81457,5,0,0:0:0:0:
180,116,81790,2,8,P|256:140|332:116,1,160
392,52,82790,1,0,0:0:0:0:
448,120,83123,2,0,L|456:200,1,80,8|0,0:0|0:0,0:0:0:0:
416,276,83790,1,8,0:0:0:0:
348,332,84123,6,0,P|288:340|228:324,2,120,8|8|0,0:0|0:0|0:0,0:0:0:0:
372,296,85290,2,8,L|364:196,2,100,8|8|0,0:0|0:0|0:0,0:0:0:0:
404,324,86290,2,0,L|448:328,1,40,8|0,0:0|0:0,0:0:0:0:
256,140,87457,5,4,0:0:0:0:
256,192,87540,12,0,96123,0:0:0:0:
