osu file format v13

[General]
AudioFilename: namaenonaikaibutsu.mp3
AudioLeadIn: 0
PreviewTime: 70746
Countdown: 0
SampleSet: Soft
StackLeniency: 0.7
Mode: 0
LetterboxInBreaks: 1
WidescreenStoryboard: 0

[Editor]
DistanceSpacing: 1.6
BeatDivisor: 4
GridSize: 4
TimelineZoom: 1.4

[Metadata]
Title:Namae no Nai Kaibutsu
TitleUnicode:名前のない怪物
Artist:EGOIST
ArtistUnicode:EGOIST
Creator:LunarSakuya
Version:Insane
Source:PSYCHO-PASS
Tags:supercell chelly jonathanlfj
BeatmapID:425890
BeatmapSetID:69137

[Difficulty]
HPDrainRate:7
CircleSize:4
OverallDifficulty:7
ApproachRate:9
SliderMultiplier:1.7
SliderTickRate:1

[Events]
//Background and Video events
0,0,"egoistbg.jpg",0,0
//Break Periods
2,97779,106813
2,175113,182313
2,193779,203646
2,236446,246313
//Storyboard Layer 0 (Background)
//Storyboard Layer 1 (Fail)
//Storyboard Layer 2 (Pass)
//Storyboard Layer 3 (Foreground)
//Storyboard Sound Samples
//Background Colour Transformations
3,100,163,162,255

[TimingPoints]
1580,333.333333333333,4,1,1,70,1,0
22913,-100,4,2,1,60,0,0
27413,-133.333333333333,4,2,1,40,0,0
44246,-133.333333333333,4,3,1,40,0,0
49246,-100,4,1,1,50,0,0
68246,-100,4,2,1,50,0,0
70913,-100,4,1,1,75,0,1
92246,-100,4,2,1,60,0,0
94746,-100,4,2,1,20,0,0
94913,-100,4,2,1,40,0,0
107413,-133.333333333333,4,2,1,50,0,0
124246,-133.333333333333,4,3,1,50,0,0
129246,-100,4,1,1,50,0,0
148246,-100,4,3,1,50,0,0
150913,-100,4,1,1,75,0,1
172246,-100,4,2,1,60,0,0
172329,-100,4,2,1,40,0,0
182913,-100,4,1,2,40,0,0
204246,-100,4,2,1,65,0,0
208913,-200,4,2,1,65,0,0
209413,-100,4,2,1,65,0,0
210913,-100,4,2,1,50,0,0
211246,-100,4,2,1,65,0,0
212579,-111.111111111111,4,2,1,50,0,0
213246,-125,4,2,1,45,0,0
213913,-111.111111111111,4,2,1,50,0,0
214246,-100,4,2,1,60,0,0
214579,-90.9090909090909,4,2,1,50,0,0
214913,-100,4,1,1,70,0,1
214996,-100,4,1,1,70,0,0
224579,-100,4,1,1,50,0,0
225246,-100,4,1,1,50,0,0
225329,-100,4,1,1,70,0,0
246913,-125,4,1,2,40,0,0
256246,-153.846153846153,4,2,1,40,0,0
257579,-90.9090909090909,4,1,1,75,0,1
278913,-100,4,1,1,75,0,0
278996,-100,4,2,1,60,0,0
281413,-100,4,2,1,15,0,0
281579,-100,4,2,1,45,0,0
284246,-100,4,2,1,50,0,0

[Colours]
Combo1 : 255,117,51
Combo2 : 128,0,255
Combo3 : 255,106,106
Combo4 : 0,89,179

[HitObjects]
256,192,22913,5,4,0:0:0:0:
256,192,22996,12,2,25579,0:0:0:0:
400,200,27413,6,0,P|412:248|400:336,2,127.500004863739
340,136,28246,2,0,L|264:120,1,63.7500024318696,2|0,0:0|0:0,0:0:0:0:
200,180,28579,1,0,0:0:0:0:
108,196,28746,2,0,P|112:140|168:92,1,127.500004863739
200,180,29246,1,0,0:0:0:0:
172,272,29413,2,0,P|124:296|52:280,1,127.500004863739
16,192,29913,1,0,0:0:0:0:
268,280,30246,2,0,L|280:352,2,63.7500024318696
320,200,30746,5,0,0:0:0:0:
320,200,30829,1,0,0:0:0:0:
320,200,30913,2,0,P|372:172|440:192,1,127.500004863739,2|0,0:0|0:0,0:0:0:0:
480,108,31413,2,0,L|488:44,1,63.7500024318696
384,257,31746,2,0,L|404:325,2,63.7500024318696
284,128,32246,2,0,P|248:164|252:240,1,127.500004863739
180,316,32746,2,0,L|52:332,2,127.500004863739
276,248,33579,6,0,P|300:188|284:128,1,127.500004863739,2|0,0:0|0:0,0:0:0:0:
192,88,34079,1,0,0:0:0:0:
192,188,34246,2,0,L|96:204,2,95.6250036478044
176,284,34913,2,0,L|48:304,2,127.500004863739
256,340,35746,1,0,0:0:0:0:
336,284,35913,2,0,L|464:304,1,127.500004863739,0|2,0:0|0:0,0:0:0:0:
444,92,36579,6,0,P|452:148|412:220,1,127.500004863739
336,284,37079,1,0,0:0:0:0:
272,192,37246,2,0,L|268:128,1,63.7500024318696
172,60,37579,2,0,L|180:188,1,127.500004863739
152,284,38079,2,0,P|100:284|44:236,1,127.500004863739,0|0,0:0|0:0,0:0:0:0:
152,284,38579,2,0,L|216:308,1,63.7500024318696
316,344,38913,6,0,P|352:288|340:228,1,127.500004863739,2|0,0:0|0:0,0:0:0:0:
276,160,39413,2,0,L|212:176,1,63.7500024318696
364,116,39746,2,0,L|428:132,1,63.7500024318696
276,160,40079,2,0,P|264:96|296:44,1,127.500004863739
176,76,40579,1,0,0:0:0:0:
176,76,40913,2,0,L|96:92,2,63.7500024318696
112,176,41413,5,0,0:0:0:0:
112,176,41496,1,0,0:0:0:0:
112,176,41579,2,0,B|96:232|96:232|92:264|108:300,1,127.500004863739,2|0,0:0|0:0,0:0:0:0:
200,348,42079,1,0,0:0:0:0:
272,272,42246,2,0,P|288:296|300:332,1,63.7500024318696
336,208,42579,2,0,P|344:176|360:148,1,63.7500024318696
444,120,42913,2,0,P|400:72|340:64,1,127.500004863739
244,116,43413,2,0,L|228:184,1,63.7500024318696
168,40,43746,2,0,P|112:40|56:92,1,127.500004863739
52,192,44246,6,0,B|68:256|68:256|116:308,1,127.500004863739,0|2,0:0|0:0,0:0:0:0:
232,332,44746,1,0,0:0:0:0:
232,332,44829,1,0,0:0:0:0:
232,332,44913,2,0,L|296:312,1,63.7500024318696
176,232,45246,1,0,0:0:0:0:
52,192,45413,2,0,P|72:136|136:100,1,127.500004863739
236,112,45913,2,0,L|336:132,1,95.6250036478044,2|0,0:0|0:0,0:0:0:0:
376,140,46246,1,0,0:0:0:0:
324,232,46413,1,0,0:0:0:0:
442,294,46579,2,0,L|428:232,1,63.7500024318696,2|0,0:0|0:0,0:0:0:0:
236,112,46913,6,0,L|221:174,1,63.7500024318696
152,256,47246,2,0,P|124:220|116:168,1,95.6250036478044,2|0,0:0|0:0,0:0:0:0:
92,136,47579,2,0,L|24:152,1,63.7500024318696
152,52,47913,1,0,0:0:0:0:
236,112,48079,2,0,L|328:144,2,95.6250036478044
152,256,48746,2,0,P|156:288|176:320,1,63.7500024318696,0|0,0:0|1:0,0:0:0:0:
288,352,49079,1,0,1:0:0:0:
380,272,49246,1,8,0:0:0:0:
392,260,49579,6,0,P|408:180|360:100,1,170,4|8,0:0|0:0,0:0:0:0:
239,175,50079,1,0,0:0:0:0:
176,288,50246,2,0,L|192:376,1,85,2|0,0:2|0:0,0:0:0:0:
239,175,50579,2,0,P|200:160|158:162,1,85,8|0,0:0|0:0,0:0:0:0:
56,248,50913,6,0,P|28:192|48:88,2,170,0|8|2,0:0|0:0|0:2,0:0:0:0:
240,176,51746,1,0,0:0:0:0:
124,160,51913,1,8,0:0:0:0:
168,276,52079,1,0,0:0:0:0:
312,232,52246,6,0,P|328:152|264:88,1,170,0|8,0:0|0:0,0:0:0:0:
168,276,52746,2,0,B|240:328|240:328|320:340,1,170
424,232,53246,1,8,0:0:0:0:
316,140,53413,2,0,P|272:148|240:176,1,85
432,148,53746,6,0,P|430:103|406:67,1,85,0|8,0:0|0:0,0:0:0:0:
272,48,54079,1,0,0:0:0:0:
200,160,54246,2,0,L|216:248,1,85,2|2,0:2|0:2,0:0:0:0:
348,324,54579,2,0,L|332:236,1,85,8|0,0:0|0:0,0:0:0:0:
120,260,54913,6,0,P|140:304|260:328,1,170,4|8,0:0|0:0,0:0:0:0:
200,160,55413,2,0,L|128:108,1,85,0|2,0:0|0:2,0:0:0:0:
212,252,55746,1,0,0:0:0:0:
312,160,55913,2,0,L|384:108,1,85,8|0,0:0|0:0,0:0:0:0:
496,268,56246,6,0,P|444:252|340:292,1,170,0|8,0:0|0:0,0:0:0:0:
240,360,56746,1,0,0:0:0:0:
112,320,56913,2,0,P|92:280|92:232,1,85,2|0,0:2|0:0,0:0:0:0:
212,252,57246,1,8,0:0:0:0:
332,196,57413,5,0,0:0:0:0:
332,196,57496,1,0,0:0:0:0:
332,196,57579,2,0,B|336:128|336:128|332:76|292:28,1,170,0|8,0:0|0:0,0:0:0:0:
136,128,58079,1,0,0:0:0:0:
136,128,58163,1,0,0:0:0:0:
136,128,58246,2,0,B|132:180|132:180|136:216,1,85,2|0,0:2|0:0,0:0:0:0:
224,340,58579,1,8,0:0:0:0:
360,300,58746,5,0,0:0:0:0:
360,300,58829,1,0,0:0:0:0:
360,300,58913,2,0,P|416:264|428:164,1,170,0|8,0:0|0:0,0:0:0:0:
188,92,59413,2,0,L|140:84,2,42.5,8|0|0,3:0|0:0|0:0,0:0:0:0:
236,236,59746,1,0,0:0:0:0:
348,168,59913,2,0,P|349:120|345:80,1,85,8|0,0:0|0:0,0:0:0:0:
142,178,60246,6,0,P|131:261|176:332,1,170,4|8,0:0|0:0,0:0:0:0:
320,248,60746,1,0,0:0:0:0:
408,112,60913,2,0,L|456:192,1,85,2|0,0:2|0:0,0:0:0:0:
296,76,61246,1,8,0:0:0:0:
232,204,61413,2,0,P|180:264|92:260,1,170
188,88,61913,6,0,L|276:104,1,85,8|0,0:0|0:0,0:0:0:0:
76,168,62246,1,2,0:2:0:0:
120,40,62413,1,0,0:0:0:0:
256,208,62579,2,0,L|256:296,1,85,8|0,0:0|0:0,0:0:0:0:
88,212,62913,6,0,L|32:276,1,85,2|0,0:2|0:0,0:0:0:0:
148,372,63246,1,8,0:0:0:0:
180,272,63413,1,0,0:0:0:0:
332,272,63579,1,0,0:0:0:0:
364,372,63746,1,0,0:0:0:0:
256,192,63913,2,0,L|256:100,1,85,8|0,0:0|0:0,0:0:0:0:
396,208,64246,6,0,L|480:224,2,85,2|0|8,0:2|0:0|0:0,0:0:0:0:
168,172,64746,2,0,P|172:220|192:256,1,85
328,96,65079,2,0,P|352:60|392:36,1,85,0|8,0:0|0:0,0:0:0:0:
432,288,65413,6,0,B|396:296|396:296|356:288|356:288|312:304|260:288,1,170
148,344,65913,1,8,0:0:0:0:
48,200,66079,2,0,P|48:244|64:284,1,85,0|2,0:0|0:2,0:0:0:0:
192,144,66413,2,0,P|208:100|208:56,1,85,0|8,0:0|0:0,0:0:0:0:
274,277,66746,6,0,P|362:257|438:293,1,170
172,304,67246,1,8,0:0:0:0:
288,164,67413,1,0,0:0:0:0:
112,180,67579,2,0,L|93:98,1,85,2|0,0:2|0:0,0:0:0:0:
272,256,67913,2,0,L|248:344,1,85,8|0,0:0|0:0,0:0:0:0:
372,208,68246,6,0,P|413:214|456:204,2,85,0|0|0,0:0|0:0|0:0,2:0:0:0:
256,156,68746,1,0,0:0:0:0:
388,128,68913,2,0,B|372:180|372:180|372:208|372:208|344:300,1,170,2|8,3:0|3:0,0:0:0:0:
420,352,69413,2,0,L|444:260,1,85,0|0,0:0|0:0,0:0:0:0:
216,180,69746,5,2,3:0:0:0:
292,296,69913,1,0,2:0:0:0:
156,304,70079,1,0,0:0:0:0:
248,144,70246,2,0,B|280:132|280:132|296:112|296:112|336:96,1,85,2|0,3:0|0:0,0:0:0:0:
340,96,70746,1,0,0:0:0:0:
412,248,70913,6,0,P|328:236|256:284,1,170,4|8,0:0|0:0,0:0:0:0:
128,144,71413,2,0,P|212:156|280:108,1,170,0|0,0:0|0:0,0:0:0:0:
188,56,71913,1,8,0:0:0:0:
96,228,72079,1,0,0:0:0:0:
172,328,72246,6,0,L|252:296,1,85
392,244,72579,2,0,L|308:220,1,85,8|0,0:0|0:0,0:0:0:0:
156,168,72913,2,0,L|236:132,1,85
352,88,73246,1,8,0:0:0:0:
392,244,73413,1,0,0:0:0:0:
304,344,73579,6,0,P|256:308|244:200,1,170,0|8,0:0|0:0,0:0:0:0:
264,40,74079,2,0,L|108:108,1,170
196,192,74579,1,8,0:0:0:0:
116,281,74746,5,0,0:0:0:0:
116,281,74829,1,0,0:0:0:0:
116,281,74913,2,0,L|200:312,1,85
396,281,75246,2,0,L|312:312,1,85,8|0,0:0|0:0,0:0:0:0:
256,160,75579,2,0,L|256:248,2,85,0|0|8,0:0|0:0|0:0,0:0:0:0:
256,56,76079,1,0,0:0:0:0:
140,160,76246,6,0,B|124:196|104:212|104:212|92:264|36:292,1,170,0|8,0:0|0:0,0:0:0:0:
52,128,76746,2,0,P|80:88|116:68,1,85,0|0,0:0|0:0,0:0:0:0:
208,280,77079,1,0,0:0:0:0:
288,192,77246,2,0,P|292:144|272:100,1,85,8|0,0:0|0:0,0:0:0:0:
384,48,77579,6,0,B|397:139|397:139|415:172|415:172|423:215,1,170,0|8,0:0|0:0,0:0:0:0:
324,320,78079,2,0,L|236:312,1,85
300,200,78413,1,0,0:0:0:0:
152,304,78579,1,8,0:0:0:0:
312,212,78746,1,0,0:0:0:0:
160,204,78913,6,0,P|152:156|160:120,1,85
320,112,79246,1,8,0:0:0:0:
392,208,79413,2,0,P|346:281|266:288,1,170
160,204,79913,2,0,P|140:240|132:284,1,85,8|0,0:0|0:0,0:0:0:0:
240,88,80246,5,2,2:0:0:0:
276,96,80329,1,0,2:0:0:0:
308,120,80413,1,0,1:0:0:0:
328,152,80496,1,0,2:0:0:0:
340,188,80579,1,0,2:0:0:0:
336,228,80663,1,0,2:0:0:0:
328,264,80746,2,0,L|300:352,1,85,0|0,0:0|2:0,0:0:0:0:
440,148,81079,2,0,L|414:67,1,85,0|0,1:0|2:0,0:0:0:0:
232,196,81413,1,0,0:0:0:0:
248,324,81579,6,0,P|316:352|408:328,1,170,4|8,0:0|0:0,0:0:0:0:
272,156,82079,2,0,P|204:128|112:152,1,170,0|0,0:0|0:0,0:0:0:0:
64,268,82579,1,8,0:0:0:0:
144,360,82746,1,0,0:0:0:0:
268,328,82913,6,0,L|304:252,1,85
176,184,83246,2,0,L|148:104,1,85,8|0,0:0|0:0,0:0:0:0:
344,116,83579,2,0,L|372:32,1,85
288,220,83913,1,8,0:0:0:0:
176,300,84079,1,0,0:0:0:0:
68,224,84246,6,0,P|64:144|124:76,1,170,0|8,0:0|0:0,0:0:0:0:
176,184,84746,2,0,P|256:216|332:184,1,170
404,96,85246,2,0,P|434:131|446:175,1,85,8|0,0:0|0:0,0:0:0:0:
312,288,85579,5,0,0:0:0:0:
256,116,85746,1,0,0:0:0:0:
200,288,85913,1,8,0:0:0:0:
343,184,86079,1,0,0:0:0:0:
176,184,86246,2,0,L|79:184,2,85,0|0|8,0:0|0:0|0:0,0:0:0:0:
312,40,86746,5,0,0:0:0:0:
312,40,86913,2,0,B|372:96|340:168|340:168|352:208,1,170,0|8,0:0|0:0,0:0:0:0:
436,324,87413,2,0,L|452:240,1,85
256,120,87746,1,0,0:0:0:0:
284,272,87913,2,0,P|324:292|368:292,1,85,8|0,0:0|0:0,0:0:0:0:
256,120,88246,6,0,P|184:104|104:152,1,170,0|8,0:0|0:0,0:0:0:0:
232,332,88746,2,0,L|248:244,1,85
64,248,89079,1,0,0:0:0:0:
136,364,89246,1,8,0:0:0:0:
196,200,89413,1,0,0:0:0:0:
264,336,89579,6,0,L|392:292,1,127.5
384,294,89913,2,0,L|408:208,1,85,0|8,0:0|0:0,0:0:0:0:
308,88,90246,1,0,0:0:0:0:
192,192,90413,1,0,0:0:0:0:
264,336,90579,2,0,L|284:252,1,85,8|0,0:0|0:0,0:0:0:0:
176,108,90913,6,0,P|128:136|108:204,1,127.5,8|8,0:0|0:0,0:0:0:0:
120,256,91246,1,0,0:0:0:0:
288,140,91413,2,0,L|376:148,1,85,0|8,0:0|0:0,0:0:0:0:
416,280,91746,1,0,0:0:0:0:
264,336,91913,1,8,0:0:0:0:
264,336,91996,1,0,0:0:0:0:
264,336,92079,1,0,0:0:0:0:
184,192,92246,1,4,0:0:0:0:
256,192,92329,12,0,94746,0:0:0:0:
256,192,94913,12,2,97579,0:0:0:0:
332,84,107413,5,0,0:0:0:0:
332,84,107579,1,0,0:0:0:0:
400,160,107746,2,0,P|420:200|404:284,1,127.500004863739
300,180,108246,6,0,P|248:160|176:176,1,127.500004863739,2|0,0:0|0:0,0:0:0:0:
128,256,108746,1,0,0:0:0:0:
192,328,108913,2,0,L|260:340,1,63.7500024318696
128,256,109246,1,0,0:0:0:0:
64,324,109413,2,0,P|36:280|52:204,1,127.500004863739,0|0,0:0|0:0,0:0:0:0:
112,136,109913,1,0,0:0:0:0:
204,164,110079,1,0,0:0:0:0:
352,72,110413,2,0,L|416:64,2,63.7500024318696
296,148,110913,6,0,P|288:204|324:272,1,127.500004863739,2|0,0:0|0:0,0:0:0:0:
396,192,111413,1,0,0:0:0:0:
420,312,111579,1,0,0:0:0:0:
412,332,111663,1,0,0:0:0:0:
404,352,111746,1,0,0:0:0:0:
288,372,111913,2,0,P|248:364|220:352,1,63.7500024318696,0|0,0:0|0:0,0:0:0:0:
168,260,112246,2,0,B|114:263|114:263|88:272|88:272|36:276,1,127.500004863739
124,176,112746,2,0,L|192:172,1,63.7500024318696
224,84,113079,2,0,L|160:88,1,63.7500024318696,0|0,0:0|0:0,0:0:0:0:
276,164,113413,1,0,0:0:0:0:
336,88,113579,6,0,P|372:140|364:204,1,127.500004863739,2|0,0:0|0:0,0:0:0:0:
312,284,114079,2,0,L|304:348,1,63.7500024318696
224,236,114413,2,0,L|164:272,1,63.7500024318696
140,148,114746,2,0,P|88:112|16:124,1,127.500004863739
136,240,115246,1,0,0:0:0:0:
232,148,115413,1,0,0:0:0:0:
312,240,115579,2,0,L|324:308,1,63.7500024318696
232,148,115913,2,0,L|252:80,1,63.7500024318696
384,172,116246,6,0,P|404:204|408:236,1,63.7500024318696,2|0,0:0|0:0,0:0:0:0:
348,344,116579,1,0,0:0:0:0:
232,304,116746,2,0,P|204:256|220:184,1,127.500004863739
152,104,117246,2,0,L|84:136,1,63.7500024318696
352,204,117579,2,0,P|336:112|251:81,1,191.250007295609
259,182,118246,2,0,L|272:252,1,63.7500024318696
348,328,118579,2,0,L|288:348,1,63.7500024318696
176,176,118913,6,0,P|204:116|260:96,1,127.500004863739,2|0,0:0|0:0,0:0:0:0:
368,48,119413,1,0,0:0:0:0:
380,156,119579,2,0,L|392:232,1,63.7500024318696
288,112,119913,1,0,0:0:0:0:
460,124,120079,2,0,L|480:252,1,127.500004863739
360,344,120579,1,0,0:0:0:0:
296,264,120746,2,0,P|240:244|172:260,1,127.500004863739
96,204,121246,2,0,P|80:240|80:276,1,63.7500024318696
188,136,121579,6,0,L|180:64,1,63.7500024318696,2|0,0:0|0:0,0:0:0:0:
96,204,121913,1,0,0:0:0:0:
200,256,122079,2,0,B|248:248|248:248|272:252|272:252|332:240,1,127.500004863739
200,256,122579,2,0,L|144:296,1,63.7500024318696
288,168,122913,2,0,L|300:96,1,63.7500024318696,2|0,0:0|0:0,0:0:0:0:
128,220,123246,2,0,L|68:264,1,63.7500024318696
272,320,123579,1,2,0:0:0:0:
376,248,123746,2,0,B|404:192|404:192|396:124,1,127.500004863739,0|0,0:0|0:0,0:0:0:0:
288,168,124246,6,0,P|244:128|240:56,1,127.500004863739,0|2,3:0|0:0,0:0:0:0:
336,80,124746,1,0,0:0:0:0:
336,80,124829,1,0,0:0:0:0:
336,80,124913,1,0,0:0:0:0:
168,168,125079,2,0,L|156:240,1,63.7500024318696
111,340,125413,2,0,P|83:324|64:300,2,63.7500024318696,0|0|0,0:0|0:0|0:0,0:0:0:0:
80,160,125913,2,0,P|96:112|136:84,1,95.6250036478044,2|0,0:0|0:0,0:0:0:0:
176,72,126246,2,0,L|244:72,1,63.7500024318696
392,156,126579,2,0,L|324:156,1,63.7500024318696,2|0,0:0|0:0,0:0:0:0:
280,308,126913,6,0,L|272:232,1,63.7500024318696,2|0,0:2|0:0,0:0:0:0:
176,72,127246,2,0,L|188:168,1,95.6250036478044,2|0,0:0|0:0,0:0:0:0:
160,208,127579,1,0,0:0:0:0:
48,232,127746,1,0,0:0:0:0:
164,316,127913,1,0,0:0:0:0:
272,212,128079,2,0,P|300:176|352:160,2,95.6250036478044,0|0|0,0:0|0:0|0:0,0:0:0:0:
216,116,128746,2,0,L|224:52,1,63.7500024318696
352,248,129079,1,0,0:0:0:0:
224,336,129246,1,8,0:0:0:0:
208,328,129579,6,0,B|132:304|132:304|44:324,1,170,4|8,0:0|0:0,0:0:0:0:
160,180,130079,1,0,0:0:0:0:
296,164,130246,2,0,P|296:208|284:248,1,85,2|0,0:2|0:0,0:0:0:0:
52,144,130579,2,0,P|72:105|114:77,1,85,8|0,0:0|0:0,0:0:0:0:
264,260,130913,6,0,B|368:248|368:248|420:204,2,170,0|8|2,0:0|0:0|0:2,0:0:0:0:
208,104,131746,1,0,0:0:0:0:
120,244,131913,2,0,L|96:328,1,85,8|0,0:0|0:0,0:0:0:0:
276,176,132246,6,0,P|312:100|272:24,1,170,0|8,0:0|0:0,0:0:0:0:
268,268,132746,2,0,P|315:337|401:340,1,170,0|0,0:0|0:0,0:0:0:0:
196,216,133246,1,8,0:0:0:0:
80,264,133413,1,0,0:0:0:0:
120,124,133579,6,0,L|144:36,1,85
286,185,133913,2,0,L|268:268,1,85,8|0,0:0|0:0,0:0:0:0:
248,72,134246,1,2,0:2:0:0:
356,244,134413,1,2,0:2:0:0:
152,188,134579,2,0,L|136:100,1,85,8|0,0:0|0:0,0:0:0:0:
286,185,134913,6,0,P|352:148|364:56,1,170,4|8,0:0|0:0,0:0:0:0:
212,256,135413,2,0,P|216:300|240:336,1,85,0|2,0:0|0:2,0:0:0:0:
188,160,135746,2,0,P|148:148|104:156,1,85,0|8,0:0|0:0,0:0:0:0:
136,312,136079,1,0,0:0:0:0:
304,272,136246,6,0,P|384:256|468:300,1,170,0|8,0:0|0:0,0:0:0:0:
496,156,136746,1,0,0:0:0:0:
332,192,136913,1,2,0:2:0:0:
440,320,137079,1,0,0:0:0:0:
408,144,137246,1,8,0:0:0:0:
240,208,137413,5,0,0:0:0:0:
240,208,137496,1,0,0:0:0:0:
240,208,137579,2,0,P|188:236|72:216,1,170,0|8,0:0|0:0,0:0:0:0:
244,104,138079,1,0,0:0:0:0:
244,104,138163,1,0,0:0:0:0:
244,104,138246,2,0,P|260:156|360:208,1,170,2|8,0:2|0:0,0:0:0:0:
144,48,138746,5,0,0:0:0:0:
144,48,138829,1,0,0:0:0:0:
144,48,138913,2,0,P|128:124|48:184,1,170,0|8,0:0|0:0,0:0:0:0:
244,104,139413,1,8,3:0:0:0:
180,228,139579,2,0,P|172:276|180:324,1,85,2|0,0:2|0:0,0:0:0:0:
312,164,139913,2,0,P|332:112|332:80,1,85,8|0,0:0|0:0,0:0:0:0:
88,244,140246,6,0,P|48:172|64:88,1,170,4|8,0:0|0:0,0:0:0:0:
188,40,140746,1,0,0:0:0:0:
205,199,140913,2,0,P|168:188|132:156,1,85,2|0,0:2|0:0,0:0:0:0:
378,158,141246,2,0,P|347:186|307:199,1,85,8|0,0:0|0:0,0:0:0:0:
408,76,141579,6,0,P|456:124|440:220,2,170,0|8|2,0:0|0:0|0:2,0:0:0:0:
184,120,142413,1,0,0:0:0:0:
324,236,142579,2,0,L|308:152,1,85,8|0,0:0|0:0,0:0:0:0:
172,292,142913,6,0,P|186:331|215:362,1,85,2|0,0:2|0:0,0:0:0:0:
376,316,143246,2,0,P|405:285|420:246,1,85,8|0,0:0|0:0,0:0:0:0:
228,132,143579,2,0,P|218:173|224:215,1,85,2|0,0:2|0:0,0:0:0:0:
388,116,143913,2,0,P|375:76|350:43,1,85,8|0,0:0|0:0,0:0:0:0:
64,132,144246,6,0,P|116:60|200:56,1,170,0|8,0:0|0:0,0:0:0:0:
272,160,144746,2,0,L|300:240,1,85,0|2,0:0|0:2,0:0:0:0:
352,68,145079,2,0,L|416:136,1,85,0|8,0:0|0:0,0:0:0:0:
460,252,145413,1,0,0:0:0:0:
340,304,145579,6,0,B|296:312|276:304|276:304|256:312|256:312|236:304|236:304|216:312|168:304,1,170,0|8,0:0|0:0,0:0:0:0:
184,108,146079,1,0,0:0:0:0:
88,224,146246,2,0,P|72:184|76:136,1,85,2|0,0:2|0:0,0:0:0:0:
200,240,146579,1,8,0:0:0:0:
296,332,146746,6,0,P|360:300|384:192,1,170
252,164,147246,1,8,0:0:0:0:
204,328,147413,1,0,0:0:0:0:
172,144,147579,1,2,0:2:0:0:
260,268,147746,1,0,0:0:0:0:
108,200,147913,1,8,0:0:0:0:
232,84,148079,1,0,0:0:0:0:
336,208,148246,6,0,L|432:216,2,85,0|0|0,0:0|0:0|0:0,0:0:0:0:
332,332,148746,1,0,0:0:0:0:
216,280,148913,2,0,L|132:284,1,85,2|0,0:0|0:0,0:0:0:0:
104,292,149163,1,0,0:0:0:0:
76,300,149246,2,0,P|56:336|52:380,1,85
236,200,149579,1,0,0:0:0:0:
328,120,149746,2,0,L|344:32,1,85,2|0,0:0|0:0,0:0:0:0:
256,228,150079,1,0,0:0:0:0:
135,182,150246,2,0,L|116:100,1,85,2|0,0:0|0:0,0:0:0:0:
118,82,150746,1,0,2:0:0:0:
272,176,150913,6,0,P|344:204|436:184,1,170,4|8,0:0|0:0,0:0:0:0:
244,68,151413,2,0,P|172:40|80:60,1,170,0|0,0:0|0:0,0:0:0:0:
24,272,151913,1,8,0:0:0:0:
152,256,152079,1,0,0:0:0:0:
156,236,152163,1,0,0:0:0:0:
160,216,152246,6,0,P|144:176|132:136,1,85,0|0,0:0|0:0,0:0:0:0:
256,64,152579,2,0,L|256:148,1,85,8|0,0:0|0:0,0:0:0:0:
352,216,152913,2,0,P|368:176|380:136,1,85,0|0,0:0|0:0,0:0:0:0:
448,244,153246,1,8,0:0:0:0:
364,344,153413,1,0,0:0:0:0:
236,328,153579,6,0,L|76:256,1,170,0|8,0:0|0:0,0:0:0:0:
188,196,154079,2,0,P|240:192|296:96,1,170
176,36,154579,1,8,0:0:0:0:
108,184,154746,1,0,0:0:0:0:
108,184,154829,1,0,0:0:0:0:
108,184,154913,6,0,P|120:228|144:264,1,85
368,276,155246,2,0,P|336:300|288:316,1,85,8|0,0:0|0:0,0:0:0:0:
208,104,155579,2,0,P|208:152|220:200,1,85
293,314,155913,1,8,0:0:0:0:
412,188,156079,1,0,0:0:0:0:
346,49,156246,6,0,P|290:109|208:104,1,170,0|8,0:0|0:0,0:0:0:0:
60,212,156746,2,0,L|144:204,1,85
200,28,157079,1,0,0:0:0:0:
36,132,157246,2,0,L|120:124,1,85,8|0,0:0|0:0,0:0:0:0:
256,300,157579,6,0,P|168:284|88:324,1,170,0|8,0:0|0:0,0:0:0:0:
348,248,158079,2,0,P|360:208|352:156,1,85
236,64,158413,1,0,0:0:0:0:
156,224,158579,2,0,P|152:264|168:308,1,85,8|0,0:0|0:0,0:0:0:0:
292,176,158913,6,0,P|356:160|436:224,1,170,0|8,0:0|0:0,0:0:0:0:
156,224,159413,2,0,P|112:232|72:268,1,85
248,300,159746,1,0,0:0:0:0:
200,132,159913,2,0,P|176:88|144:60,1,85,8|0,0:0|0:0,0:0:0:0:
44,212,160246,5,2,2:0:0:0:
36,248,160329,1,0,2:0:0:0:
44,284,160413,1,0,0:0:0:0:
68,316,160496,1,0,2:0:0:0:
104,328,160579,1,0,2:0:0:0:
144,324,160663,1,0,2:0:0:0:
176,308,160746,2,0,L|264:304,1,85,0|0,0:0|2:0,0:0:0:0:
183,94,161079,2,0,L|112:140,1,85,0|0,0:0|2:0,0:0:0:0:
36,324,161413,1,0,0:0:0:0:
192,208,161579,6,0,P|284:168|364:160,1,170,4|8,0:0|0:0,0:0:0:0:
488,336,162079,2,0,P|416:308|324:312,1,170
176,344,162579,1,8,0:0:0:0:
248,172,162746,1,0,0:0:0:0:
68,280,162913,6,0,L|84:364,1,85
216,140,163246,2,0,L|204:232,1,85,8|0,0:0|0:0,0:0:0:0:
80,136,163579,2,0,L|56:48,1,85,0|0,0:0|0:0,0:0:0:0:
168,216,163913,1,8,0:0:0:0:
208,52,164079,1,0,0:0:0:0:
336,160,164246,6,0,B|360:204|360:204|360:244|360:244|380:280|384:324,1,170,0|8,0:0|0:0,0:0:0:0:
176,160,164746,2,0,B|152:204|152:204|152:244|152:244|132:280|128:324,1,170,0|0,0:0|0:0,0:0:0:0:
256,92,165246,1,8,0:0:0:0:
256,228,165413,1,0,0:0:0:0:
256,264,165496,1,0,0:0:0:0:
256,300,165579,5,0,0:0:0:0:
336,160,165746,1,0,0:0:0:0:
256,336,165913,1,8,0:0:0:0:
120,232,166079,1,0,0:0:0:0:
256,372,166246,1,0,0:0:0:0:
408,276,166413,2,0,P|428:236|432:192,1,85,0|8,0:0|0:0,0:0:0:0:
256,192,166746,5,0,0:0:0:0:
140,292,166913,2,0,L|96:124,1,170,0|8,0:0|0:0,0:0:0:0:
56,332,167413,2,0,L|32:248,1,85,0|0,0:0|0:0,0:0:0:0:
144,120,167746,1,0,0:0:0:0:
216,280,167913,2,0,P|256:288|300:276,1,85,8|0,0:0|0:0,0:0:0:0:
452,184,168246,6,0,P|392:156|292:192,1,170,0|8,0:0|0:0,0:0:0:0:
412,360,168746,2,0,P|412:308|400:272,1,85
232,260,169079,1,0,0:0:0:0:
296,72,169246,2,0,P|308:116|296:168,1,85,8|0,0:0|0:0,0:0:0:0:
84,176,169579,6,0,P|128:124|224:120,1,170,8|0,0:0|0:0,0:0:0:0:
136,272,170079,1,8,0:0:0:0:
52,160,170246,2,0,L|60:60,1,85
224,232,170579,2,0,L|232:328,1,85,8|0,0:0|0:0,0:0:0:0:
304,128,170913,6,0,P|356:120|424:156,1,127.5,8|8,0:0|0:0,0:0:0:0:
444,224,171246,1,0,0:0:0:0:
340,340,171413,1,8,0:0:0:0:
340,340,171496,1,0,0:0:0:0:
340,340,171579,1,0,0:0:0:0:
224,232,171746,1,0,0:0:0:0:
104,316,171913,1,8,0:0:0:0:
88,280,171996,1,0,0:0:0:0:
76,244,172079,1,0,0:0:0:0:
64,208,172163,1,0,0:0:0:0:
52,172,172246,1,4,0:0:0:0:
256,192,172329,12,2,174913,0:0:0:0:
144,136,182913,5,4,0:0:0:0:
312,80,183246,1,0,0:0:0:0:
376,252,183579,1,8,0:0:0:0:
192,304,183913,1,0,0:0:0:0:
368,136,184246,5,0,0:0:0:0:
200,80,184579,1,0,0:0:0:0:
136,252,184913,1,8,0:0:0:0:
320,304,185246,1,0,0:0:0:0:
216,164,185579,6,0,B|136:148|136:148|88:68,1,170
304,120,186079,1,0,0:0:0:0:
240,264,186246,2,0,L|164:312,1,85,8|8,0:0|3:0,0:0:0:0:
372,192,186579,2,0,L|460:208,1,85
332,280,186913,1,0,0:0:0:0:
224,176,187079,2,0,L|140:164,1,85,0|0,0:0|3:0,0:0:0:0:
304,120,187413,1,0,0:0:0:0:
332,280,187579,2,0,L|352:380,1,85,8|8,0:0|3:0,0:0:0:0:
224,176,187913,1,0,0:0:0:0:
84,80,188246,5,0,0:0:0:0:
84,80,188579,2,0,L|104:168,1,85,0|0,0:0|0:0,0:0:0:0:
136,304,188913,1,8,0:0:0:0:
136,304,189246,2,0,L|220:272,1,85,0|0,0:0|0:0,0:0:0:0:
376,304,189579,2,0,L|292:272,1,85,0|0,0:0|0:0,0:0:0:0:
160,196,189913,1,0,0:0:0:0:
160,196,190246,2,0,L|176:112,1,85,8|0,0:0|0:0,0:0:0:0:
284,96,190579,2,0,L|268:184,1,85,0|0,0:0|0:0,0:0:0:0:
176,112,190913,6,0,L|149:27,1,85
360,159,191246,2,0,L|448:178,1,85
231,298,191579,1,8,0:0:0:0:
231,298,191913,2,0,L|171:365,1,85
112,176,192246,1,0,0:0:0:0:
112,176,192579,2,0,P|128:224|152:248,1,85
360,247,192913,2,0,P|388:216|400:176,1,85,8|0,0:0|0:0,0:0:0:0:
256,72,193246,2,0,L|256:164,1,85
256,344,193579,1,4,0:0:0:0:
408,124,204246,6,0,L|424:208,2,85,4|0|2,0:0|0:0|0:0,0:0:0:0:
304,60,204746,1,0,0:0:0:0:
212,144,204913,2,0,P|184:184|168:220,1,85,2|0,0:0|0:0,0:0:0:0:
328,204,205246,2,0,P|360:232|384:272,1,85,2|0,0:0|0:0,0:0:0:0:
100,164,205579,2,0,P|88:212|92:252,1,85,2|0,0:0|0:0,0:0:0:0:
300,288,205913,2,0,P|312:336|308:376,1,85,2|0,0:0|0:0,0:0:0:0:
212,192,206246,2,0,P|208:112|260:36,1,170
352,188,206746,1,0,0:0:0:0:
352,188,206913,6,0,L|428:136,1,85,2|0,0:0|0:0,0:0:0:0:
300,288,207246,2,0,L|376:328,1,85,0|0,0:0|0:0,0:0:0:0:
216,152,207579,2,0,L|264:68,1,85,2|0,0:0|0:0,0:0:0:0:
160,280,207913,2,0,L|212:372,1,85
104,164,208246,1,2,0:0:0:0:
156,64,208413,1,0,0:0:0:0:
276,56,208579,2,0,P|324:72|352:96,1,85,2|0,0:0|0:0,0:0:0:0:
396,212,208913,6,0,B|368:256|368:256|352:268|352:268|320:320,1,127.5,2|0,0:0|0:0,0:0:0:0:
324,328,209579,6,0,L|406:350,1,85,2|0,0:0|0:0,0:0:0:0:
188,328,209913,2,0,L|106:350,1,85,2|0,0:0|0:0,0:0:0:0:
164,228,210246,1,0,0:0:0:0:
256,148,210413,2,0,L|256:240,1,85,0|2,0:0|0:0,0:0:0:0:
348,228,210746,1,0,0:0:0:0:
456,112,210913,6,0,L|396:176,1,85,2|0,0:0|0:0,0:0:0:0:
340,104,211246,2,0,B|368:72|368:72|376:16,1,85,2|0,0:0|0:0,0:0:0:0:
256,96,211579,1,2,0:0:0:0:
138,29,211746,2,0,B|144:72|144:72|172:104,1,85,0|2,0:0|0:0,0:0:0:0:
115,174,212079,2,0,L|56:112,1,85,0|2,0:0|0:0,0:0:0:0:
64,300,212413,1,0,0:0:0:0:
168,360,212579,6,0,P|180:328|184:284,1,76.4999976654053,2|0,0:0|0:0,0:0:0:0:
332,304,212913,2,0,P|308:256|304:228,1,76.4999976654053,2|0,0:0|0:0,0:0:0:0:
115,174,213246,2,0,P|152:160|180:136,1,68,2|0,0:0|0:0,0:0:0:0:
304,136,213579,2,0,P|276:104|260:72,1,68,2|0,0:0|0:0,0:0:0:0:
392,104,213913,6,0,P|396:144|384:188,1,76.4999976654053
188,116,214246,2,0,P|180:72|200:20,1,85
388,179,214579,2,0,P|416:272|404:364,1,187.000005706787,0|4,0:0|0:0,0:0:0:0:
272,176,215079,5,0,0:0:0:0:
176,80,215246,2,0,P|112:104|64:200,1,170,8|0,0:0|0:0,0:0:0:0:
268,208,215746,1,0,0:0:0:0:
296,56,215913,2,0,P|380:48|448:108,1,170,8|0,0:0|0:0,0:0:0:0:
444,232,216413,5,0,0:0:0:0:
360,320,216579,1,8,0:0:0:0:
240,280,216746,2,0,B|204:256|156:272|156:272|108:288|72:264,1,170
236,180,217246,2,0,P|280:172|316:144,1,85,8|0,0:0|0:0,0:0:0:0:
176,44,217579,6,0,P|160:84|164:132,1,85
324,64,217913,2,0,P|297:30|253:9,1,85,8|0,0:0|0:0,0:0:0:0:
136,144,218246,1,0,0:0:0:0:
188,260,218413,1,0,0:0:0:0:
312,244,218579,2,0,B|393:225|393:225|484:240,1,170,8|0,0:0|0:0,0:0:0:0:
384,348,219079,5,0,0:0:0:0:
264,356,219246,1,8,0:0:0:0:
144,360,219413,2,0,P|88:312|88:212,1,170
256,104,219913,2,0,P|264:144|252:192,1,85,8|0,0:0|0:0,0:0:0:0:
144,360,220246,6,0,B|136:296|136:296|112:240|112:240|108:192,1,170,4|8,0:2|0:0,0:0:0:0:
264,356,220746,2,0,B|256:304|256:304|264:272|264:272|252:228|256:176,1,170,4|0,0:2|0:0,0:0:0:0:
384,348,221246,2,0,B|384:288|384:288|404:224|404:224|404:176,1,170,4|0,0:2|0:0,0:0:0:0:
232,40,221746,5,0,0:0:0:0:
196,148,221913,1,8,0:0:0:0:
336,200,222079,2,0,P|328:160|304:124,1,85
148,232,222413,2,0,P|188:243|232:236,2,85,0|8|0,0:0|0:0|0:0,0:0:0:0:
68,136,222913,6,0,L|64:48,1,85
196,148,223246,2,0,P|240:208|216:300,1,170,8|0,0:0|0:0,0:0:0:0:
104,348,223746,1,0,0:0:0:0:
148,232,223913,2,0,L|320:196,1,170,8|0,0:0|0:0,0:0:0:0:
400,312,224413,5,0,0:0:0:0:
460,180,224579,2,0,L|472:128,3,42.5,8|0|0|0,0:0|0:0|0:0|0:0,0:0:0:0:
400,104,224913,2,0,L|392:52,3,42.5,0|0|0|0,0:0|0:0|0:0|0:0,0:0:0:0:
320,36,225246,1,8,0:0:0:0:
272,24,225329,1,0,0:0:0:0:
220,28,225413,1,0,0:0:0:0:
176,52,225496,1,0,0:0:0:0:
144,92,225579,6,0,P|124:168|152:256,1,170,4|8,0:0|0:0,0:0:0:0:
432,192,226079,1,0,3:0:0:0:
392,296,226246,1,0,0:0:0:0:
324,212,226413,1,0,0:0:0:0:
280,312,226579,2,0,P|240:332|200:344,1,85,8|0,0:0|0:0,0:0:0:0:
432,192,226913,6,0,P|408:88|344:52,1,170,0|8,0:0|0:0,0:0:0:0:
240,224,227413,2,0,B|152:236|152:236|72:212,1,170
200,132,227913,1,8,0:0:0:0:
180,324,228079,1,0,0:0:0:0:
52,192,228246,6,0,L|36:96,1,85
136,244,228579,2,0,P|104:276|64:288,1,85,8|0,0:0|0:0,0:0:0:0:
260,112,228913,2,0,L|272:208,1,85
172,76,229246,2,0,P|204:32|244:16,1,85,8|0,0:0|0:0,0:0:0:0:
384,172,229579,5,0,0:0:0:0:
272,248,229746,1,0,0:0:0:0:
260,112,229913,1,8,0:0:0:0:
420,208,230079,2,0,B|416:264|416:264|400:304|400:304|396:376,1,170
336,108,230579,2,0,P|344:56|360:16,1,85,8|0,0:0|0:0,0:0:0:0:
272,248,230913,6,0,B|208:268|208:268|104:256,1,170,4|8,0:2|0:0,0:0:0:0:
320,164,231413,2,0,B|384:144|384:144|488:156,1,170,4|0,0:2|0:0,0:0:0:0:
180,184,231913,2,0,B|77:172|77:172|13:192,1,170,4|0,0:2|0:0,0:0:0:0:
240,328,232413,5,0,0:0:0:0:
336,252,232579,1,8,0:0:0:0:
288,144,232746,2,0,L|272:48,1,85
420,196,233079,2,0,P|432:236|428:284,1,85,0|8,0:0|0:0,0:0:0:0:
248,232,233413,1,0,0:0:0:0:
380,112,233579,6,0,P|424:104|464:112,1,85
196,152,233913,2,0,P|152:144|108:152,1,85,8|0,0:0|0:0,0:0:0:0:
312,312,234246,2,0,P|340:268|344:228,1,85
288,52,234579,2,0,P|272:92|276:144,1,85,8|0,0:0|0:0,0:0:0:0:
432,228,234913,5,8,0:0:0:0:
380,112,235079,1,0,0:0:0:0:
264,240,235246,1,0,0:0:0:0:
172,332,235413,2,0,B|104:292|104:292|80:200,2,170,0|0|0,0:0|0:0|0:0,0:0:0:0:
284,136,236246,1,4,0:0:0:0:
169,156,246913,6,0,P|169:216|213:276,1,136
348,168,247413,2,0,P|307:114|243:95,1,136
292,288,247913,2,0,P|324:272|352:244,1,68
168,156,248246,6,0,P|188:184|216:204,1,68
96,108,248579,2,0,P|110:76|113:42,1,68
92,192,248913,2,0,P|57:195|26:209,1,68
84,284,249246,1,0,0:0:0:0:
156,340,249413,1,0,0:0:0:0:
244,328,249579,6,0,P|292:288|380:288,1,136
264,216,250079,2,0,B|240:196|248:184|248:184|216:148|228:84,1,136
296,56,250579,2,0,P|304:88|300:128,1,68
148,52,250913,5,0,0:0:0:0:
148,52,251079,1,0,0:0:0:0:
72,152,251246,1,0,0:0:0:0:
72,152,251413,1,0,0:0:0:0:
144,256,251579,2,0,P|144:292|136:340,2,68
72,152,252079,1,0,0:0:0:0:
144,256,252246,6,0,P|212:244|260:184,1,136,0|8,0:0|0:0,0:0:0:0:
320,92,252746,1,0,0:0:0:0:
320,92,252829,1,0,0:0:0:0:
320,92,252913,1,8,0:0:0:0:
372,196,253079,2,0,L|444:192,1,68
328,284,253413,1,8,0:0:0:0:
232,340,253579,5,0,0:0:0:0:
228,324,253663,1,0,0:0:0:0:
224,308,253746,1,0,0:0:0:0:
176,184,253913,2,0,L|80:220,1,102,8|0,0:0|0:0,0:0:0:0:
52,232,254246,2,0,L|60:152,1,68
224,104,254579,2,0,P|256:136|268:168,1,68,8|0,0:0|0:0,0:0:0:0:
144,292,254913,6,0,P|156:260|192:232,1,68
328,284,255246,1,8,0:0:0:0:
432,224,255413,2,0,L|448:300,2,68,0|8|0,0:0|0:0|0:0,0:0:0:0:
328,284,255913,1,0,0:0:0:0:
380,108,256079,1,0,0:0:0:0:
264,204,256246,6,0,B|176:252|116:208|116:208|128:204|172:176,1,220.999989883423,0|0,0:0|0:0,0:0:0:0:
176,152,257413,1,0,0:0:0:0:
328,320,257579,6,0,P|380:276|384:160,1,187.000005706787,4|8,0:0|0:0,0:0:0:0:
240,40,258079,2,0,P|220:88|248:220,1,187.000005706787
328,48,258579,1,8,0:0:0:0:
152,196,258746,1,0,0:0:0:0:
324,140,258913,6,0,P|380:144|420:136,1,93.5000028533936
172,260,259246,2,0,P|124:240|72:244,1,93.5000028533936,8|0,0:0|0:0,0:0:0:0:
284,344,259579,1,0,0:0:0:0:
228,184,259746,2,0,B|212:112|212:112|224:68|224:68|212:-4,1,187.000005706787
172,260,260246,6,0,B|128:232|80:248|80:248|48:284|-4:280,1,187.000005706787,0|8,0:0|0:0,0:0:0:0:
240,344,260746,2,0,B|276:344|300:336|300:336|328:360|328:360|368:336|416:348,1,187.000005706787
244,184,261246,1,8,0:0:0:0:
348,56,261413,1,0,0:0:0:0:
360,72,261496,1,0,0:0:0:0:
372,88,261579,6,0,L|380:184,1,93.5000028533936
188,248,261913,2,0,L|200:148,1,93.5000028533936,8|0,0:0|0:0,0:0:0:0:
60,72,262246,1,0,0:0:0:0:
104,224,262413,1,0,0:0:0:0:
172,64,262579,1,8,0:0:0:0:
20,168,262746,1,0,0:0:0:0:
112,324,262913,6,0,B|160:312|160:312|188:324|188:324|232:304|300:316,1,187.000005706787,0|8,0:0|0:0,0:0:0:0:
176,200,263413,2,0,P|160:152|164:104,1,93.5000028533936
252,20,263746,1,0,0:0:0:0:
360,192,263913,2,0,P|352:244|332:280,1,93.5000028533936,8|0,0:0|0:0,0:0:0:0:
232,104,264246,6,0,P|152:76|44:84,1,187.000005706787,0|8,0:0|0:0,0:0:0:0:
212,264,264746,2,0,P|240:300|288:332,1,93.5000028533936,0|0,0:0|0:0,0:0:0:0:
328,104,265079,1,0,0:0:0:0:
136,204,265246,2,0,P|120:252|124:304,1,93.5000028533936,8|0,0:0|0:0,0:0:0:0:
288,132,265579,6,0,L|260:24,1,93.5000028533936
136,204,265913,1,8,0:0:0:0:
288,304,266079,2,0,B|356:320|356:320|476:276,1,187.000005706787
320,216,266579,1,8,0:0:0:0:
392,88,266746,1,0,0:0:0:0:
220,56,266913,5,2,2:0:0:0:
180,64,266996,1,0,2:0:0:0:
144,88,267079,1,0,2:0:0:0:
120,120,267163,1,0,2:0:0:0:
104,160,267246,1,0,2:0:0:0:
104,200,267329,1,0,2:0:0:0:
112,240,267413,2,0,L|136:344,1,93.5000028533936,0|0,0:0|2:0,0:0:0:0:
288,136,267746,2,0,L|260:44,1,93.5000028533936,0|0,0:0|2:0,0:0:0:0:
200,252,268079,1,0,0:0:0:0:
356,360,268246,6,0,P|396:268|372:184,1,187.000005706787,4|8,0:0|0:0,0:0:0:0:
476,48,268746,2,0,P|460:112|492:228,1,187.000005706787
304,256,269246,1,8,0:0:0:0:
244,120,269413,1,0,0:0:0:0:
188,292,269579,6,0,P|148:316|92:324,1,93.5000028533936
12,116,269913,2,0,P|64:112|116:124,1,93.5000028533936,8|0,0:0|0:0,0:0:0:0:
324,156,270246,2,0,P|276:200|244:208,1,93.5000028533936
180,44,270579,1,8,0:0:0:0:
144,216,270746,1,0,0:0:0:0:
284,68,270913,6,0,P|360:64|420:148,1,187.000005706787,0|8,0:0|0:0,0:0:0:0:
346,339,271413,2,0,B|336:304|344:264|344:264|328:224|328:224|324:156,1,187.000005706787
444,316,271913,1,8,0:0:0:0:
252,304,272079,1,0,0:0:0:0:
232,276,272163,1,0,0:0:0:0:
212,248,272246,5,0,0:0:0:0:
248,104,272413,1,0,0:0:0:0:
176,268,272579,1,8,0:0:0:0:
72,132,272746,1,0,0:0:0:0:
280,196,272913,1,0,0:0:0:0:
112,328,273079,1,0,0:0:0:0:
164,128,273246,1,8,0:0:0:0:
344,124,273413,5,0,0:0:0:0:
336,284,273579,2,0,P|288:300|188:220,1,187.000005706787,0|8,0:0|0:0,0:0:0:0:
64,172,274079,2,0,L|44:264,1,93.5000028533936
176,48,274413,1,0,0:0:0:0:
280,168,274579,2,0,L|312:264,1,93.5000028533936,8|0,0:0|0:0,0:0:0:0:
176,48,274913,6,0,P|162:139|160:244,1,187.000005706787,0|8,0:0|0:0,0:0:0:0:
368,328,275413,2,0,P|381:236|384:132,1,187.000005706787,0|0,0:0|0:0,0:0:0:0:
264,204,275913,1,8,0:0:0:0:
140,172,276079,1,0,0:0:0:0:
72,292,276246,6,0,P|88:344|120:376,1,93.5000028533936,8|0,0:0|0:0,0:0:0:0:
220,132,276579,2,0,P|236:80|228:28,1,93.5000028533936,0|8,0:0|0:0,0:0:0:0:
52,172,276913,1,0,0:0:0:0:
168,288,277079,2,0,L|268:296,1,93.5000028533936,0|8,0:0|0:0,0:0:0:0:
396,348,277413,5,0,0:0:0:0:
396,348,277496,1,0,0:0:0:0:
396,348,277579,2,0,P|420:292|416:212,1,140.25000428009,8|8,0:0|0:0,0:0:0:0:
388,172,277913,1,0,0:0:0:0:
264,248,278079,2,0,L|172:236,1,93.5000028533936,0|8,0:0|0:0,0:0:0:0:
76,144,278413,1,0,0:0:0:0:
92,96,278496,1,0,0:0:0:0:
124,56,278579,6,0,L|180:40,1,46.7500014266968,8|0,0:0|0:0,0:0:0:0:
264,120,278746,2,0,L|216:136,1,46.7500014266968
316,12,278913,1,4,0:0:0:0:
256,192,278996,12,0,281413,0:0:0:0:
256,192,281579,12,4,284246,0:0:0:0:
