osu file format v13

[General]
AudioFilename: namaenonaikaibutsu.mp3
AudioLeadIn: 0
PreviewTime: 70746
Countdown: 0
SampleSet: Normal
StackLeniency: 0.7
Mode: 0
LetterboxInBreaks: 1
WidescreenStoryboard: 1

[Editor]
DistanceSpacing: 1.4
BeatDivisor: 4
GridSize: 4
TimelineZoom: 1.8

[Metadata]
Title:Namae no Nai Kaibutsu
TitleUnicode:名前のない怪物
Artist:EGOIST
ArtistUnicode:EGOIST
Creator:LunarSakuya
Version:Hard
Source:PSYCHO-PASS
Tags:supercell chelly jonathanlfj
BeatmapID:425386
BeatmapSetID:69137

[Difficulty]
HPDrainRate:6
CircleSize:4
OverallDifficulty:6
ApproachRate:7.5
SliderMultiplier:1.5
SliderTickRate:1

[Events]
//Background and Video events
0,0,"egoistbg.jpg",0,0
//Break Periods
2,97779,107421
2,175113,182088
2,193779,203421
2,236446,246088
//Storyboard Layer 0 (Background)
//Storyboard Layer 1 (Fail)
//Storyboard Layer 2 (Pass)
//Storyboard Layer 3 (Foreground)
//Storyboard Sound Samples
//Background Colour Transformations
3,100,163,162,255

[TimingPoints]
1580,333.333333333333,4,1,1,70,1,0
22913,-100,4,2,1,60,0,0
27413,-133.333333333333,4,2,1,40,0,0
44246,-133.333333333333,4,3,1,40,0,0
49246,-100,4,1,1,50,0,0
68246,-100,4,3,1,50,0,0
70913,-100,4,1,1,75,0,1
80913,-100,4,1,1,50,0,1
81246,-100,4,1,1,60,0,1
81579,-100,4,1,1,75,0,1
92246,-100,4,2,1,60,0,0
94913,-100,4,2,1,40,0,0
107413,-133.333333333333,4,2,1,50,0,0
124246,-133.333333333333,4,3,1,50,0,0
129246,-100,4,1,1,50,0,0
148246,-100,4,3,1,50,0,0
150913,-100,4,1,1,75,0,1
172246,-100,4,2,1,40,0,0
182913,-100,4,1,2,40,0,0
204246,-100,4,2,1,65,0,0
208246,-100,4,2,1,50,0,0
208329,-100,4,2,1,65,0,0
214913,-100,4,1,1,75,0,1
214996,-100,4,1,1,75,0,0
246913,-125,4,1,2,40,0,0
256246,-125,4,2,2,40,0,0
257579,-100,4,1,1,75,0,1
278913,-100,4,1,1,75,0,0
278996,-100,4,2,1,60,0,0
284246,-100,4,2,1,50,0,0

[Colours]
Combo1 : 255,117,51
Combo2 : 128,0,255
Combo3 : 255,106,106
Combo4 : 0,89,179

[HitObjects]
256,192,22913,5,4,0:0:0:0:
256,192,22996,12,2,25579,0:0:0:0:
392,108,28246,6,0,L|380:224,1,112.500004291535,2|0,0:0|0:0,0:0:0:0:
312,268,28746,2,0,B|268:272|232:252|232:252|136:264,1,168.750006437302,0|0,0:0|0:0,0:0:0:0:
80,212,29413,2,0,P|64:268|96:328,1,112.500004291535
160,352,29913,1,0,0:0:0:0:
312,268,30246,2,0,L|336:204,2,56.2500021457673,0|0|0,0:0|0:0|0:0,0:0:0:0:
304,136,30913,6,0,P|364:136|408:172,2,112.500004291535,2|0|0,0:0|0:0|0:0,0:0:0:0:
224,148,31746,2,0,L|160:132,1,56.2500021457673,0|0,0:0|0:0,0:0:0:0:
60,260,32246,2,0,L|172:288,1,112.500004291535,0|0,0:0|0:0,0:0:0:0:
256,300,32746,2,0,L|256:228,1,56.2500021457673
342,287,33079,2,0,L|452:260,1,112.500004291535
488,184,33579,6,0,P|476:124|432:88,1,112.500004291535,2|0,0:0|0:0,0:0:0:0:
296,152,34246,2,0,P|256:136|204:136,2,84.3750032186509,0|0|0,0:0|0:0|0:0,0:0:0:0:
312,232,34913,2,0,L|296:348,1,112.500004291535
128,320,35579,2,0,L|68:332,2,56.2500021457673
200,188,36246,6,0,P|200:136|184:64,2,112.500004291535,2|0|0,0:0|0:0|0:0,0:0:0:0:
120,216,37079,2,0,L|60:192,1,56.2500021457673
260,320,37579,2,0,B|288:328|316:316|344:304|372:312,1,112.500004291535
440,260,38079,2,0,P|456:312|432:372,2,112.500004291535
380,196,38913,6,0,P|348:156|384:52,1,168.750006437302,2|0,0:0|0:0,0:0:0:0:
248,172,39746,1,0,0:0:0:0:
168,68,40079,2,0,L|52:56,1,112.500004291535
28,136,40579,1,0,0:0:0:0:
112,288,40913,2,0,L|100:360,2,56.2500021457673
188,244,41413,1,0,0:0:0:0:
188,244,41496,1,0,0:0:0:0:
188,244,41579,6,0,P|240:240|300:268,1,112.500004291535,2|0,0:0|0:0,0:0:0:0:
372,120,42246,1,0,0:0:0:0:
304,60,42413,2,0,L|248:84,1,56.2500021457673
435,281,42913,2,0,P|452:228|436:176,1,112.500004291535
348,240,43413,2,0,L|356:304,1,56.2500021457673
268,260,43746,2,0,L|252:140,1,112.500004291535
184,100,44246,6,0,P|128:128|64:120,1,112.500004291535,0|2,3:0|0:0,0:0:0:0:
40,204,44746,1,0,0:0:0:0:
108,264,44913,2,0,L|116:332,2,56.2500021457673
192,220,45413,2,0,P|232:256|296:260,1,112.500004291535
360,200,45913,2,0,L|388:288,1,84.3750032186509,2|0,3:0|3:0,0:0:0:0:
385,280,46246,2,0,L|440:300,1,56.2500021457673
472,196,46579,2,0,L|452:124,1,56.2500021457673,2|0,3:0|0:0,0:0:0:0:
432,60,46913,5,0,0:0:0:0:
288,144,47246,2,0,P|240:128|192:128,1,84.3750032186509,2|0,3:0|0:0,0:0:0:0:
206,126,47579,2,0,L|184:180,1,56.2500021457673
148,260,47913,1,0,0:0:0:0:
64,220,48079,2,0,P|28:192|12:144,2,84.3750032186509
148,260,48746,2,0,L|140:315,1,56.2500021457673,0|0,0:0|1:0,0:0:0:0:
244,196,49079,1,0,1:0:0:0:
320,280,49246,1,8,1:0:0:0:
332,268,49579,6,0,P|360:200|336:128,1,150,4|8,0:0|0:0,0:0:0:0:
264,196,50079,1,0,0:0:0:0:
240,292,50246,2,0,L|260:364,2,75,2|0|8,0:2|0:0|0:0,0:0:0:0:
152,252,50746,1,0,0:0:0:0:
72,188,50913,2,0,P|52:252|84:328,2,150,0|8|2,0:0|0:0|0:2,0:0:0:0:
159,128,51746,2,0,L|234:135,1,75,0|8,0:0|0:0,0:0:0:0:
284,48,52079,1,0,0:0:0:0:
234,135,52246,6,0,B|240:196|240:196|236:228|236:228|244:292,1,150,0|8,0:0|0:0,0:0:0:0:
336,296,52746,2,0,B|328:239|328:239|332:207|332:207|327:146,1,150,0|0,0:0|0:0,0:0:0:0:
234,135,53246,1,8,0:0:0:0:
140,160,53413,2,0,L|60:156,1,75
44,256,53746,2,0,L|124:260,1,75,0|8,0:0|0:0,0:0:0:0:
225,207,54079,2,0,P|236:172|234:135,1,75,0|2,0:0|0:2,0:0:0:0:
308,68,54413,2,0,P|324:124|320:220,1,150,2|0,0:2|0:0,0:0:0:0:
288,308,54913,6,0,B|328:324|372:308|396:280|396:280|436:284,1,150,0|8,0:0|0:0,0:0:0:0:
464,192,55413,2,0,L|452:108,1,75,0|2,0:0|0:2,0:0:0:0:
427,283,55746,2,0,L|440:368,2,75,0|8|0,0:0|0:0|0:0,0:0:0:0:
336,228,56246,2,0,P|260:220|204:272,1,150,0|8,0:0|0:0,0:0:0:0:
124,328,56746,1,0,0:0:0:0:
80,236,56913,2,0,L|0:228,2,75,2|0|8,0:2|0:0|0:0,0:0:0:0:
148,156,57413,1,0,0:0:0:0:
148,156,57496,1,0,0:0:0:0:
148,156,57579,6,0,B|168:116|200:100|200:100|272:88,1,150,0|8,0:0|0:0,0:0:0:0:
352,156,58079,2,0,L|396:156,2,37.5,0|0|2,0:0|0:0|0:2,0:0:0:0:
280,228,58413,2,0,P|276:272|280:304,1,75,0|8,0:0|0:0,0:0:0:0:
372,356,58746,1,0,0:0:0:0:
372,356,58829,1,0,0:0:0:0:
372,356,58913,2,0,P|440:328|464:248,1,150,0|8,0:0|0:0,0:0:0:0:
384,144,59413,2,0,P|376:184|380:224,1,75,8|0,3:0|0:0,0:0:0:0:
468,136,59746,2,0,P|456:96|432:72,1,75,0|8,0:0|0:0,0:0:0:0:
296,120,60079,1,0,0:0:0:0:
296,120,60246,6,0,L|136:116,1,150,4|8,0:0|0:0,0:0:0:0:
80,196,60746,2,0,L|52:272,2,75,0|2|0,0:0|0:2|0:0,0:0:0:0:
164,256,61246,1,8,0:0:0:0:
224,328,61413,2,0,P|260:284|236:192,1,150
164,256,61913,1,8,0:0:0:0:
368,288,62246,2,0,L|388:360,2,75,2|0|8,0:2|0:0|0:0,0:0:0:0:
432,216,62746,1,0,0:0:0:0:
372,140,62913,6,0,P|348:168|340:208,1,75
256,148,63246,2,0,L|256:64,1,75,8|0,0:0|0:0,0:0:0:0:
140,140,63579,2,0,P|164:168|172:208,1,75,2|0,0:2|0:0,0:0:0:0:
120,292,63913,2,0,L|40:288,1,75,8|0,0:0|0:0,0:0:0:0:
192,348,64246,2,0,P|264:324|332:344,1,150,0|8,0:0|0:0,0:0:0:0:
420,284,64746,2,0,P|432:316|436:368,1,75,0|2,0:0|0:2,0:0:0:0:
336,248,65079,2,0,L|348:172,1,75,0|8,0:0|0:0,0:0:0:0:
296,92,65413,1,0,0:0:0:0:
200,116,65579,6,0,P|160:164|168:252,1,150,0|8,0:0|0:0,0:0:0:0:
128,336,66079,2,0,L|52:348,1,75,0|2,0:0|0:2,0:0:0:0:
224,344,66413,2,0,L|300:332,1,75,0|8,0:0|0:0,0:0:0:0:
392,312,66746,2,0,P|352:248|280:240,1,150
188,208,67246,2,0,P|168:172|160:132,1,75,8|0,0:0|0:0,0:0:0:0:
256,64,67579,2,0,L|256:140,1,75,2|0,0:2|0:0,0:0:0:0:
324,208,67913,2,0,P|344:172|352:132,1,75,8|0,0:0|0:0,0:0:0:0:
256,260,68246,6,0,L|256:340,2,75
168,296,68746,1,0,0:0:0:0:
80,260,68913,2,0,B|76:200|76:200|88:172|88:172|88:108,1,150,2|8,0:0|0:0,0:0:0:0:
160,56,69413,1,0,0:0:0:0:
236,104,69579,2,0,L|312:104,2,75,0|2|0,0:0|3:0|0:0,0:0:0:0:
176,180,70079,1,0,0:0:0:0:
240,252,70246,2,0,L|248:332,1,75,2|0,3:0|0:0,0:0:0:0:
247,326,70746,1,0,0:0:0:0:
368,352,70913,6,0,P|416:308|412:228,1,150,4|8,0:0|0:0,0:0:0:0:
364,132,71413,2,0,P|316:184|320:264,1,150,0|0,0:0|0:0,0:0:0:0:
412,228,71913,2,0,L|496:204,1,75,8|0,0:0|0:0,0:0:0:0:
364,132,72246,2,0,L|356:52,1,75
412,228,72579,2,0,L|420:304,1,75,8|0,0:0|0:0,0:0:0:0:
336,352,72913,1,0,0:0:0:0:
256,292,73079,2,0,B|184:272|184:272|108:288,1,150
52,204,73579,6,0,L|200:172,1,150,0|8,0:0|0:0,0:0:0:0:
252,88,74079,2,0,P|292:140|276:228,1,150
348,300,74579,1,8,0:0:0:0:
440,256,74746,1,0,0:0:0:0:
440,256,74829,1,0,0:0:0:0:
440,256,74913,2,0,L|456:176,1,75
364,120,75246,2,0,L|348:200,1,75,8|0,0:0|0:0,0:0:0:0:
268,256,75579,2,0,L|188:264,2,75,0|0|8,0:0|0:0|0:0,0:0:0:0:
208,172,76079,1,0,0:0:0:0:
208,172,76246,6,0,B|192:136|192:136|200:100|200:100|192:60|200:20,1,150,0|8,0:0|0:0,0:0:0:0:
104,60,76746,2,0,P|88:124|8:168,1,150
44,260,77246,2,0,L|116:284,1,75,8|0,0:0|0:0,0:0:0:0:
216,316,77579,2,0,B|296:296|296:296|336:304|368:324,1,150,0|8,0:0|0:0,0:0:0:0:
448,268,78079,2,0,B|460:228|460:228|444:192|456:156|456:156|444:112,1,150
360,72,78579,2,0,P|352:108|356:156,1,75,8|0,0:0|0:0,0:0:0:0:
288,224,78913,6,0,B|252:228|216:244|216:244|180:224|144:220,1,150,0|8,0:0|0:0,0:0:0:0:
64,168,79413,2,0,P|52:208|56:248,2,75
148,108,79913,2,0,L|228:100,1,75,8|0,0:0|0:0,0:0:0:0:
320,112,80246,5,2,2:0:0:0:
396,176,80413,2,0,L|412:256,1,75,0|0,0:0|2:0,0:0:0:0:
320,112,80746,2,0,L|292:188,1,75,0|0,0:0|2:0,0:0:0:0:
252,272,81079,1,0,0:0:0:0:
160,312,81246,2,0,L|112:300,3,37.5,2|0|0|0,2:0|2:0|2:0|2:0,0:0:0:0:
92,284,81579,6,0,P|64:228|88:140,1,150,4|8,0:0|0:0,0:0:0:0:
188,160,82079,2,0,P|244:160|304:92,1,150
392,152,82579,2,0,L|400:240,1,75,8|0,0:0|0:0,0:0:0:0:
332,304,82913,2,0,P|308:268|300:236,1,75
184,348,83246,2,0,P|208:312|216:280,1,75,8|0,0:0|0:0,0:0:0:0:
260,172,83579,2,0,P|296:160|340:168,2,75,0|0|8,0:0|0:0|0:0,0:0:0:0:
168,196,84079,1,0,0:0:0:0:
96,128,84246,6,0,P|68:176|96:264,1,150,0|8,0:0|0:0,0:0:0:0:
180,316,84746,2,0,L|336:304,1,150
360,216,85246,2,0,L|276:224,1,75,8|0,0:0|0:0,0:0:0:0:
440,252,85579,2,0,P|448:212|436:172,1,75
328,56,85913,2,0,P|320:96|332:136,1,75,8|0,0:0|0:0,0:0:0:0:
416,92,86246,2,0,L|500:84,2,75,0|0|8,0:0|0:0|0:0,0:0:0:0:
360,216,86746,1,0,0:0:0:0:
360,216,86913,6,0,B|320:224|287:210|287:210|252:192|212:200,1,150,0|8,0:0|0:0,0:0:0:0:
126,143,87413,2,0,P|112:215|148:280,1,150
48,340,87913,2,0,L|40:252,1,75,8|0,0:0|0:0,0:0:0:0:
147,279,88246,2,0,P|192:304|288:288,1,150,0|8,0:0|0:0,0:0:0:0:
360,224,88746,2,0,L|428:256,1,75,0|0,0:0|0:0,0:0:0:0:
304,152,89079,2,0,L|304:76,2,75,0|8|0,0:0|0:0|0:0,0:0:0:0:
228,216,89579,6,0,P|180:172|184:88,1,150,8|0,0:0|0:0,0:0:0:0:
84,136,90079,2,0,L|92:220,1,75,8|0,0:0|0:0,0:0:0:0:
100,312,90413,1,0,0:0:0:0:
184,364,90579,2,0,P|200:328|200:288,1,75,8|0,0:0|0:0,0:0:0:0:
304,324,90913,2,0,L|416:336,2,112.5,8|8|8,0:0|0:0|0:0,0:0:0:0:
284,232,91579,1,0,0:0:0:0:
332,148,91746,1,0,0:0:0:0:
256,80,91913,1,8,0:0:0:0:
256,80,91996,1,0,0:0:0:0:
256,80,92079,2,0,L|172:68,1,75,0|4,0:0|0:0,0:0:0:0:
256,192,92329,12,2,97579,0:0:0:0:
96,284,108246,6,0,P|152:292|208:268,1,112.500004291535,2|0,0:0|0:0,0:0:0:0:
256,204,108746,1,0,0:0:0:0:
316,268,108913,2,0,P|320:300|320:328,2,56.2500021457673
256,204,109413,2,0,P|244:148|268:88,1,112.500004291535
332,52,109913,1,2,0:0:0:0:
332,52,110079,1,0,0:0:0:0:
160,104,110413,2,0,L|96:120,2,56.2500021457673
172,188,110913,6,0,L|56:216,2,112.500004291535,0|0|0,0:0|0:0|0:0,0:0:0:0:
256,312,111913,1,0,0:0:0:0:
348,192,112246,2,0,B|372:264|372:264|364:308|372:364,2,168.750006437302,2|0|0,0:0|0:0|0:0,0:0:0:0:
208,80,113579,6,0,P|192:148|260:216,1,168.750006437302,2|0,0:0|0:0,0:0:0:0:
288,128,114246,2,0,L|376:120,2,84.3750032186509
204,168,114913,2,0,B|148:176|112:160|112:160|24:184,2,168.750006437302,0|2|0,0:0|0:0|0:0,0:0:0:0:
324,288,116246,6,0,P|328:328|328:352,2,56.2500021457673,0|0|0,0:0|0:0|0:0,0:0:0:0:
248,248,116746,1,0,0:0:0:0:
176,296,116913,2,0,L|56:288,1,112.500004291535
172,172,117579,2,0,P|248:136|328:172,1,168.750006437302,2|0,0:0|0:0,0:0:0:0:
400,200,118246,1,0,0:0:0:0:
476,160,118413,2,0,L|452:48,1,112.500004291535
400,200,118913,6,0,P|428:260|384:352,1,168.750006437302,2|0,0:0|0:0,0:0:0:0:
300,344,119579,2,0,L|240:332,2,56.2500021457673
344,268,120079,1,0,0:0:0:0:
280,208,120246,2,0,L|276:148,1,56.2500021457673,2|0,0:0|0:0,0:0:0:0:
192,143,120579,2,0,L|196:200,1,56.2500021457673
144,72,120913,2,0,P|88:64|36:104,1,112.500004291535
80,276,121579,6,0,B|152:312|152:312|248:292,2,168.750006437302,2|0|0,0:0|0:0|0:0,0:0:0:0:
320,276,122913,2,0,B|406:258|406:258|478:294,2,168.750006437302,2|0|0,0:0|0:0|0:0,0:0:0:0:
176,232,124246,6,0,P|160:172|176:116,1,112.500004291535,0|2,0:0|0:0,0:0:0:0:
228,60,124746,1,0,0:0:0:0:
304,100,124913,2,0,L|372:108,2,56.2500021457673
352,192,125413,2,0,P|408:180|440:136,1,112.500004291535,0|0,0:0|0:0,0:0:0:0:
472,236,125913,2,0,B|476:276|476:276|472:332,1,84.3750032186509,2|2,0:0|0:0,0:0:0:0:
472,320,126246,2,0,L|414:346,1,56.2500021457673,0|0,0:0|0:0,0:0:0:0:
288,312,126579,2,0,L|340:292,1,56.2500021457673,2|0,0:0|0:0,0:0:0:0:
264,216,126913,5,0,0:0:0:0:
264,216,127246,2,0,B|172:200,1,84.3750032186509,2|0,0:0|0:0,0:0:0:0:
180,201,127579,2,0,L|147:143,1,56.2500021457673
56,136,127913,1,0,0:0:0:0:
60,232,128079,2,0,L|40:328,2,84.3750032186509
56,136,128746,2,0,P|80:116|104:100,1,56.2500021457673,0|0,0:0|1:0,0:0:0:0:
196,76,129079,1,0,1:0:0:0:
264,216,129246,1,8,0:0:0:0:
264,216,129579,6,0,P|320:220|380:148,2,150,4|8|2,0:0|0:0|0:2,0:0:0:0:
172,248,130413,2,0,P|168:288|176:332,1,75,0|8,0:0|0:0,0:0:0:0:
264,216,130746,1,0,0:0:0:0:
192,152,130913,2,0,P|128:160|80:228,2,150,0|8|2,0:0|0:0|0:2,0:0:0:0:
264,216,131746,2,0,L|296:292,1,75,0|8,0:0|0:0,0:0:0:0:
380,328,132079,1,0,0:0:0:0:
456,272,132246,6,0,P|476:224|448:124,1,150,0|8,0:0|0:0,0:0:0:0:
376,80,132746,2,0,P|304:112|228:92,1,150
152,48,133246,1,8,0:0:0:0:
80,120,133413,2,0,L|88:200,2,75
176,192,133913,2,0,P|172:228|148:264,1,75,8|0,0:0|0:0,0:0:0:0:
252,352,134246,2,0,L|248:272,1,75,2|2,0:2|0:2,0:0:0:0:
296,188,134579,1,8,0:0:0:0:
236,104,134746,1,0,0:0:0:0:
236,104,134913,6,0,B|272:88|272:88|304:100|304:100|336:88|384:88,1,150,0|8,0:0|0:0,0:0:0:0:
460,140,135413,2,0,P|472:100|472:68,1,75,0|2,0:0|0:2,0:0:0:0:
376,172,135746,2,0,P|388:216|404:244,1,75,0|8,0:0|0:0,0:0:0:0:
472,312,136079,1,0,0:0:0:0:
372,348,136246,2,0,B|328:336|296:348|296:348|248:336|248:336|216:344,1,150,0|8,0:0|0:0,0:0:0:0:
148,284,136746,1,0,0:0:0:0:
56,252,136913,2,0,P|52:288|60:328,1,75,2|0,0:2|0:0,0:0:0:0:
148,284,137246,1,8,0:0:0:0:
188,192,137413,1,0,0:0:0:0:
188,192,137496,1,0,0:0:0:0:
188,192,137579,6,0,P|244:156|324:160,1,150,0|8,0:0|0:0,0:0:0:0:
392,232,138079,2,0,L|404:272,2,37.5,0|0|2,0:0|0:0|0:2,0:0:0:0:
316,292,138413,2,0,L|340:368,1,75,0|8,0:0|0:0,0:0:0:0:
224,320,138746,1,0,0:0:0:0:
224,320,138829,1,0,0:0:0:0:
224,320,138913,2,0,P|148:328|84:296,1,150,0|8,0:0|0:0,0:0:0:0:
104,136,139413,2,0,P|112:176|108:216,1,75,8|0,3:0|0:0,0:0:0:0:
20,176,139746,2,0,P|12:140|20:100,2,75,0|8|0,0:0|0:0|0:0,0:0:0:0:
84,296,140246,6,0,P|140:252|216:236,1,150,4|8,0:0|0:0,0:0:0:0:
308,292,140746,2,0,P|348:300|388:296,1,75,0|2,0:0|0:2,0:0:0:0:
388,184,141079,2,0,P|348:176|308:180,1,75,0|8,0:0|0:0,0:0:0:0:
452,240,141413,1,0,0:0:0:0:
452,240,141579,2,0,P|472:168|424:104,2,150,0|8|2,0:0|0:0|0:2,0:0:0:0:
368,292,142413,1,0,0:0:0:0:
276,256,142579,2,0,L|196:252,1,75,8|0,0:0|0:0,0:0:0:0:
96,288,142913,6,0,L|120:360,1,75
200,252,143246,2,0,P|212:216|208:172,1,75,8|0,0:0|0:0,0:0:0:0:
124,128,143579,2,0,P|112:164|116:208,1,75,2|0,0:2|0:0,0:0:0:0:
216,96,143913,2,0,L|368:68,2,150,8|0|8,0:0|0:0|0:0,0:0:0:0:
296,172,144746,2,0,P|324:224|300:316,2,150
232,244,145579,6,0,P|160:264|88:248,1,150,0|8,0:0|0:0,0:0:0:0:
56,156,146079,1,0,0:0:0:0:
92,64,146246,1,2,0:2:0:0:
152,144,146413,2,0,P|196:144|236:140,2,75,0|8|0,0:0|0:0|0:0,0:0:0:0:
232,56,146913,2,0,P|280:72|304:176,1,150,0|8,0:0|0:0,0:0:0:0:
296,252,147413,1,0,0:0:0:0:
208,288,147579,2,0,P|168:280|128:268,1,75,2|0,0:2|0:0,0:0:0:0:
296,252,147913,2,0,P|336:260|376:272,1,75,8|0,0:0|0:0,0:0:0:0:
208,288,148246,6,0,P|192:248|188:208,2,75
104,232,148746,2,0,P|104:192|120:160,1,75,0|2,0:0|0:0,0:0:0:0:
88,72,149079,2,0,L|48:76,2,37.5
180,84,149413,2,0,P|204:112|216:152,1,75
292,212,149746,2,0,P|306:177|308:140,1,75,2|0,0:0|0:0,0:0:0:0:
376,256,150079,2,0,P|348:288|308:304,2,75,0|2|0,0:0|0:0|0:0,0:0:0:0:
376,256,150746,1,0,0:0:0:0:
240,320,150913,6,0,P|192:280|108:280,1,150,4|8,0:0|0:0,0:0:0:0:
52,200,151413,2,0,P|92:152|92:68,1,150,0|0,0:0|0:0,0:0:0:0:
192,96,151913,2,0,L|200:180,1,75,8|0,0:0|0:0,0:0:0:0:
288,240,152246,2,0,P|328:236|368:224,1,75
272,332,152579,2,0,P|228:328|196:320,1,75,8|0,0:0|0:0,0:0:0:0:
288,240,152913,2,0,P|304:200|308:160,2,75,0|0|8,0:0|0:0|0:0,0:0:0:0:
212,180,153413,1,0,0:0:0:0:
256,88,153579,6,0,P|320:72|392:116,1,150,0|8,0:0|0:0,0:0:0:0:
428,208,154079,2,0,B|436:240|436:240|428:280|428:280|440:312|432:356,1,150
332,320,154579,1,8,0:0:0:0:
248,264,154746,1,0,0:0:0:0:
248,264,154829,1,0,0:0:0:0:
248,264,154913,2,0,P|236:220|232:184,1,75
336,200,155246,2,0,P|352:168|360:128,1,75,8|0,0:0|0:0,0:0:0:0:
416,48,155579,2,0,P|444:76|456:108,2,75,0|0|8,0:0|0:0|0:0,0:0:0:0:
316,44,156079,1,0,0:0:0:0:
236,104,156246,6,0,B|196:128|156:124|156:124|92:96,1,150,0|8,0:0|0:0,0:0:0:0:
236,104,156746,2,0,P|260:164|236:252,1,150
152,288,157246,2,0,P|112:288|76:280,1,75,8|0,0:0|0:0,0:0:0:0:
241,245,157579,2,0,P|296:265|384:249,1,150,0|8,0:0|0:0,0:0:0:0:
464,304,158079,2,0,P|480:236|444:168,1,150
352,128,158579,2,0,L|268:136,1,75,8|0,0:0|0:0,0:0:0:0:
228,212,158913,6,0,P|248:148|212:64,1,150,0|8,0:0|0:0,0:0:0:0:
116,76,159413,2,0,P|96:140|132:224,1,150,0|0,0:0|0:0,0:0:0:0:
228,212,159913,2,0,L|304:208,1,75,8|0,0:0|0:0,0:0:0:0:
376,272,160246,5,2,2:0:0:0:
468,244,160413,2,0,P|472:284|460:324,1,75,0|0,0:0|2:0,0:0:0:0:
396,180,160746,2,0,P|400:140|388:100,1,75,0|0,0:0|2:0,0:0:0:0:
304,52,161079,1,0,0:0:0:0:
216,104,161246,2,0,L|168:112,3,37.5,0|0|0|0,2:0|2:0|2:0|2:0,0:0:0:0:
152,148,161579,6,0,B|136:196|156:240|156:240|192:284,1,150,4|8,0:0|0:0,0:0:0:0:
288,320,162079,2,0,B|331:284|331:284|375:264|423:280,1,150
372,192,162579,2,0,P|360:156|364:112,1,75,8|0,0:0|0:0,0:0:0:0:
264,80,162913,2,0,L|188:88,1,75
156,184,163246,2,0,L|232:176,1,75,8|0,0:0|0:0,0:0:0:0:
128,268,163579,2,0,P|100:256|72:220,2,75,0|0|8,0:0|0:0|0:0,0:0:0:0:
216,320,164079,1,0,0:0:0:0:
216,320,164246,6,0,B|288:336|288:336|376:320,1,150,0|8,0:0|0:0,0:0:0:0:
288,232,164746,2,0,B|220:216|220:216|188:188|184:144,1,150
236,60,165246,1,8,0:0:0:0:
312,128,165413,1,0,0:0:0:0:
312,128,165496,1,0,0:0:0:0:
312,128,165579,2,0,L|392:124,1,75
456,196,165913,2,0,P|468:232|464:272,1,75,8|0,0:0|0:0,0:0:0:0:
386,124,166246,2,0,P|376:88|380:48,2,75,0|0|8,0:0|0:0|0:0,0:0:0:0:
356,220,166746,1,0,0:0:0:0:
292,296,166913,6,0,P|216:308|160:268,1,150,0|8,0:0|0:0,0:0:0:0:
244,208,167413,2,0,L|268:56,1,150
176,92,167913,2,0,L|164:168,1,75,8|0,0:0|0:0,0:0:0:0:
80,224,168246,2,0,P|52:168|76:84,1,150,0|8,0:0|0:0,0:0:0:0:
176,92,168746,2,0,L|264:80,1,75
332,140,169079,1,0,0:0:0:0:
304,236,169246,1,8,0:0:0:0:
400,216,169413,1,0,0:0:0:0:
368,312,169579,6,0,P|300:336|228:304,1,150,8|0,0:0|0:0,0:0:0:0:
152,240,170079,2,0,P|76:236|16:276,1,150,8|0,0:0|0:0,0:0:0:0:
32,168,170579,2,0,L|48:80,1,75,0|8,0:0|0:0,0:0:0:0:
136,56,170913,2,0,B|163:103|163:103|216:128,2,112.5,8|8|8,0:0|0:0|0:0,0:0:0:0:
236,28,171579,1,0,0:0:0:0:
316,88,171746,1,8,0:0:0:0:
288,184,171913,2,0,L|284:224,4,37.5,8|0|0|0|4,0:0|0:0|0:0|0:0|0:0,0:0:0:0:
256,192,172329,12,2,174913,0:0:0:0:
254,335,182913,5,4,0:0:0:0:
232,240,183246,1,0,0:0:0:0:
327,219,183579,1,8,0:0:0:0:
349,314,183913,1,0,0:0:0:0:
260,144,184246,5,0,0:0:0:0:
282,49,184579,1,0,0:0:0:0:
187,28,184912,1,8,0:0:0:0:
165,123,185246,1,0,0:0:0:0:
380,136,185579,6,0,B|412:192|412:192|408:296,1,150
328,312,186079,2,0,L|332:236,1,75,0|8,0:0|0:0,0:0:0:0:
184,312,186579,2,0,L|180:237,1,75,0|0,0:0|0:0,0:0:0:0:
132,136,186913,2,0,B|100:192|100:192|104:296,1,150
256,68,187579,1,8,0:0:0:0:
300,144,187746,1,0,0:0:0:0:
212,144,187913,1,0,0:0:0:0:
388,288,188246,5,0,0:0:0:0:
388,288,188579,2,0,L|408:204,1,75
372,108,188913,1,8,0:0:0:0:
372,108,189246,2,0,L|300:144,1,75
256,280,189579,2,0,L|256:204,1,75
184,136,189913,2,0,B|108:148|108:148|44:108,2,150,0|8|0,0:0|0:0|0:0,0:0:0:0:
160,304,190913,6,0,P|149:352|125:384,1,75
61,304,191246,2,0,P|71:255|95:223,1,75
200,220,191579,1,8,0:0:0:0:
200,220,191913,2,0,L|288:232,1,75
340,148,192246,2,0,L|252:136,1,75
192,68,192579,1,0,0:0:0:0:
192,68,192913,6,0,P|152:76|120:92,1,75,8|0,0:0|0:0,0:0:0:0:
320,68,193246,2,0,P|360:76|392:92,1,75
256,152,193579,1,4,0:0:0:0:
188,80,204246,6,0,L|108:92,1,75,4|0,0:0|0:0,0:0:0:0:
128,204,204579,2,0,L|196:171,1,75,2|0,0:0|0:0,0:0:0:0:
200,256,204913,2,0,P|192:292|196:336,1,75,2|0,0:0|0:0,0:0:0:0:
317,329,205246,2,0,P|320:292|312:256,1,75,2|0,0:0|0:0,0:0:0:0:
352,176,205579,2,0,L|419:209,1,75,2|0,0:0|0:0,0:0:0:0:
398,91,205913,2,0,L|324:80,1,75,0|0,0:0|0:0,0:0:0:0:
256,160,206246,2,0,B|240:192|256:236|256:236|272:272|256:312,1,150
88,304,206913,6,0,P|132:284|164:280,1,75,2|0,0:0|0:0,0:0:0:0:
172,188,207246,2,0,P|128:184|96:168,1,75
184,32,207579,2,0,L|192:108,1,75
320,106,207913,2,0,L|328:32,1,75
411,171,208246,2,0,P|377:185|340:188,1,75,2|0,0:0|0:0,0:0:0:0:
357,284,208579,2,0,P|394:291|428:308,1,75,2|0,0:0|0:0,0:0:0:0:
256,336,208913,2,0,B|248:296|248:296|260:240|260:240|256:180,1,150,2|0,0:0|0:0,0:0:0:0:
312,48,209579,6,0,L|392:68,1,75,2|0,0:0|0:0,0:0:0:0:
200,48,209913,2,0,L|120:68,1,75
304,136,210246,2,0,L|336:208,1,75
208,136,210579,2,0,L|176:208,1,75,2|0,0:0|0:0,0:0:0:0:
92,288,210913,2,0,L|172:304,1,75
256,336,211246,2,0,L|256:256,1,75,2|0,0:0|0:0,0:0:0:0:
346,302,211579,2,0,L|420:288,1,75,2|0,0:0|0:0,0:0:0:0:
420,196,211913,2,0,L|346:210,1,75,2|0,0:0|0:0,0:0:0:0:
256,192,212246,12,4,214913,0:0:0:0:
256,128,215246,6,0,L|256:280,1,150,8|0,0:0|0:0,0:0:0:0:
340,324,215746,2,0,L|340:244,1,75,0|8,0:0|0:0,0:0:0:0:
164,224,216246,2,0,P|96:256|28:228,1,150,0|8,0:0|0:0,0:0:0:0:
96,160,216746,2,0,B|116:108|116:108|144:80|144:80|168:24,1,150
252,68,217246,2,0,L|220:144,1,75,8|0,0:0|0:0,0:0:0:0:
336,208,217579,6,0,L|324:128,1,75
244,224,217913,2,0,B|260:296|260:296|284:332|324:352,1,150,8|0,0:0|0:0,0:0:0:0:
412,296,218413,1,0,0:0:0:0:
432,192,218579,2,0,P|400:128|328:108,1,150,8|0,0:0|0:0,0:0:0:0:
240,56,219079,2,0,L|224:132,1,75,0|8,0:0|0:0,0:0:0:0:
148,200,219413,2,0,P|96:176|72:80,1,150
148,200,219913,2,0,L|160:284,1,75,8|0,0:0|0:0,0:0:0:0:
256,216,220246,6,0,L|256:64,1,150,4|8,0:2|0:0,0:0:0:0:
192,180,220746,2,0,L|316:96,1,150,4|0,0:2|0:0,0:0:0:0:
197,93,221246,2,0,L|320:184,1,150,4|0,0:2|0:0,0:0:0:0:
380,264,221746,6,0,P|384:304|376:348,1,75,0|8,0:0|0:0,0:0:0:0:
284,304,222079,2,0,P|216:280|136:300,1,150
44,340,222579,2,0,L|32:264,1,75,8|0,0:0|0:0,0:0:0:0:
100,156,222913,6,0,L|112:232,1,75,0|0,0:0|0:0,0:0:0:0:
192,120,223246,2,0,P|172:84|144:64,1,75,8|0,0:0|0:0,0:0:0:0:
256,184,223579,2,0,L|256:260,1,75
320,119,223913,2,0,P|337:87|366:64,1,75,8|0,0:0|0:0,0:0:0:0:
412,156,224246,2,0,L|400:230,1,75,0|0,0:0|0:0,0:0:0:0:
328,328,224579,2,0,L|360:348,2,37.5,8|0|0,0:0|0:0|0:0,0:0:0:0:
184,328,224913,2,0,L|152:348,2,37.5
256,244,225246,2,0,L|256:192,3,37.5,8|0|0|0,0:0|0:0|0:0|0:0,0:0:0:0:
256,160,225579,6,0,P|232:128|120:104,1,150,4|8,0:0|0:0,0:0:0:0:
32,276,226246,2,0,L|8:348,2,75,0|0|8,0:0|0:0|0:0,0:0:0:0:
68,180,226746,1,0,0:0:0:0:
132,264,226913,2,0,P|208:280|284:244,1,150,0|8,0:0|0:0,0:0:0:0:
200,184,227413,2,0,P|172:124|200:44,1,150
272,116,227913,2,0,P|308:128|348:128,1,75,8|0,0:0|0:0,0:0:0:0:
440,84,228246,6,0,L|468:8,2,75,0|0|8,0:0|0:0|0:0,0:0:0:0:
468,180,228746,1,0,0:0:0:0:
440,276,228913,2,0,L|468:352,2,75,0|0|8,0:0|0:0|0:0,0:0:0:0:
468,180,229413,1,0,0:0:0:0:
440,84,229579,2,0,L|364:104,1,75
280,164,229913,1,8,0:0:0:0:
280,164,230079,2,0,B|284:240|284:240|300:276|300:276|304:320,1,150
200,240,230579,2,0,L|196:164,1,75,8|0,0:0|0:0,0:0:0:0:
116,100,230913,6,0,P|40:128|12:188,1,150,4|8,0:2|0:0,0:0:0:0:
84,333,231413,2,0,P|123:271|108:200,1,150,4|0,0:2|0:0,0:0:0:0:
84,333,231913,2,0,L|248:329,1,150,4|0,0:2|0:0,0:0:0:0:
312,252,232413,6,0,P|300:212|300:176,1,75,0|8,0:0|0:0,0:0:0:0:
392,124,232746,2,0,P|428:188|412:268,1,150
348,340,233246,2,0,L|272:336,1,75,8|0,0:0|0:0,0:0:0:0:
188,276,233579,6,0,P|172:312|172:352,1,75
276,256,233913,2,0,P|244:204|156:192,1,150,8|0,0:0|0:0,0:0:0:0:
188,276,234413,1,0,0:0:0:0:
272,348,234579,2,0,L|428:308,1,150,8|8,0:0|0:0,0:0:0:0:
372,216,235079,1,0,0:0:0:0:
440,132,235246,1,0,0:0:0:0:
328,120,235413,2,0,B|256:140|256:140|184:120,2,150
396,36,236246,1,4,0:0:0:0:
316,264,246913,6,0,P|336:208|316:152,2,120
256,96,247913,1,0,0:0:0:0:
196,264,248246,2,0,P|176:208|196:152,2,120
272,316,249079,2,0,L|344:320,1,60
364,224,249413,5,0,0:0:0:0:
364,224,249579,2,0,L|492:232,2,120
276,192,250413,2,0,P|264:156|264:124,1,60
284,44,250746,1,0,0:0:0:0:
180,96,250913,2,0,L|116:104,1,60
80,196,251246,2,0,L|20:232,1,60
168,240,251579,2,0,L|184:312,2,60,0|0|0,0:0|0:0|0:0,0:0:0:0:
256,196,252079,5,0,0:0:0:0:
256,196,252246,2,0,P|316:180|380:192,1,120,0|8,0:0|0:0,0:0:0:0:
428,264,252746,2,0,L|444:296,2,30
460,176,253079,2,0,P|472:136|472:112,2,60,0|0|8,0:0|0:0|0:0,0:0:0:0:
384,96,253579,6,0,L|372:60,2,30
284,56,253913,2,0,P|264:96|280:156,1,90,8|0,0:0|0:0,0:0:0:0:
269,139,254246,2,0,L|284:203,1,60
232,284,254579,2,0,L|172:304,1,60,8|0,0:0|0:0,0:0:0:0:
156,208,254913,2,0,P|168:152|144:88,1,120,0|8,0:0|0:0,0:0:0:0:
68,156,255413,2,0,L|4:164,2,60,0|8|0,0:0|0:0|0:0,0:0:0:0:
156,208,255913,1,0,0:0:0:0:
104,292,256079,1,0,0:0:0:0:
196,336,256246,6,0,B|252:352|288:308|288:308|332:332|332:332|376:312|428:324,1,240,0|0,0:0|0:0,0:0:0:0:
224,264,257413,1,0,0:0:0:0:
104,292,257579,6,0,P|76:244|100:144,1,150,4|8,0:0|0:0,0:0:0:0:
176,216,258079,2,0,P|240:232|316:200,1,150
392,268,258579,2,0,L|380:348,1,75,8|0,0:0|0:0,0:0:0:0:
340,192,258913,2,0,L|320:104,1,75
408,64,259246,2,0,L|428:152,1,75,8|0,0:0|0:0,0:0:0:0:
320,32,259579,2,0,P|280:44|252:72,2,75,0|0|8,0:0|0:0|0:0,0:0:0:0:
264,156,260079,1,0,0:0:0:0:
264,156,260246,6,0,B|220:152|220:152|180:168|180:168|132:160|100:164,1,150,0|8,0:0|0:0,0:0:0:0:
152,248,260746,2,0,B|196:252|196:252|236:236|236:236|284:244|316:240,1,150,0|0,0:0|0:0,0:0:0:0:
376,308,261246,1,8,0:0:0:0:
284,352,261413,1,0,0:0:0:0:
284,352,261496,1,0,0:0:0:0:
284,352,261579,2,0,L|204:344,1,75
104,302,261913,2,0,P|122:270|152:248,1,75,8|0,0:0|0:0,0:0:0:0:
256,212,262246,2,0,P|238:180|208:158,1,75,0|0,0:0|0:0,0:0:0:0:
100,160,262579,1,8,0:0:0:0:
152,248,262746,1,0,0:0:0:0:
256,212,262913,6,0,B|272:184|272:184|272:156|272:156|304:128|296:56,1,150,0|8,0:0|0:0,0:0:0:0:
196,84,263413,2,0,B|160:100|128:88|88:72|48:88,1,150
20,184,263913,2,0,P|24:224|36:260,1,75,8|0,0:0|0:0,0:0:0:0:
96,332,264246,2,0,B|164:316|164:316|212:236,1,150,0|8,0:0|0:0,0:0:0:0:
308,248,264746,2,0,B|349:316|349:316|417:332,1,150
400,236,265246,2,0,L|360:168,1,75,8|0,0:0|0:0,0:0:0:0:
304,76,265579,6,0,P|272:124|172:128,1,150,0|8,0:0|0:0,0:0:0:0:
88,116,266079,2,0,B|84:161|84:161|79:187|79:187|72:272,1,150
160,336,266579,2,0,L|168:256,1,75,8|0,0:0|0:0,0:0:0:0:
240,188,266913,5,2,2:0:0:0:
316,260,267079,2,0,P|284:284|244:292,1,75,0|0,0:0|2:0,0:0:0:0:
400,224,267413,2,0,P|408:262|399:302,1,75,0|0,0:0|2:0,0:0:0:0:
324,168,267746,1,0,0:0:0:0:
404,112,267913,2,0,L|448:128,3,37.5,0|0|0|0,2:0|2:0|2:0|2:0,0:0:0:0:
392,68,268246,6,0,P|324:48|252:72,1,150,4|8,0:0|0:0,0:0:0:0:
184,172,268746,2,0,P|252:192|324:168,1,150,0|0,0:0|0:0,0:0:0:0:
320,272,269246,2,0,P|284:280|240:280,1,75,8|0,0:0|0:0,0:0:0:0:
116,228,269579,2,0,P|100:192|100:148,1,75
124,56,269913,2,0,P|88:72|44:72,1,75,8|0,0:0|0:0,0:0:0:0:
200,120,270246,2,0,P|236:104|280:104,1,75,0|0,0:0|0:0,0:0:0:0:
360,148,270579,1,8,0:0:0:0:
348,244,270746,1,0,0:0:0:0:
452,148,270913,6,0,P|430:84|355:56,1,150,0|8,0:0|0:0,0:0:0:0:
272,128,271413,2,0,L|120:108,1,150
56,188,271913,1,8,0:0:0:0:
132,260,272079,2,0,L|128:316,2,37.5
228,224,272413,1,0,0:0:0:0:
308,292,272579,2,0,L|320:372,1,75,8|0,0:0|0:0,0:0:0:0:
228,224,272913,1,0,0:0:0:0:
296,152,273079,1,0,0:0:0:0:
376,208,273246,2,0,P|400:236|412:280,1,75,8|0,0:0|0:0,0:0:0:0:
228,224,273579,6,0,P|196:172|216:88,1,150,0|8,0:0|0:0,0:0:0:0:
324,56,274079,2,0,P|374:90|390:175,1,150,0|0,0:0|0:0,0:0:0:0:
296,152,274579,2,0,L|208:124,1,75,8|0,0:0|0:0,0:0:0:0:
120,160,274913,2,0,B|100:236|100:236|124:316,1,150,0|8,0:0|0:0,0:0:0:0:
216,240,275413,2,0,B|236:164|236:164|212:84,1,150,0|0,0:0|0:0,0:0:0:0:
120,56,275913,1,8,0:0:0:0:
32,112,276079,1,0,0:0:0:0:
120,160,276246,6,0,L|276:140,1,150,8|0,0:0|0:0,0:0:0:0:
372,128,276746,2,0,P|368:168|372:212,1,75,8|0,0:0|0:0,0:0:0:0:
424,292,277079,2,0,P|388:304|340:300,2,75,0|8|0,0:0|0:0|0:0,0:0:0:0:
280,248,277579,2,0,L|240:360,2,112.5,8|8|8,0:0|0:0|0:0,0:0:0:0:
212,164,278246,1,0,0:0:0:0:
112,196,278413,1,0,0:0:0:0:
36,120,278579,1,8,0:0:0:0:
36,120,278663,1,0,0:0:0:0:
36,120,278746,2,0,L|56:32,1,75,0|4,0:0|0:0,0:0:0:0:
256,192,278996,12,4,284246,0:0:0:0:
