osu file format v14

[General]
AudioFilename: song.mp3
AudioLeadIn: 2000
PreviewTime: 52157
Countdown: 1
SampleSet: Normal
StackLeniency: 0.7
Mode: 0
LetterboxInBreaks: 1
WidescreenStoryboard: 1

[Editor]
Bookmarks: 15162,17183,18892,25421,32571,35058,37545,40032,41276,42519,51224,51302,51379,51457,51535,51613,51690,51768,51846,52001,52312,82623
DistanceSpacing: 1
BeatDivisor: 4
GridSize: 4
TimelineZoom: 2.1

[Metadata]
Title:Fallen (TV size ver.)
TitleUnicode:Fallen (TV size ver.)
Artist:EGOIST
ArtistUnicode:EGOIST
Creator:Kiiwa
Version:Insane
Source:Psychopassssdssd
Tags:
BeatmapID:676712
BeatmapSetID:301845

[Difficulty]
HPDrainRate:8.5
CircleSize:4
OverallDifficulty:7
ApproachRate:8.5
SliderMultiplier:1.6
SliderTickRate:1

[Events]
//Background and Video events
0,0,"Psycho-Pass2.jpg",0,0
//Break Periods
//Storyboard Layer 0 (Background)
//Storyboard Layer 1 (Fail)
//Storyboard Layer 2 (Pass)
//Storyboard Layer 3 (Foreground)
//Storyboard Sound Samples

[TimingPoints]
240,310.880829015544,4,2,1,80,1,0
240,-133.333333333333,4,2,1,80,0,0
395,-133.333333333333,4,2,1,70,0,0
550,-133.333333333333,4,2,1,80,0,0
706,-133.333333333333,4,2,1,70,0,0
861,-133.333333333333,4,2,1,80,0,0
1017,-133.333333333333,4,2,1,70,0,0
1172,-133.333333333333,4,2,1,80,0,0
1328,-133.333333333333,4,2,1,70,0,0
1483,-133.333333333333,4,2,1,80,0,0
1638,-133.333333333333,4,2,1,70,0,0
1794,-133.333333333333,4,2,1,80,0,0
1949,-133.333333333333,4,2,1,70,0,0
2105,-133.333333333333,4,2,1,80,0,0
2260,-133.333333333333,4,2,1,70,0,0
2416,-133.333333333333,4,2,1,80,0,0
2571,-133.333333333333,4,2,1,70,0,0
2727,-133.333333333333,4,2,1,80,0,0
2882,-133.333333333333,4,2,1,70,0,0
3037,-133.333333333333,4,2,1,80,0,0
3193,-133.333333333333,4,2,1,70,0,0
3348,-133.333333333333,4,2,1,80,0,0
3504,-133.333333333333,4,2,1,70,0,0
3659,-133.333333333333,4,2,1,80,0,0
3815,-133.333333333333,4,2,1,70,0,0
3970,-133.333333333333,4,2,1,80,0,0
4126,-133.333333333333,4,2,1,70,0,0
4281,-133.333333333333,4,2,1,80,0,0
4436,-133.333333333333,4,2,1,70,0,0
4592,-133.333333333333,4,2,1,80,0,0
4747,-133.333333333333,4,2,1,70,0,0
4903,-133.333333333333,4,2,1,80,0,0
5058,-133.333333333333,4,2,1,70,0,0
5214,-133.333333333333,4,2,1,80,0,0
5369,-133.333333333333,4,2,1,70,0,0
5524,-133.333333333333,4,2,1,80,0,0
5680,-133.333333333333,4,2,1,70,0,0
5835,-133.333333333333,4,2,1,80,0,0
5991,-133.333333333333,4,2,1,70,0,0
6146,-133.333333333333,4,2,1,80,0,0
6302,-133.333333333333,4,2,1,70,0,0
6457,-133.333333333333,4,2,1,80,0,0
6613,-133.333333333333,4,2,1,70,0,0
6768,-133.333333333333,4,2,1,80,0,0
6923,-133.333333333333,4,2,1,70,0,0
7079,-133.333333333333,4,2,1,80,0,0
7234,-133.333333333333,4,2,1,70,0,0
7390,-133.333333333333,4,2,1,80,0,0
7545,-133.333333333333,4,2,1,70,0,0
7701,-133.333333333333,4,2,1,80,0,0
7856,-133.333333333333,4,2,1,70,0,0
8012,-133.333333333333,4,2,1,80,0,0
8167,-133.333333333333,4,2,1,70,0,0
8322,-133.333333333333,4,2,1,80,0,0
8478,-133.333333333333,4,2,1,70,0,0
8633,-133.333333333333,4,2,1,80,0,0
8789,-133.333333333333,4,2,1,70,0,0
8944,-133.333333333333,4,2,1,80,0,0
9100,-133.333333333333,4,2,1,70,0,0
9255,-133.333333333333,4,2,1,80,0,0
9410,-133.333333333333,4,2,1,70,0,0
9566,-133.333333333333,4,2,1,80,0,0
9721,-133.333333333333,4,2,1,70,0,0
9877,-133.333333333333,4,2,1,80,0,0
10032,-133.333333333333,4,2,1,70,0,0
10188,-133.333333333333,4,2,2,80,0,0
10499,-133.333333333333,4,2,1,80,0,0
12675,-133.333333333333,4,2,2,80,0,0
12986,-133.333333333333,4,2,1,80,0,0
15162,-200,4,2,2,80,0,0
15239,-200,4,2,1,80,0,0
17649,-133.333333333333,4,2,1,80,0,0
18892,-133.333333333333,4,2,1,10,0,0
20758,-133.333333333333,4,2,1,80,0,0
22312,-133.333333333333,4,2,1,10,0,0
22623,-100,4,1,1,80,0,0
25265,-100,4,1,1,50,0,0
25732,-100,4,1,1,80,0,0
32571,-200,4,2,2,80,0,0
32727,-200,4,2,2,80,0,0
42519,-100,4,1,1,80,0,0
52467,-100,4,1,1,80,0,1
61172,-100,4,1,1,80,0,0
62416,-100,4,1,1,80,0,1
71120,-100,4,1,1,80,0,0
72364,-100,4,1,1,80,0,1
78426,-200,4,1,1,80,0,1
78581,-200,4,2,1,80,0,0
79048,-200,4,2,1,20,0,0
79825,-100,4,1,1,80,0,0
82467,-100,4,1,1,50,0,0
82934,-100,4,1,1,80,0,0

[Colours]
Combo1 : 255,13,188
Combo2 : 152,211,71
Combo3 : 82,66,223
Combo4 : 42,42,42
Combo5 : 247,253,0

[HitObjects]
75,260,240,6,0,L|80:337,1,60.0000022888184,0|0,0:3|0:0,0:0:0:0:
95,244,550,2,0,L|100:321,1,60.0000022888184
115,228,861,2,0,L|120:305,1,60.0000022888184
135,212,1172,2,0,L|140:289,1,60.0000022888184
225,209,1483,6,0,L|230:132,1,60.0000022888184
268,205,1794,2,0,L|273:128,1,60.0000022888184
311,201,2105,2,0,L|316:124,1,60.0000022888184
354,197,2416,2,0,L|359:120,1,60.0000022888184
416,60,2727,6,0,L|476:57,1,60.0000022888184
350,46,3037,2,0,L|410:43,1,60.0000022888184
284,32,3348,2,0,L|344:29,1,60.0000022888184
218,18,3659,2,0,L|278:15,1,60.0000022888184
130,56,3970,38,0,L|134:132,1,60.0000022888184
42,74,4281,2,0,L|46:150,1,60.0000022888184
192,171,4592,6,0,L|196:247,1,60.0000022888184
104,189,4903,2,0,L|108:265,1,60.0000022888184
254,286,5214,6,0,L|258:362,1,60.0000022888184
287,249,5524,2,0,L|291:325,1,60.0000022888184,0|0,0:0|0:0,0:0:0:0:
320,212,5835,2,0,L|324:288,1,60.0000022888184,0|0,0:0|0:0,0:0:0:0:
353,175,6146,2,0,L|357:251,1,60.0000022888184,0|0,0:0|0:0,0:0:0:0:
386,138,6457,2,0,L|390:214,1,60.0000022888184,0|0,0:0|0:0,0:0:0:0:
419,101,6768,2,0,L|423:177,1,60.0000022888184,0|0,0:0|0:0,0:0:0:0:
452,64,7079,2,0,L|456:140,1,60.0000022888184,0|0,0:0|0:0,0:0:0:0:
485,27,7390,2,0,L|489:103,1,60.0000022888184,0|0,0:0|0:0,0:0:0:0:
382,6,7701,38,0,L|316:13,1,60.0000022888184
185,49,8012,2,0,L|251:56,1,60.0000022888184
387,86,8322,2,0,L|321:93,1,60.0000022888184
190,129,8633,2,0,L|256:136,1,60.0000022888184
168,231,8944,6,0,L|94:256,1,60.0000022888184
56,328,9255,2,0,L|-18:353,1,60.0000022888184
162,362,9566,6,0,L|250:352,1,60.0000022888184
321,374,9877,2,0,L|409:364,1,60.0000022888184,0|0,0:0|0:0,0:0:0:0:
445,270,10188,38,0,P|393:287|320:238,1,120.000004577637,2|2,0:0|0:0,0:0:0:0:
324,180,10654,1,2,0:0:0:0:
199,323,10809,2,0,P|210:269|289:230,1,120.000004577637,2|2,0:0|0:0,0:0:0:0:
277,82,11276,2,0,P|317:118|311:206,1,120.000004577637,2|0,0:0|0:0,0:0:0:0:
216,22,11742,6,0,L|129:26,1,60.0000022888184,2|2,0:0|0:0,0:0:0:0:
156,24,12208,2,0,L|275:18,1,120.000004577637,2|0,0:0|0:0,0:0:0:0:
78,36,12675,6,0,B|85:82|131:98|131:98|112:109|90:100,1,120.000004577637,2|2,0:0|0:0,0:0:0:0:
10,183,13141,2,0,P|18:201|23:174,1,60.0000022888184,0|2,0:0|0:0,0:0:0:0:
31,177,13452,37,2,0:0:0:0:
142,253,13607,1,2,0:0:0:0:
153,119,13763,1,2,0:0:0:0:
153,119,13918,2,0,L|290:111,1,120.000004577637,2|0,0:0|0:0,0:0:0:0:
450,238,14385,5,0,0:0:0:0:
355,216,14540,2,0,L|235:223,1,120.000004577637,2|0,0:0|0:0,0:0:0:0:
235,223,15162,6,0,B|174:196|-5:262|85:358|133:391|250:364|226:261|161:164|90:224|21:259|-21:129|102:54|128:136|106:167,1,520,2|2,0:0|0:0,0:0:0:0:
243,19,17649,38,0,B|249:72|277:119|341:130|388:116|388:116|357:180|421:265|544:201|514:113|459:90,1,480.000018310548,2|0,0:0|0:0,0:0:0:0:
256,192,20758,12,0,22312,0:0:0:0:
181,317,22623,5,12,0:0:0:0:
174,229,22778,1,2,0:0:0:0:
167,140,22934,1,8,0:0:0:0:
161,52,23089,1,10,0:0:0:0:
261,120,23245,6,0,B|303:110|303:110|376:131|376:131|423:124,2,160,10|8|4,0:0|0:0|0:0,0:0:0:0:
416,124,24022,37,2,0:0:0:0:
426,212,24177,1,8,0:0:0:0:
388,292,24333,1,2,0:0:0:0:
310,333,24488,2,0,L|224:329,1,80,4|0,0:0|0:0,0:0:0:0:
230,329,24799,2,0,L|144:325,1,80,8|0,0:0|0:0,0:0:0:0:
115,176,25110,5,8,0:0:0:0:
115,176,25265,2,0,L|118:243,6,40,0|0|0|0|0|0|8,0:0|0:0|2:0|0:0|0:0|0:0|0:0,0:0:0:0:
110,87,25887,1,0,0:0:0:0:
110,87,26043,6,0,P|97:37|114:-1,1,80,8|2,0:0|0:0,0:0:0:0:
280,52,26353,2,0,P|293:102|276:140,1,80,10|0,0:0|0:0,0:0:0:0:
236,195,26664,37,10,0:0:0:0:
371,109,26820,1,0,0:0:0:0:
397,100,26898,1,0,0:0:0:0:
424,100,26975,2,0,P|459:105|497:128,1,80,2|0,0:0|0:0,0:0:0:0:
471,281,27286,6,0,P|392:288|327:245,2,160,8|4|8,0:0|0:0|0:0,0:0:0:0:
327,245,28063,5,2,0:0:0:0:
231,256,28219,1,8,0:0:0:0:
135,266,28374,1,8,0:0:0:0:
39,277,28530,1,8,0:0:0:0:
98,176,28685,38,0,B|122:134|122:134|90:7,1,160,6|8,0:0|0:0,0:0:0:0:
232,24,29151,2,0,P|278:45|389:10,1,160,10|10,0:0|0:0,0:0:0:0:
379,18,29618,6,0,P|330:49|332:100,1,80,0|8,0:0|0:0,0:0:0:0:
419,103,29929,1,0,0:0:0:0:
419,103,30084,6,0,L|495:107,6,40,0|0|0|0|0|0|0,0:0|0:0|0:0|0:0|0:0|0:0|0:0,0:0:0:0:
485,207,30706,2,0,L|388:203,1,80,2|0,0:0|0:0,0:0:0:0:
419,103,31017,2,0,L|516:107,1,80,8|8,0:0|0:0,0:0:0:0:
198,53,31483,37,8,0:0:0:0:
105,106,31638,1,8,0:0:0:0:
186,102,31794,1,8,0:0:0:0:
93,155,31949,1,8,0:0:0:0:
278,160,32105,5,8,0:0:0:0:
397,228,32260,1,8,0:0:0:0:
300,199,32416,1,8,0:0:0:0:
419,267,32571,6,0,B|465:243|525:156|471:68|436:45|436:45|487:202|302:324|426:369|441:333,1,600,2|0,0:0|0:0,0:0:0:0:
322,358,35058,38,0,B|278:346|152:380|46:308|24:166|272:109|283:282|153:374|125:363|65:359|65:359|22:322|51:268,1,600,2|0,0:0|0:0,0:0:0:0:
62,176,37545,6,0,B|73:141|77:67|58:2|58:2|74:97|147:133|147:133|242:113|268:15|268:15|245:66|207:69,1,600,2|0,0:0|0:0,0:0:0:0:
338,63,40032,6,0,B|376:38|466:19|503:120|503:120|477:79|427:75,1,280,2|0,0:0|0:0,0:0:0:0:
503,120,41276,38,0,P|512:160|456:267,1,160,2|0,0:0|0:0,0:0:0:0:
470,278,42519,6,0,L|386:293,1,80,4|0,0:2|0:0,0:0:0:0:
241,349,42830,2,0,L|398:322,1,160
165,266,43296,1,0,0:0:0:0:
106,345,43452,6,0,B|52:322|52:322|57:370,1,80
165,266,43763,2,0,B|211:230|211:230|168:125,1,160
172,136,44229,1,0,0:0:0:0:
23,85,44385,38,0,L|109:75,1,80
251,16,44695,2,0,L|57:41,1,160,0|4,0:0|0:2,0:0:0:0:
172,136,45162,1,0,0:0:0:0:
274,108,45318,6,0,L|360:118,1,80
457,130,45628,2,0,P|466:190|427:289,1,160
379,359,46094,1,0,0:0:0:0:
449,274,46250,6,0,P|409:274|427:240,1,80
235,328,46561,2,0,B|316:313|316:313|382:360,1,160
293,224,47027,1,0,0:0:0:0:
154,360,47183,2,0,P|106:360|53:377,1,80,0|0,0:0|0:0,0:0:0:0:
75,367,47493,38,0,L|86:180,3,160,4|0|0|0,0:2|0:0|0:0|0:0,0:0:0:0:
271,31,48737,6,0,B|362:20|362:20|292:85,3,160,0|0|0|0,0:0|0:0|0:0|0:0,0:0:0:0:
186,185,49980,5,4,0:2:0:0:
252,254,50136,1,8,0:0:0:0:
250,274,50214,1,8,0:0:0:0:
248,294,50291,2,0,P|294:290|332:313,1,80,8|0,0:0|0:0,0:0:0:0:
390,368,50602,37,8,0:0:0:0:
323,304,50758,2,0,P|294:253|305:197,1,80,0|8,0:0|0:0,0:0:0:0:
275,137,51069,1,0,0:0:0:0:
294,234,51224,5,8,0:0:0:0:
318,257,51302,1,8,0:0:0:0:
348,270,51379,1,8,0:0:0:0:
381,271,51457,1,8,0:0:0:0:
412,262,51535,1,8,0:0:0:0:
439,242,51612,1,8,0:0:0:0:
457,215,51690,1,8,0:0:0:0:
464,183,51768,1,8,0:0:0:0:
460,150,51846,1,8,0:0:0:0:
439,70,52001,6,0,L|442:4,1,40,8|0,0:0|2:0,0:0:0:0:
179,52,52312,6,0,B|231:29|231:29|354:48,1,160,12|2,0:0|0:0,0:0:0:0:
236,160,52778,2,0,P|185:176|143:169,1,80,10|0,0:0|0:0,0:0:0:0:
96,96,53089,6,0,P|57:166|88:244,1,160,2|8,0:0|0:0,0:0:0:0:
222,301,53556,2,0,P|261:231|230:153,1,160,2|0,0:0|0:0,0:0:0:0:
222,301,54022,5,10,0:0:0:0:
312,358,54177,1,0,0:0:0:0:
317,252,54333,1,2,0:0:0:0:
413,302,54488,5,10,0:0:0:0:
222,301,54644,1,8,0:0:0:0:
413,302,54799,1,14,0:0:0:0:
137,381,55110,5,2,0:0:0:0:
48,341,55265,2,0,B|78:289|78:289|57:178,1,160,10|0,0:0|0:0,0:0:0:0:
125,77,55732,2,0,P|177:73|205:97,1,80,0|8,0:0|0:0,0:0:0:0:
198,87,56043,5,2,0:0:0:0:
305,33,56198,1,8,0:0:0:0:
323,41,56276,1,8,0:0:0:0:
342,44,56353,1,8,0:0:0:0:
361,41,56431,1,0,0:0:0:0:
380,35,56509,1,8,0:0:0:0:
492,59,56664,2,0,L|479:126,2,40,8|8|10,0:0|0:0|0:0,0:0:0:0:
492,59,56975,1,2,0:0:0:0:
492,59,57131,1,8,0:0:0:0:
503,202,57286,6,0,P|426:193|341:224,1,160,6|0,0:0|0:0,0:0:0:0:
276,291,57752,1,8,0:0:0:0:
496,180,57908,6,0,P|419:171|334:202,1,160,2|2,0:0|0:0,0:0:0:0:
276,291,58374,1,8,0:0:0:0:
420,237,58530,6,0,P|433:178|355:108,1,160,2|0,0:0|0:0,0:0:0:0:
226,164,58996,2,0,P|213:223|291:293,1,160,10|0,0:0|0:0,0:0:0:0:
377,355,59462,5,10,0:0:0:0:
276,291,59618,1,10,0:0:0:0:
123,365,59773,6,0,B|89:329|89:329|97:211,1,160,6|0,0:0|0:0,0:0:0:0:
96,218,60239,2,0,B|74:181|74:181|40:244,1,80,8|0,0:0|0:0,0:0:0:0:
79,95,60550,2,0,P|75:76|90:99,2,80,2|2|2,0:0|0:0|0:0,0:0:0:0:
190,26,61017,6,0,L|241:17,1,40,0|0,0:0|2:0,0:0:0:0:
220,41,61328,6,0,L|271:32,1,40,2|0,0:0|1:0,1:0:0:0:
328,89,61561,6,0,L|379:80,1,40,2|0,0:0|1:0,1:0:0:0:
436,137,61794,6,0,L|487:128,4,40,2|0|0|0|0,0:0|1:0|1:0|1:0|1:0,1:0:0:0:
499,276,62260,6,0,P|445:262|343:333,1,160,12|2,0:0|0:0,0:0:0:0:
231,319,62727,2,0,B|243:370|243:370|260:341,1,80
468,326,63037,6,0,B|500:273|500:273|492:166,1,160,2|8,0:0|0:0,0:0:0:0:
480,63,63504,2,0,L|311:46,1,160,2|0,0:0|0:0,0:0:0:0:
194,125,63970,5,10,0:0:0:0:
77,145,64126,1,0,0:0:0:0:
119,33,64281,1,2,0:0:0:0:
35,256,64437,5,10,0:0:0:0:
119,33,64592,1,8,0:0:0:0:
35,256,64747,1,14,0:0:0:0:
355,320,65058,5,2,0:0:0:0:
461,373,65214,2,0,P|495:301|459:216,1,160,10|0,0:0|0:0,0:0:0:0:
355,320,65680,2,0,L|252:331,1,80,0|8,0:0|0:0,0:0:0:0:
82,379,65991,5,2,0:0:0:0:
100,284,66146,1,8,0:0:0:0:
105,252,66224,1,8,0:0:0:0:
110,220,66302,1,8,0:0:0:0:
115,188,66379,1,0,0:0:0:0:
121,156,66457,1,8,0:0:0:0:
98,44,66612,2,0,L|49:-4,2,40,8|8|10,0:0|0:0|0:0,0:0:0:0:
174,87,66923,5,2,0:0:0:0:
174,87,67079,1,8,0:0:0:0:
330,31,67234,6,0,L|319:200,1,160,6|0,0:0|0:0,0:0:0:0:
276,291,67700,1,8,0:0:0:0:
350,12,67856,6,0,L|339:181,1,160,6|0,0:0|0:0,0:0:0:0:
276,291,68322,1,8,0:0:0:0:
390,299,68478,6,0,P|403:240|325:170,1,160,2|0,0:0|0:0,0:0:0:0:
186,258,68944,2,0,P|173:317|251:387,1,160,10|0,0:0|0:0,0:0:0:0:
390,299,69410,5,10,0:0:0:0:
186,260,69566,1,10,0:0:0:0:
284,282,69721,6,0,B|308:241|308:241|285:130,1,160,6|0,0:0|0:0,0:0:0:0:
365,52,70188,2,0,B|415:54|415:54|393:83,1,80,8|0,0:0|0:0,0:0:0:0:
201,50,70499,2,0,L|109:76,2,80,2|2|2,0:0|0:0|0:0,0:0:0:0:
47,96,70965,6,0,L|-26:117,1,40,0|0,0:0|2:0,0:0:0:0:
15,291,71276,6,0,L|63:276,1,40,2|0,0:0|1:0,1:0:0:0:
183,308,71509,6,0,L|231:293,1,40,2|0,0:0|1:0,1:0:0:0:
352,325,71742,6,0,L|400:310,4,40,2|0|0|0|0,0:0|1:0|1:0|1:0|1:0,1:0:0:0:
479,239,72208,6,0,L|499:57,1,160,12|2,0:0|0:0,0:0:0:0:
323,18,72675,1,8,0:0:0:0:
512,46,72830,2,0,L|501:139,1,80,2|2,0:0|0:0,0:0:0:0:
483,247,73141,1,2,0:0:0:0:
503,332,73296,5,8,0:0:0:0:
355,350,73452,2,0,B|300:323|300:323|207:356,1,160,2|0,0:0|0:0,0:0:0:0:
118,307,73918,1,8,0:0:0:0:
297,326,74074,2,0,P|322:280|305:222,1,80,0|2,0:0|0:0,0:0:0:0:
118,307,74385,5,8,0:0:0:0:
320,253,74540,1,8,0:0:0:0:
214,247,74695,6,0,P|184:180|210:87,1,160,2|0,0:0|0:0,0:0:0:0:
346,21,75162,2,0,P|376:88|350:181,1,160,10|2,0:0|0:0,0:0:0:0:
202,98,75628,5,2,0:0:0:0:
346,21,75784,1,8,0:0:0:0:
358,170,75939,1,2,0:0:0:0:
214,247,76095,1,8,0:0:0:0:
186,246,76172,1,8,0:0:0:0:
157,245,76250,1,8,0:0:0:0:
128,244,76328,1,0,0:0:0:0:
100,243,76405,1,8,0:0:0:0:
23,326,76561,2,8,B|31:384,2,40
12,239,76872,5,8,0:0:0:0:
12,239,77027,1,8,0:0:0:0:
56,88,77183,6,0,B|74:57|74:57|207:43,1,160,6|0,0:0|0:0,0:0:0:0:
380,64,77649,2,0,B|356:89|356:89|401:102,1,80,8|2,0:0|0:0,0:0:0:0:
192,165,77960,2,0,P|205:195|182:235,1,80,2|8,0:0|0:0,0:0:0:0:
109,283,78271,1,10,0:0:0:0:
309,295,78426,6,0,P|359:284|468:360,1,160,4|0,0:0|0:0,0:0:0:0:
432,348,79825,5,4,0:0:0:0:
422,260,79980,1,2,0:0:0:0:
411,172,80136,1,8,0:0:0:0:
401,84,80291,1,2,0:0:0:0:
286,147,80447,38,2,B|240:136|240:136|172:142|172:142|128:134,2,160,0|8|6,0:0|0:0|0:0,0:0:0:0:
129,135,81224,5,2,0:0:0:0:
219,5,81379,1,10,0:0:0:0:
286,147,81535,1,2,0:0:0:0:
136,44,81690,5,0,0:0:0:0:
293,56,81845,1,0,0:0:0:0:
204,185,82001,1,8,0:0:0:0:
212,96,82157,37,0,0:0:0:0:
212,96,82312,1,0,0:0:0:0:
212,96,82467,2,0,L|218:40,6,40,0|0|0|0|0|0|0,0:0|0:0|2:0|0:0|0:0|0:0|0:0,0:0:0:0:
350,113,83089,6,0,P|392:103|451:124,1,80,0|8,0:0|0:0,0:0:0:0:
498,253,83400,2,0,P|456:263|397:242,1,80,0|2,0:0|0:0,0:0:0:0:
420,255,83711,1,0,0:0:0:0:
490,349,83866,5,8,0:0:0:0:
341,272,84022,1,0,0:0:0:0:
310,282,84100,1,0,0:0:0:0:
284,300,84177,2,0,P|257:328|241:373,1,80,8|0,0:0|0:0,0:0:0:0:
242,365,84488,2,0,L|210:194,1,160,8|0,0:0|0:0,0:0:0:0:
210,195,84877,2,0,L|198:131,1,40
91,159,85110,37,10,0:0:0:0:
0,105,85265,1,2,0:0:0:0:
101,195,85421,1,8,0:0:0:0:
10,141,85576,1,2,0:0:0:0:
21,266,85732,2,0,B|10:307|10:307|54:298,1,80,8|0,0:0|0:0,0:0:0:0:
232,340,86043,6,0,P|192:336|136:368,1,80,6|0,0:0|0:0,0:0:0:0:
355,375,86353,2,0,P|380:339|343:213,1,160,8|2,0:0|0:0,0:0:0:0:
290,164,86820,1,0,0:0:0:0:
461,333,86975,5,2,0:0:0:0:
483,245,87131,1,4,0:0:0:0:
358,25,87442,37,2,0:0:0:0:
358,25,87519,1,2,0:0:0:0:
358,25,87597,1,8,0:0:0:0:
231,28,87752,1,2,0:0:0:0:
137,179,87908,5,10,0:0:0:0:
10,182,88063,1,2,0:0:0:0:
10,182,88219,2,0,B|24:230|24:230|15:368,1,160,8|4,0:0|0:0,0:0:0:0:
212,363,88685,5,10,0:0:0:0:
244,360,88763,1,8,0:0:0:0:
276,357,88841,1,12,0:0:0:0:
483,270,88996,5,10,0:0:0:0:
340,217,89151,5,10,0:0:0:0:
331,177,89229,1,8,0:0:0:0:
338,137,89307,1,8,0:0:0:0:
207,27,89462,5,10,0:0:0:0:
162,24,89540,1,10,0:0:0:0:
119,18,89618,1,12,0:0:0:0:
