osu file format v14

[General]
AudioFilename: song.mp3
AudioLeadIn: 2000
PreviewTime: 52157
Countdown: 1
SampleSet: None
StackLeniency: 0.7
Mode: 0
LetterboxInBreaks: 1
WidescreenStoryboard: 1

[Editor]
Bookmarks: 10188,22623,32571,42519,52312,62260,72208,79825
DistanceSpacing: 0.6
BeatDivisor: 8
GridSize: 4
TimelineZoom: 1.8

[Metadata]
Title:Fallen (TV size ver.)
TitleUnicode:Fallen (TV size ver.)
Artist:EGOIST
ArtistUnicode:EGOIST
Creator:Kiiwa
Version:EvilKiiwa
Source:Psychopassssdssd
Tags:
BeatmapID:676747
BeatmapSetID:301845

[Difficulty]
HPDrainRate:9
CircleSize:4
OverallDifficulty:8
ApproachRate:9
SliderMultiplier:1.9
SliderTickRate:1

[Events]
//Background and Video events
0,0,"Psycho-Pass2.jpg",0,0
//Break Periods
//Storyboard Layer 0 (Background)
//Storyboard Layer 1 (Fail)
//Storyboard Layer 2 (Pass)
//Storyboard Layer 3 (Foreground)
//Storyboard Sound Samples

[TimingPoints]
240,310.880829015544,4,2,1,80,1,0
240,-200,4,2,1,80,0,0
22623,-58.8235294117647,4,1,1,80,0,0
22934,-76.9230769230769,4,1,1,80,0,0
24488,-58.8235294117647,4,1,1,80,0,0
24799,-100,4,1,1,80,0,0
25110,-200,4,1,1,80,0,0
25265,-76.9230769230769,4,1,1,80,0,0
25732,-58.8235294117647,4,1,1,80,0,0
26353,-66.6666666666667,4,1,1,80,0,0
28219,-58.8235294117647,4,1,1,80,0,0
29462,-100,4,1,1,80,0,0
30706,-66.6666666666667,4,1,1,80,0,0
31483,-100,4,1,1,80,0,0

[Colours]
Combo1 : 255,13,188
Combo2 : 152,211,71
Combo3 : 82,66,223
Combo4 : 42,42,42
Combo5 : 247,253,0

[HitObjects]
285,195,240,6,0,B|288:172|288:172|263:190,1,47.5
282,295,550,2,0,B|301:307|301:307|295:276,1,47.5
193,216,861,2,0,B|173:203|173:203|179:234,1,47.5
189,318,1172,2,0,B|186:341|186:341|211:323,1,47.5
244,122,1483,6,0,P|226:93|199:74,1,47.5
155,37,1794,2,0,P|132:24|106:17,1,47.5
6,216,2105,2,0,P|24:187|51:168,1,47.5
95,131,2416,2,0,P|118:118|144:111,1,47.5
93,344,2727,6,0,P|79:315|73:290,1,47.5
241,228,3037,2,0,P|255:257|261:282,1,47.5
108,212,3348,2,0,P|133:197|160:191,1,47.5
222,344,3659,2,0,P|197:359|170:365,1,47.5
21,180,3970,6,0,L|16:124,1,47.5
90,110,4281,2,0,L|98:61,1,47.5
184,140,4592,2,0,L|175:88,1,47.5
255,101,4903,2,0,L|267:48,1,47.5
240,273,5214,6,0,P|234:297|221:329,1,47.5
305,225,5525,2,0,P|284:212|267:190,1,47.5
321,305,5836,2,0,P|336:291|361:279,1,47.5
433,261,6146,2,0,P|461:256|484:257,1,47.5
283,110,6457,6,0,B|267:107|244:99|244:99|251:113,1,47.5
364,123,6768,2,0,B|380:120|403:112|403:112|396:126,1,47.5
332,49,7079,2,0,L|340:-1,1,47.5
312,184,7390,2,0,L|304:235,1,47.5
243,17,7701,6,0,L|186:26,1,47.5
334,50,8012,2,0,L|383:42,1,47.5
223,113,8322,2,0,L|280:122,1,47.5
132,146,8633,2,0,L|83:138,1,47.5
248,214,8944,2,0,L|191:223,1,47.5
339,247,9255,2,0,L|388:239,1,47.5
206,308,9566,2,0,L|263:317,1,47.5
115,341,9877,2,0,L|66:333,1,47.5
68,333,10188,5,2,0:0:0:0:
504,72,10499,1,2,0:0:0:0:
473,155,10654,2,0,L|487:258,2,95,2|2|2,0:0|0:0|0:0,0:0:0:0:
234,47,11431,6,0,P|268:42|298:56,1,47.5,0|2,0:0|0:0,0:0:0:0:
174,177,11742,1,2,0:0:0:0:
174,177,11898,2,0,B|130:195|130:195|79:165,1,95,2|2,0:0|0:0,0:0:0:0:
17,135,12364,5,0,0:0:0:0:
174,177,12519,1,0,0:0:0:0:
59,291,12675,2,0,L|65:358,1,47.5,2|0,0:0|0:0,0:0:0:0:
82,330,12986,6,0,L|88:397,1,47.5,2|0,0:0|0:0,0:0:0:0:
318,268,13296,2,0,L|312:201,1,47.5,2|0,0:0|0:0,0:0:0:0:
386,153,13607,1,0,0:0:0:0:
302,243,13763,6,0,L|297:290,1,47.5,2|2,0:0|0:0,0:0:0:0:
286,369,14074,1,0,0:0:0:0:
444,89,14229,6,0,P|465:127|456:144,1,47.5,2|0,0:0|0:0,0:0:0:0:
386,153,14540,1,2,0:0:0:0:
238,51,14695,2,0,B|183:37|183:37|120:68,1,118.75,2|0,0:0|0:0,0:0:0:0:
66,122,15162,5,2,0:0:0:0:
30,233,15317,1,0,0:0:0:0:
238,50,15473,5,2,0:0:0:0:
202,161,15628,1,0,0:0:0:0:
335,150,15784,5,2,0:0:0:0:
299,261,15939,1,0,0:0:0:0:
510,142,16094,5,2,0:0:0:0:
474,253,16249,1,0,0:0:0:0:
474,253,16405,6,0,P|499:242|523:249,1,47.5,2|0,0:0|0:0,0:0:0:0:
436,75,16716,2,0,B|444:37|444:37|448:55,1,47.5,2|0,0:0|0:0,0:0:0:0:
497,253,17027,6,0,L|444:257,1,47.5,2|0,0:0|0:0,0:0:0:0:
193,355,17338,2,0,P|225:361|246:354,1,47.5,2|2,0:0|0:0,0:0:0:0:
238,357,17649,6,0,L|241:290,1,47.5,2|0,0:0|0:0,0:0:0:0:
80,270,17960,2,0,L|77:203,1,47.5,2|0,0:0|0:0,0:0:0:0:
78,222,18426,5,2,0:0:0:0:
78,222,18737,1,2,0:0:0:0:
223,86,18892,2,0,P|257:96|323:69,1,95,2|2,0:0|0:0,0:0:0:0:
312,78,19359,6,0,P|267:77|224:104,1,95,2|2,0:0|0:0,0:0:0:0:
256,192,20758,12,0,22312,0:0:0:0:
46,198,22623,6,0,B|62:190|68:173|68:173|80:225|119:249|161:245|188:228|203:207|203:207|210:229|210:229|227:213|249:222,1,242.250004620552
231,190,22934,2,0,B|244:158|240:124|240:124|237:155|265:182,1,123.499994346619
360,215,23245,2,0,P|423:221|477:162,1,123.499994346619
274,249,23556,2,0,L|283:321,1,61.7499971733095
263,289,23711,2,0,L|270:350,1,61.7499971733095
251,320,23866,5,0,0:0:0:0:
174,273,24022,1,0,0:0:0:0:
93,257,24177,1,0,0:0:0:0:
20,272,24333,1,0,0:0:0:0:
148,201,24488,6,0,B|226:123|145:34|145:34|177:69|208:67,1,242.250004620552
265,83,24799,2,0,P|294:89|312:83,1,47.5
386,15,24955,2,0,P|357:9|339:15,1,47.5
429,78,25110,6,0,P|446:66|458:34,1,47.5
377,132,25343,5,0,0:0:0:0:
377,132,25421,2,0,P|369:162|380:200,1,61.7499971733095
303,208,25577,2,0,P|320:239|345:260,1,61.7499971733095
278,306,25732,6,0,B|298:328|370:361|405:314|422:277|422:277|425:318|425:318|434:306|434:306|433:322|448:328,1,242.250004620552,0|0,0:0|0:0,0:0:0:0:
422,277,26043,6,0,L|413:224,1,40.375000770092
503,110,26198,2,0,L|509:149,1,40.375000770092
502,39,26353,6,0,L|491:262,1,213.750008153916
465,175,26664,6,0,B|443:147|443:147|453:192,1,71.2500027179719
357,97,26820,2,0,B|379:69|379:69|369:114,1,71.2500027179719
332,174,26975,1,0,0:0:0:0:
242,204,27131,1,0,0:0:0:0:
150,204,27286,2,0,P|112:200|59:138,1,106.875004076958
11,18,27597,6,0,P|60:8|133:129,1,213.750008153916
0,109,27908,2,0,P|21:89|65:85,1,71.2500027179719
115,281,28063,2,0,P|81:296|37:291,1,71.2500027179719
66,185,28219,6,0,P|107:172|193:314,1,242.250004620552
177,328,28530,1,0,0:0:0:0:
109,372,28685,1,0,0:0:0:0:
15,357,28841,1,0,0:0:0:0:
15,357,28996,1,0,0:0:0:0:
279,236,29151,6,0,B|336:217|364:255|364:255|410:237|419:200|419:200|443:232|497:217,1,242.250004620552
494,298,29462,6,0,B|515:326|509:374|509:374|512:358,1,95
454,130,29773,2,0,B|445:91|410:65|410:65|426:76,1,95
283,342,30084,6,0,P|266:349|252:354,1,23.75
327,335,30239,2,0,P|308:349|303:352,1,23.75
357,312,30395,1,0,0:0:0:0:
384,321,30473,1,0,0:0:0:0:
412,323,30550,1,0,0:0:0:0:
439,316,30628,1,0,0:0:0:0:
461,289,30706,6,0,B|495:204|431:187|431:187|417:153|429:128|429:128|448:117|448:117|456:92,1,213.750008153916
452,77,31017,5,0,0:0:0:0:
333,47,31172,1,0,0:0:0:0:
345,39,31328,1,0,0:0:0:0:
254,192,31483,6,0,P|240:226|241:253,1,47.5
254,192,31638,2,0,P|223:198|202:212,1,47.5
254,192,31794,2,0,P|215:168|203:169,1,47.5
254,192,31949,2,0,P|252:160|239:143,1,47.5
255,193,32105,2,0,P|270:170|272:147,1,47.5
254,192,32260,2,0,P|286:186|303:175,1,47.5
255,193,32416,2,0,P|285:205|312:203,1,47.5
