osu file format v13

[General]
AudioFilename: a83c979aa0.mp3
AudioLeadIn: 2000
PreviewTime: 52157
Countdown: 0
SampleSet: Soft
StackLeniency: 0.7
Mode: 0
LetterboxInBreaks: 0
WidescreenStoryboard: 0

[Editor]
Bookmarks: 86043
DistanceSpacing: 1.2
BeatDivisor: 4
GridSize: 4
TimelineZoom: 3.299999

[Metadata]
Title:Fallen (TV Edit)
TitleUnicode:Fallen (TV Edit)
Artist:EGOIST
ArtistUnicode:EGOIST
Creator:tutuhaha
Version:Insane
Source:PSYCHO-PASS 2
Tags:サイコパス 2 ending ryo supercell qoot8123
BeatmapID:519888
BeatmapSetID:221216

[Difficulty]
HPDrainRate:7
CircleSize:4.5
OverallDifficulty:7
ApproachRate:8
SliderMultiplier:1.6
SliderTickRate:1

[Events]
//Background and Video events
0,0,"Psycho-Pass2.png",0,0
Video,0,"bgvid.avi"
//Break Periods
//Storyboard Layer 0 (Background)
//Storyboard Layer 1 (Fail)
//Storyboard Layer 2 (Pass)
//Storyboard Layer 3 (Foreground)
//Storyboard Sound Samples
//Background Colour Transformations
3,100,163,162,255

[TimingPoints]
240,310.880829015544,4,2,1,60,1,0
240,-133.333333333333,4,2,1,60,0,0
7701,-133.333333333333,4,2,1,20,0,0
10188,-133.333333333333,4,2,2,80,0,0
10265,-133.333333333333,4,2,1,80,0,0
15162,-133.333333333333,4,2,2,80,0,0
15239,-133.333333333333,4,2,1,80,0,0
18892,-200,4,2,1,60,0,0
19359,-200,4,2,1,40,0,0
22623,-100,4,1,1,80,0,0
25265,-100,4,1,1,50,0,0
25732,-100,4,1,1,80,0,0
32571,-133.333333333333,4,2,2,80,0,0
32727,-133.333333333333,4,2,2,80,0,0
42519,-100,4,1,1,80,0,0
52467,-100,4,1,1,80,0,1
78581,-100,4,2,1,80,0,0
79825,-100,4,1,1,80,0,0

[HitObjects]
60,120,240,6,0,B|96:84|116:72|116:76,1,60.0000022888184
148,140,550,2,0,P|116:172|124:252,1,120.000004577637,0|0,0:0|0:0,0:0:0:0:
188,260,1017,1,0,0:0:0:0:
256,280,1172,2,0,L|324:292,1,60.0000022888184
315,290,1638,5,0,0:0:0:0:
340,272,1949,1,0,0:0:0:0:
364,252,2260,2,0,P|448:200|452:180,1,120.000004577637
340,136,2727,6,0,L|384:188,1,60.0000022888184
364,252,3037,2,0,P|316:236|260:276,1,120.000004577637
204,316,3504,1,0,0:0:0:0:
132,332,3659,2,0,L|60:336,1,60.0000022888184
72,335,4126,5,0,0:0:0:0:
72,304,4436,1,0,0:0:0:0:
72,272,4747,2,0,P|56:228|100:164,1,120.000004577637
144,120,5214,6,0,L|276:140,1,120.000004577637
284,208,5680,2,0,L|416:188,1,120.000004577637
416,120,6146,2,0,L|488:128,1,60.0000022888184
388,264,6457,6,0,L|264:284,1,120.000004577637
212,240,6923,2,0,L|84:220,1,120.000004577637
60,156,7390,1,0,0:0:0:0:
60,156,7545,1,0,0:0:0:0:
256,192,7701,12,2,10188,0:0:0:0:
368,252,10499,6,0,P|356:288|336:320,1,60.0000022888184,2|0,0:0|0:0,0:0:0:0:
300,224,10809,2,0,P|284:272|244:328,1,120.000004577637,0|2,0:0|0:0,0:0:0:0:
180,360,11276,2,0,P|172:312|188:232,1,120.000004577637
204,172,11742,1,2,0:0:0:0:
248,116,11898,2,0,P|188:140|116:144,1,120.000004577637
60,136,12364,1,2,0:0:0:0:
0,96,12519,1,0,0:0:0:0:
128,172,12675,6,0,P|136:204|132:244,1,60.0000022888184
204,172,12986,2,0,P|208:228|192:292,2,120.000004577637,2|0|2,0:0|0:0|0:0,0:0:0:0:
168,108,13763,5,0,0:0:0:0:
280,188,14074,1,0,0:0:0:0:
352,184,14229,1,2,0:0:0:0:
420,160,14385,2,0,P|376:152|312:104,1,120.000004577637
260,60,14851,1,2,0:0:0:0:
196,24,15006,1,0,0:0:0:0:
196,24,15162,6,0,P|156:20|120:32,2,60.0000022888184,2|0|2,0:0|0:0|0:0,0:0:0:0:
312,56,15628,2,0,P|356:54|440:18,2,120.000004577637,0|2|0,0:0|0:0|0:0,0:0:0:0:
204,100,16405,6,0,P|164:96|128:108,2,60.0000022888184,0|0|2,0:0|0:0|0:0,0:0:0:0:
320,140,16872,2,0,P|363:137|447:101,2,120.000004577637,0|2|0,0:0|0:0|0:0,0:0:0:0:
188,176,17649,5,0,0:0:0:0:
188,176,17804,1,0,0:0:0:0:
188,176,17960,1,2,0:0:0:0:
188,176,18115,2,0,P|128:160|56:172,2,120.000004577637,0|2|0,0:0|0:0|0:0,0:0:0:0:
296,216,18892,6,0,P|324:208|348:208,1,40,0|0,0:0|0:0,0:0:0:0:
372,272,19203,1,0,0:0:0:0:
372,272,19359,2,0,P|436:284|460:280,1,80,2|0,0:0|0:0,0:0:0:0:
500,200,19980,1,0,0:0:0:0:
500,200,20136,1,0,0:0:0:0:
256,192,20291,12,0,22312,0:0:0:0:
144,76,22623,5,4,0:0:0:0:
144,76,22778,1,0,0:0:0:0:
96,136,22934,2,0,P|72:172|72:212,1,80,8|0,0:0|0:0,0:0:0:0:
184,320,23245,2,0,P|204:260|144:192,1,160,0|8,0:0|0:0,0:0:0:0:
124,272,23711,1,0,0:0:0:0:
196,240,23866,6,0,B|268:212|268:212|292:176|344:176,1,160,0|8,0:0|0:0,0:0:0:0:
336,256,24333,1,0,0:0:0:0:
388,316,24488,2,0,P|352:332|308:328,1,80
408,244,24799,6,0,B|452:260|460:304|460:304|480:260|524:232,2,160,8|0|0,0:0|0:0|0:0,0:0:0:0:
364,260,25499,2,0,L|308:256,3,40,0|0|0|0,0:0|0:0|0:0|0:0,0:0:0:0:
212,328,25887,1,0,0:0:0:0:
212,328,26043,2,0,L|316:328,1,80,8|0,0:0|0:0,0:0:0:0:
372,328,26353,5,0,0:0:0:0:
416,260,26509,1,0,0:0:0:0:
380,188,26664,2,0,P|348:148|236:152,1,160,8|0,0:0|0:0,0:0:0:0:
200,212,27131,2,0,L|104:212,1,80,0|8,0:0|0:0,0:0:0:0:
28,136,27442,1,0,0:0:0:0:
28,136,27597,6,0,L|120:136,1,80
240,56,27908,2,0,L|196:44,3,40,8|0|0|0,0:0|0:0|0:0|0:0,0:0:0:0:
272,68,28219,2,0,P|280:112|260:160,1,80
232,272,28530,1,8,0:0:0:0:
232,272,28685,6,0,P|259:222|357:237,1,160
452,316,29151,2,0,B|351:316|351:316|292:276,1,160,8|0,0:0|0:0,0:0:0:0:
244,228,29618,1,0,0:0:0:0:
184,176,29773,1,8,0:0:0:0:
108,196,29929,1,0,0:0:0:0:
52,136,30084,6,0,L|12:152,7,40,0|0|0|0|0|0|0|0,0:0|0:0|0:0|0:0|0:0|0:0|0:0|0:0,0:0:0:0:
88,144,30706,2,0,P|128:112|184:120,1,80,0|0,0:0|0:0,0:0:0:0:
232,92,31017,1,8,0:0:0:0:
292,148,31172,6,0,P|316:200|412:212,1,160
408,80,31638,2,0,L|368:156,2,80,8|0|0,0:0|0:0|0:0,0:0:0:0:
468,256,32105,2,0,L|505:185,2,80,0|8|0,0:0|0:0|0:0,0:0:0:0:
400,209,32571,6,0,B|368:268|368:268|288:268|276:328,2,180.000006866455,6|0|0,0:0|0:0|0:0,0:0:0:0:
432,144,33659,1,0,0:0:0:0:
460,76,33815,2,0,L|480:16,2,60.0000022888184,0|0|0,0:0|0:0|0:0,0:0:0:0:
432,144,34281,2,0,P|392:128|336:144,1,90.0000034332277
316,140,34592,2,0,L|240:144,1,60.0000022888184
184,152,34903,1,0,0:0:0:0:
112,156,35058,6,0,P|60:144|20:84,1,120.000004577637,2|0,0:0|0:0,0:0:0:0:
68,36,35524,1,0,0:0:0:0:
120,88,35680,2,0,L|184:76,1,60.0000022888184
295,25,35991,2,0,L|232:36,1,60.0000022888184
364,56,36302,6,0,L|448:40,2,60.0000022888184,0|0|0,0:0|0:0|0:0,0:0:0:0:
480,164,36768,2,0,L|421:175,2,60.0000022888184,0|0|0,0:0|0:0|0:0,0:0:0:0:
480,92,37234,1,0,0:0:0:0:
364,128,37390,6,0,B|300:140|300:140|296:72|228:60,2,180.000006866455,2|0|0,0:0|0:0|0:0,0:0:0:0:
396,196,38478,2,0,L|324:208,1,60.0000022888184
268,216,38789,5,0,0:0:0:0:
200,240,38944,2,0,P|136:272|88:256,1,120.000004577637
52,204,39410,2,0,P|36:168|36:140,1,60.0000022888184
96,112,39721,2,0,P|112:76|112:48,1,60.0000022888184
40,64,40032,5,2,0:0:0:0:
96,112,40188,1,0,0:0:0:0:
164,144,40343,2,0,P|216:160|256:160,1,90.0000034332277
284,160,40654,1,0,0:0:0:0:
420,128,40809,2,0,P|384:108|348:28,1,120.000004577637
492,116,41276,6,0,P|488:152|476:176,1,60.0000022888184,0|0,0:0|0:0,0:0:0:0:
412,204,41587,2,0,P|416:240|428:264,1,60.0000022888184,0|0,0:0|0:0,0:0:0:0:
396,328,41898,2,0,L|320:332,1,60.0000022888184
248,260,42208,2,0,L|307:256,1,60.0000022888184
212,332,42519,5,4,0:0:0:0:
212,332,42675,1,0,0:0:0:0:
212,332,42830,2,0,B|164:328|164:328|124:308,1,80,8|0,0:0|0:0,0:0:0:0:
32,192,43141,1,0,0:0:0:0:
32,192,43296,1,0,0:0:0:0:
32,192,43452,2,0,B|80:196|80:196|120:216,1,80,8|0,0:0|0:0,0:0:0:0:
188,224,43763,6,0,L|288:228,1,80
387,159,44074,2,0,L|308:156,1,80,8|0,0:0|0:0,0:0:0:0:
320,288,44385,2,0,L|420:292,2,80,0|0|8,0:0|0:0|0:0,0:0:0:0:
248,324,44851,1,0,0:0:0:0:
172,352,45006,6,0,L|92:348,1,80,4|0,0:0|0:0,0:0:0:0:
20,264,45317,2,0,L|100:268,1,80,8|0,0:0|0:0,0:0:0:0:
108,188,45628,1,0,0:0:0:0:
152,120,45784,1,0,0:0:0:0:
224,88,45939,1,8,0:0:0:0:
304,84,46094,1,0,0:0:0:0:
376,116,46250,6,0,P|428:112|472:88,1,80
304,84,46561,1,8,0:0:0:0:
308,164,46716,2,0,P|324:200|368:228,2,80,0|0|0,0:0|0:0|0:0,0:0:0:0:
224,88,47183,2,0,P|208:52|164:24,2,80,8|0|4,0:0|0:0|0:0,0:0:0:0:
212,168,47649,5,0,0:0:0:0:
184,244,47804,1,8,0:0:0:0:
124,296,47960,1,0,0:0:0:0:
48,320,48115,2,0,P|28:276|32:232,1,80
64,112,48426,2,0,P|84:156|80:200,1,80,8|0,0:0|0:0,0:0:0:0:
124,296,48737,6,0,P|152:336|200:360,1,80
256,344,49048,1,8,0:0:0:0:
332,320,49203,1,0,0:0:0:0:
396,272,49359,2,0,L|464:208,1,80
468,96,49670,2,0,L|409:150,1,80,8|0,0:0|0:0,0:0:0:0:
332,320,49980,6,0,P|304:340|252:360,1,80
256,344,50214,1,0,0:0:0:0:
248,332,50291,2,0,P|220:312|168:292,1,80,8|0,0:0|0:0,0:0:0:0:
32,240,50602,2,0,P|65:245|116:268,1,80,8|0,0:0|0:0,0:0:0:0:
220,268,50913,1,8,0:0:0:0:
96,240,51069,6,0,B|64:200|68:160|68:160|112:144|120:52|32:60,1,240,4|0,0:0|0:0,0:0:0:0:
176,104,51690,1,0,0:0:0:0:
176,104,51768,1,0,0:0:0:0:
176,104,51846,2,0,P|224:108|268:96,1,80,0|0,0:0|0:0,0:0:0:0:
40,60,52312,6,0,P|104:80|140:176,1,160,4|0,0:0|0:0,0:0:0:0:
96,228,52778,1,8,0:0:0:0:
84,308,52934,1,0,0:0:0:0:
152,348,53089,2,0,P|212:356|240:352,1,80
304,320,53400,1,8,0:0:0:0:
352,256,53556,6,0,P|288:224|200:240,1,160
304,320,54022,2,0,P|344:336|388:336,1,80,8|0,0:0|0:0,0:0:0:0:
436,276,54333,1,0,0:0:0:0:
420,196,54488,1,0,0:0:0:0:
352,156,54644,1,8,0:0:0:0:
284,200,54799,6,0,P|224:180|164:100,1,160,4|0,0:0|0:0,0:0:0:0:
172,24,55265,2,0,P|212:44|236:84,1,80,8|0,0:0|0:0,0:0:0:0:
76,148,55576,2,0,P|68:100|100:20,1,120
104,16,55887,1,8,0:0:0:0:
152,160,56043,6,0,P|184:208|212:224,1,80
268,268,56353,1,0,0:0:0:0:
288,280,56431,1,0,0:0:0:0:
308,288,56509,2,0,P|364:299|395:290,1,80,8|0,0:0|0:0,0:0:0:0:
440,236,56820,1,0,0:0:0:0:
436,156,56975,1,0,0:0:0:0:
396,88,57131,1,8,0:0:0:0:
332,40,57286,6,0,P|272:28|180:68,1,160,4|0,0:0|0:0,0:0:0:0:
124,120,57752,2,0,P|84:148|40:156,1,80,8|0,0:0|0:0,0:0:0:0:
200,140,58063,2,0,P|248:148|284:173,1,80
156,268,58374,6,0,P|68:260|16:208,1,160,8|0,0:0|0:0,0:0:0:0:
16,132,58841,1,0,0:0:0:0:
64,68,58996,2,0,L|140:44,1,80,8|0,0:0|0:0,0:0:0:0:
284,60,59307,2,0,L|192:88,2,80,0|0|8,0:0|0:0|0:0,0:0:0:0:
232,152,59773,6,0,B|188:164|153:135|153:135|127:165|138:217,1,160,4|0,0:0|0:0,0:0:0:0:
128,288,60239,2,0,P|128:340|116:376,2,80,8|0|0,0:0|0:0|0:0,0:0:0:0:
44,192,60706,2,0,P|44:140|56:104,2,80,0|8|0,0:0|0:0|0:0,0:0:0:0:
44,192,61328,5,0,0:0:0:0:
156,148,61483,1,8,0:0:0:0:
152,160,61561,1,0,0:0:0:0:
152,172,61638,1,0,0:0:0:0:
216,252,61794,1,0,0:0:0:0:
224,276,61872,1,0,0:0:0:0:
240,296,61949,1,0,0:0:0:0:
260,312,62027,1,0,0:0:0:0:
284,320,62105,1,8,0:0:0:0:
308,320,62183,1,0,0:0:0:0:
332,316,62260,6,0,P|380:272|368:176,1,160,4|0,0:0|0:0,0:0:0:0:
308,136,62727,1,8,0:0:0:0:
228,128,62882,1,0,0:0:0:0:
156,164,63037,2,0,P|128:200|120:252,1,80
144,340,63348,1,8,0:0:0:0:
144,340,63504,6,0,P|128:292|16:280,1,160
64,344,63970,2,0,L|120:268,1,80,8|0,0:0|0:0,0:0:0:0:
244,204,64281,2,0,L|196:268,2,80,0|0|8,0:0|0:0|0:0,0:0:0:0:
296,144,64747,1,4,0:0:0:0:
340,76,64903,6,0,P|368:48|424:36,1,80
480,72,65214,1,8,0:0:0:0:
420,128,65369,1,0,0:0:0:0:
296,144,65524,2,0,P|260:104|160:116,1,160,0|8,0:0|0:0,0:0:0:0:
112,236,65991,6,0,P|160:228|200:196,1,80
204,196,66224,1,0,0:0:0:0:
220,176,66302,1,0,0:0:0:0:
164,36,66457,2,0,P|116:44|76:76,1,80,8|0,0:0|0:0,0:0:0:0:
28,108,66768,1,0,0:0:0:0:
12,184,66923,1,0,0:0:0:0:
24,264,67079,1,8,0:0:0:0:
84,316,67234,6,0,P|176:312|240:256,1,160,4|0,0:0|0:0,0:0:0:0:
204,196,67701,2,0,P|232:160|280:140,1,80,8|0,0:0|0:0,0:0:0:0:
416,168,68012,2,0,P|379:140|328:133,2,80,0|0|8,0:0|0:0|0:0,0:0:0:0:
476,224,68478,1,0,0:0:0:0:
356,224,68633,6,0,P|319:251|268:258,2,80,0|0|8,0:0|0:0|0:0,0:0:0:0:
416,168,69100,1,0,0:0:0:0:
280,176,69255,2,0,P|243:149|192:142,1,80,0|0,0:0|0:0,0:0:0:0:
132,132,69566,1,8,0:0:0:0:
256,120,69721,6,0,P|312:120|352:28,1,160,4|0,0:0|0:0,0:0:0:0:
200,32,70188,2,0,L|300:52,1,80,8|0,0:0|0:0,0:0:0:0:
420,112,70499,2,0,L|520:92,2,80,0|0|8,0:0|0:0|0:0,0:0:0:0:
368,172,70965,1,0,0:0:0:0:
256,344,71276,6,0,L|244:296,2,40,0|0|8,0:0|0:0|0:0,0:0:0:0:
256,216,71587,2,0,L|268:168,2,40,0|0|0,0:0|0:0|0:0,0:0:0:0:
256,88,71898,2,0,L|244:40,2,40,0|0|8,0:0|0:0|0:0,0:0:0:0:
80,184,72208,6,0,P|144:164|164:68,1,160,4|0,0:0|0:0,0:0:0:0:
112,24,72675,2,0,P|92:64|104:116,1,80,8|0,0:0|0:0,0:0:0:0:
176,196,72986,2,0,P|184:256|84:320,1,160,0|8,0:0|0:0,0:0:0:0:
0,199,73452,6,0,P|46:137|124:140,1,160
256,204,73918,2,0,P|296:204|344:184,1,80,8|0,0:0|0:0,0:0:0:0:
400,148,74229,1,0,0:0:0:0:
452,88,74385,1,0,0:0:0:0:
476,12,74540,1,8,0:0:0:0:
408,108,74695,6,0,P|372:64|272:100,1,160,4|0,0:0|0:0,0:0:0:0:
212,128,75162,2,0,L|120:112,2,80,8|0|0,0:0|0:0|0:0,0:0:0:0:
248,200,75628,2,0,L|340:184,2,80,0|8|0,0:0|0:0|0:0,0:0:0:0:
224,208,76017,1,0,0:0:0:0:
204,216,76094,5,0,0:0:0:0:
136,260,76250,1,0,0:0:0:0:
72,308,76405,1,8,0:0:0:0:
44,232,76561,1,0,0:0:0:0:
104,180,76716,1,0,0:0:0:0:
160,124,76872,1,0,0:0:0:0:
120,56,77027,1,8,0:0:0:0:
60,108,77183,6,0,P|124:128|220:72,1,160,4|0,0:0|0:0,0:0:0:0:
276,52,77649,2,0,P|316:36|368:32,1,80,8|0,0:0|0:0,0:0:0:0:
432,40,77960,1,0,0:0:0:0:
492,92,78115,1,0,0:0:0:0:
448,160,78271,1,8,0:0:0:0:
376,196,78426,1,4,0:0:0:0:
256,192,78581,12,0,79514,0:0:0:0:
108,208,79825,6,0,P|56:152|52:124,1,80,4|0,0:0|0:0,0:0:0:0:
116,48,80136,2,0,P|136:104|128:148,1,80,8|0,0:0|0:0,0:0:0:0:
80,288,80447,2,0,B|132:300|164:272|164:272|200:312|252:300,1,160,0|8,0:0|0:0,0:0:0:0:
228,224,80913,1,0,0:0:0:0:
372,160,81069,6,0,B|320:148|288:176|288:176|252:136|200:148,2,160,0|8|0,0:0|0:0|0:0,0:0:0:0:
440,120,81846,1,0,0:0:0:0:
436,200,82001,2,0,P|400:228|356:232,1,80,8|0,0:0|0:0,0:0:0:0:
232,256,82312,6,0,L|172:244,3,40,4|0|0|0,0:0|0:0|0:0|0:0,0:0:0:0:
228,224,82623,2,0,L|288:212,3,40,4|0|0|0,0:0|0:0|0:0|0:0,0:0:0:0:
216,188,82934,2,0,P|192:140|256:60,1,160,0|8,0:0|0:0,0:0:0:0:
324,32,83400,1,0,0:0:0:0:
344,108,83556,6,0,P|296:136|256:128,1,80
116,120,83866,2,0,P|76:122|45:146,2,80,8|0|0,0:0|0:0|0:0,0:0:0:0:
196,128,84333,1,0,0:0:0:0:
196,208,84488,2,0,L|196:304,1,80,8|0,0:0|0:0,0:0:0:0:
328,340,84799,5,4,0:0:0:0:
328,340,84955,1,0,0:0:0:0:
328,340,85110,2,0,P|336:280|272:212,2,160,8|0|8,0:0|0:0|0:0,0:0:0:0:
256,300,85887,1,0,0:0:0:0:
392,216,86043,5,0,0:0:0:0:
392,216,86198,1,0,0:0:0:0:
392,216,86353,2,0,P|372:156|436:76,2,160,8|0|8,0:0|0:0|0:0,0:0:0:0:
452,164,87131,1,0,0:0:0:0:
280,128,87286,6,0,L|172:136,1,80
56,192,87597,2,0,B|148:188|148:188|184:220|240:204,2,160,8|0|8,0:0|0:0|0:0,0:0:0:0:
208,284,88374,6,0,B|240:288|270:262|270:262|362:266,1,160,0|0,0:0|0:0,0:0:0:0:
388,188,88841,2,0,L|296:184,1,80,8|0,0:0|0:0,0:0:0:0:
260,120,89151,1,0,0:0:0:0:
200,64,89307,1,0,0:0:0:0:
120,56,89462,1,8,0:0:0:0:
140,196,89618,1,8,0:0:0:0:
