osu file format v13

[General]
AudioFilename: a83c979aa0.mp3
AudioLeadIn: 2000
PreviewTime: 52157
Countdown: 0
SampleSet: Soft
StackLeniency: 0.7
Mode: 0
LetterboxInBreaks: 0
WidescreenStoryboard: 0

[Editor]
Bookmarks: 86043
DistanceSpacing: 1.2
BeatDivisor: 4
GridSize: 4
TimelineZoom: 1.8

[Metadata]
Title:Fallen (TV Edit)
TitleUnicode:Fallen (TV Edit)
Artist:EGOIST
ArtistUnicode:EGOIST
Creator:tutuhaha
Version:Hard
Source:PSYCHO-PASS 2
Tags:サイコパス 2 ending ryo supercell qoot8123
BeatmapID:518201
BeatmapSetID:221216

[Difficulty]
HPDrainRate:6
CircleSize:4
OverallDifficulty:6
ApproachRate:7.5
SliderMultiplier:1.3
SliderTickRate:1

[Events]
//Background and Video events
0,0,"Psycho-Pass2.png",0,0
Video,0,"bgvid.avi"
//Break Periods
//Storyboard Layer 0 (Background)
//Storyboard Layer 1 (Fail)
//Storyboard Layer 2 (Pass)
//Storyboard Layer 3 (Foreground)
//Storyboard Sound Samples
//Background Colour Transformations
3,100,163,162,255

[TimingPoints]
240,310.880829015544,4,2,1,60,1,0
7701,-100,4,2,1,20,0,0
10188,-100,4,2,2,80,0,0
10265,-100,4,2,1,80,0,0
15162,-100,4,2,2,80,0,0
15239,-100,4,2,1,80,0,0
19048,-100,4,2,1,40,0,0
22623,-100,4,1,1,80,0,0
32416,-100,4,2,2,80,0,0
42519,-100,4,1,1,80,0,0
52467,-100,4,1,1,80,0,1
78581,-100,4,2,1,80,0,0
79825,-100,4,1,1,80,0,0

[HitObjects]
432,56,240,6,0,P|404:96|376:120,1,65
316,88,550,2,0,P|264:68|164:88,1,130
88,148,1017,2,0,P|132:148|172:132,1,65
228,148,1328,5,0,0:0:0:0:
336,256,1638,1,0,0:0:0:0:
188,300,1949,1,0,0:0:0:0:
228,148,2260,2,0,P|268:96|352:76,1,130
388,40,2727,6,0,L|480:40,1,65
472,116,3037,2,0,L|397:116,1,65
396,192,3348,2,0,B|484:192|484:192|508:216|500:256,1,130
432,268,3815,5,0,0:0:0:0:
288,212,4126,1,0,0:0:0:0:
308,368,4436,1,0,0:0:0:0:
432,268,4747,2,0,L|432:356,2,65,0|0|0,0:0|0:0|0:0,0:0:0:0:
352,268,5214,6,0,P|280:296|216:260,1,130
220,200,5680,2,0,P|196:156|104:128,1,130
52,160,6146,1,0,0:0:0:0:
28,236,6302,1,0,0:0:0:0:
44,312,6457,6,0,P|84:336|176:312,1,130
228,280,6923,2,0,L|380:280,2,130,0|0|0,0:0|0:0|0:0,0:0:0:0:
220,200,7701,1,0,0:0:0:0:
256,192,7778,12,2,10188,0:0:0:0:
256,304,10499,6,0,L|400:304,1,130,2|0,0:0|0:0,0:0:0:0:
444,248,10965,1,0,0:0:0:0:
468,172,11120,1,2,0:0:0:0:
460,96,11276,6,0,P|408:120|400:204,1,130
444,248,11742,1,2,0:0:0:0:
392,308,11898,2,0,P|338:328|273:275,1,130,0|0,0:0|0:0,0:0:0:0:
308,220,12364,2,0,L|228:188,1,65,2|0,0:0|0:0,0:0:0:0:
352,224,12675,6,0,B|276:196|276:196|272:164|240:136,1,130,0|2,0:0|0:0,0:0:0:0:
180,144,13141,1,0,0:0:0:0:
120,192,13296,2,0,B|111:210|124:240|124:240|72:302,1,130,0|2,0:0|0:0,0:0:0:0:
20,360,13763,5,0,0:0:0:0:
172,328,14074,1,2,0:0:0:0:
320,360,14385,1,0,0:0:0:0:
476,340,14695,1,2,0:0:0:0:
376,220,15006,1,0,0:0:0:0:
428,164,15162,6,0,P|440:128|444:88,1,65,2|0,0:0|0:0,0:0:0:0:
384,52,15473,1,2,0:0:0:0:
308,32,15628,2,0,P|276:84|276:180,1,130,0|2,0:0|0:0,0:0:0:0:
216,300,16250,6,0,P|188:252|96:216,1,130
48,204,16716,1,2,0:0:0:0:
4,268,16872,2,0,P|32:316|124:352,1,130
172,364,17338,1,2,0:0:0:0:
216,300,17493,1,0,0:0:0:0:
240,224,17649,6,0,P|248:144|340:64,1,195
408,68,18271,2,0,L|476:72,1,65,2|0,0:0|0:0,0:0:0:0:
448,144,18581,2,0,P|432:192|364:248,1,130
59,214,20136,1,0,0:0:0:0:
256,192,20291,12,0,22312,0:0:0:0:
296,128,22623,6,0,L|380:128,1,65,4|0,0:0|0:0,0:0:0:0:
436,148,22934,1,8,0:0:0:0:
472,216,23089,1,0,0:0:0:0:
428,280,23245,2,0,P|376:264|320:192,1,130,0|8,0:0|0:0,0:0:0:0:
256,244,23711,1,0,0:0:0:0:
185,209,23866,6,0,P|144:258|84:280,2,130,0|8|0,0:0|0:0|0:0,0:0:0:0:
120,164,24644,1,0,0:0:0:0:
56,120,24799,2,0,P|97:70|157:49,1,130,8|4,0:0|0:0,0:0:0:0:
216,104,25265,6,0,P|260:148|344:164,1,130,0|0,0:0|0:0,0:0:0:0:
376,108,25732,2,0,P|376:64|392:32,1,65
460,68,26043,2,0,P|469:98|467:131,1,65,8|0,0:0|0:0,0:0:0:0:
408,184,26353,6,0,P|376:232|376:312,1,130,0|8,0:0|0:0,0:0:0:0:
448,328,26820,1,0,0:0:0:0:
448,328,26975,2,0,P|472:296|488:252,1,65,0|0,0:0|0:0,0:0:0:0:
500,196,27286,2,0,P|485:158|481:112,1,65,8|0,0:0|0:0,0:0:0:0:
440,68,27597,6,0,L|356:52,1,65,4|0,0:0|0:0,0:0:0:0:
304,80,27908,1,8,0:0:0:0:
228,68,28063,1,0,0:0:0:0:
152,52,28219,2,0,P|96:44|24:96,1,130,0|8,0:0|0:0,0:0:0:0:
20,156,28685,6,0,L|56:280,1,130
132,260,29151,2,0,L|108:184,1,65,8|0,0:0|0:0,0:0:0:0:
164,140,29462,2,0,P|216:144|264:216,1,130,0|8,0:0|0:0,0:0:0:0:
312,260,29929,6,0,L|400:268,2,65,0|4|0,0:0|0:0|0:0,0:0:0:0:
236,276,30395,2,0,P|196:328|108:332,2,130,8|0|8,0:0|0:0|0:0,0:0:0:0:
184,216,31172,6,0,P|152:152|176:88,1,130
224,44,31638,2,0,L|368:44,1,130,8|0,0:0|0:0,0:0:0:0:
461,112,32105,2,0,L|396:112,1,65,0|8,0:0|0:0,0:0:0:0:
376,188,32416,6,0,B|456:188|456:188|512:240|460:300,1,195,6|0,0:0|0:0,0:0:0:0:
392,272,33037,1,0,0:0:0:0:
324,308,33193,2,0,L|236:332,1,65
196,280,33504,2,0,L|108:304,1,65
72,248,33815,6,0,P|92:200|48:108,1,130,0|0,0:0|0:0,0:0:0:0:
36,60,34281,2,0,L|172:120,1,130
228,144,34747,1,0,0:0:0:0:
300,172,34903,1,0,0:0:0:0:
372,196,35058,6,0,P|424:192|480:128,1,130,2|0,0:0|0:0,0:0:0:0:
460,60,35524,2,0,P|408:64|352:128,1,130
372,196,35991,2,0,P|380:244|376:272,1,65
304,284,36302,6,0,P|296:332|300:360,2,65,0|0|0,0:0|0:0|0:0,0:0:0:0:
232,252,36768,2,0,P|232:219|225:188,1,65
156,152,37079,2,0,P|155:119|162:88,1,65
224,40,37390,1,0,0:0:0:0:
224,40,37545,6,0,P|168:64|96:36,1,130,2|0,0:0|0:0,0:0:0:0:
52,104,38012,2,0,L|40:260,1,130
36,312,38478,1,0,0:0:0:0:
36,312,38633,1,0,0:0:0:0:
116,308,38789,6,0,P|168:304|248:344,1,130
316,340,39255,2,0,P|368:360|460:336,1,130
476,280,39721,1,0,0:0:0:0:
464,204,39877,1,0,0:0:0:0:
400,160,40032,6,0,P|336:147|276:168,1,130,2|0,0:0|0:0,0:0:0:0:
212,212,40499,2,0,P|148:225|88:204,1,130
32,152,40965,2,0,L|24:76,1,65
104,104,41276,6,0,L|112:28,1,65
184,68,41587,2,0,L|190:132,1,65
264,104,41898,2,0,L|272:28,1,65
344,64,42208,2,0,L|350:128,1,65
416,172,42519,6,0,P|468:208|488:280,1,130,4|8,0:0|0:0,0:0:0:0:
424,312,42986,2,0,L|296:344,1,130
220,332,43452,2,0,P|200:296|160:268,1,65,8|0,0:0|0:0,0:0:0:0:
112,248,43763,6,0,P|56:232|12:148,1,130,0|8,0:0|0:0,0:0:0:0:
44,104,44229,1,0,0:0:0:0:
100,48,44385,2,0,L|184:24,1,65
228,72,44695,2,0,L|312:48,1,65,8|0,0:0|0:0,0:0:0:0:
340,116,45006,6,0,P|424:128|476:100,1,130,4|8,0:0|0:0,0:0:0:0:
476,32,45473,2,0,L|456:160,1,130
444,236,45939,1,8,0:0:0:0:
428,312,46094,1,0,0:0:0:0:
352,328,46250,6,0,P|320:288|224:288,1,130,0|8,0:0|0:0,0:0:0:0:
188,332,46716,1,0,0:0:0:0:
112,356,46872,2,0,P|64:372|28:368,1,65
36,296,47183,2,0,P|44:264|68:228,1,65,8|0,0:0|0:0,0:0:0:0:
56,160,47493,6,0,P|76:96|136:52,1,130,4|8,0:0|0:0,0:0:0:0:
200,32,47960,2,0,L|312:136,1,130
352,172,48426,1,8,0:0:0:0:
412,224,48581,1,0,0:0:0:0:
472,276,48737,6,0,P|412:280|360:348,1,130,0|8,0:0|0:0,0:0:0:0:
288,332,49203,2,0,L|156:280,1,130
96,252,49670,1,8,0:0:0:0:
24,220,49825,1,0,0:0:0:0:
28,144,49980,6,0,P|92:132|156:68,1,130,4|8,0:0|0:0,0:0:0:0:
204,48,50447,2,0,P|260:36|288:36,1,65
344,52,50758,1,0,0:0:0:0:
416,80,50913,1,8,0:0:0:0:
468,136,51069,1,0,0:0:0:0:
468,212,51224,6,0,P|464:264|456:288,1,65
380,176,51535,2,0,P|384:228|392:252,1,65,8|0,0:0|0:0,0:0:0:0:
304,212,51846,2,0,P|300:264|292:288,1,65,8|8,0:0|0:0,0:0:0:0:
56,324,52312,6,0,P|88:272|176:256,1,130,4|0,0:0|0:0,0:0:0:0:
228,236,52778,1,8,0:0:0:0:
304,212,52934,1,0,0:0:0:0:
336,140,53089,2,0,P|328:192|388:264,1,130,0|8,0:0|0:0,0:0:0:0:
448,252,53556,6,0,P|485:200|480:137,1,130
408,112,54022,1,8,0:0:0:0:
336,140,54177,2,0,P|284:136|256:124,1,65
196,112,54488,1,0,0:0:0:0:
124,80,54644,1,8,0:0:0:0:
60,36,54799,1,4,0:0:0:0:
140,172,55110,6,0,P|176:192|216:196,1,65,0|8,0:0|0:0,0:0:0:0:
276,192,55421,1,0,0:0:0:0:
336,140,55576,2,0,P|392:128|472:140,1,130,0|8,0:0|0:0,0:0:0:0:
476,216,56043,6,0,P|412:228|348:218,1,130
276,192,56509,2,0,P|232:176|196:176,1,65,8|0,0:0|0:0,0:0:0:0:
152,220,56820,2,0,P|184:248|216:264,1,65
268,304,57131,1,8,0:0:0:0:
268,304,57286,6,0,P|208:288|128:312,1,130,4|0,0:0|0:0,0:0:0:0:
64,304,57752,2,0,L|36:236,1,65,8|0,0:0|0:0,0:0:0:0:
104,204,58063,2,0,L|76:136,1,65
144,104,58374,6,0,B|140:68|140:68|196:68|232:24,1,130,8|0,0:0|0:0,0:0:0:0:
304,28,58841,1,0,0:0:0:0:
380,32,58996,2,0,B|408:67|464:67|464:67|460:103,1,130,8|0,0:0|0:0,0:0:0:0:
444,180,59462,2,0,L|428:264,1,65,0|8,0:0|0:0,0:0:0:0:
416,320,59773,6,0,P|396:264|316:228,1,130,4|0,0:0|0:0,0:0:0:0:
260,228,60239,2,0,P|204:259|181:318,1,130,8|0,0:0|0:0,0:0:0:0:
104,324,60706,2,0,P|108:276|124:244,1,65,0|8,0:0|0:0,0:0:0:0:
84,188,61017,5,4,0:0:0:0:
172,60,61328,1,0,0:0:0:0:
200,132,61483,2,0,L|176:168,2,32.5,0|0|0,0:0|0:0|0:0,0:0:0:0:
248,68,61794,2,0,L|266:40,2,32.5,0|0|8,0:0|0:0|0:0,0:0:0:0:
280,140,62105,1,0,0:0:0:0:
280,140,62260,6,0,P|296:200|352:264,1,130,4|0,0:0|0:0,0:0:0:0:
396,304,62727,2,0,P|412:268|416:224,1,65,8|0,0:0|0:0,0:0:0:0:
372,180,63037,2,0,P|312:163|228:180,1,130,0|8,0:0|0:0,0:0:0:0:
180,212,63504,6,0,P|120:229|36:212,1,130,0|0,0:0|0:0,0:0:0:0:
28,148,63970,1,8,0:0:0:0:
92,100,64126,1,0,0:0:0:0:
168,76,64281,2,0,P|216:64|252:60,1,65
308,48,64592,1,8,0:0:0:0:
384,44,64747,1,4,0:0:0:0:
272,156,65058,6,0,P|312:152|356:160,2,65,0|8|0,0:0|0:0|0:0,0:0:0:0:
228,220,65524,2,0,P|176:264|100:256,1,130,0|8,0:0|0:0,0:0:0:0:
56,216,65991,6,0,P|108:172|184:180,1,130
228,220,66457,2,0,P|264:244|304:256,1,65,8|0,0:0|0:0,0:0:0:0:
364,252,66768,2,0,P|393:239|420:220,1,65
476,164,67079,1,8,0:0:0:0:
424,108,67234,6,0,P|376:64|284:64,1,130,4|0,0:0|0:0,0:0:0:0:
240,80,67701,2,0,L|160:56,1,65,8|0,0:0|0:0,0:0:0:0:
152,136,68012,2,0,L|89:117,1,65
64,192,68322,2,0,L|-16:168,1,65,8|0,0:0|0:0,0:0:0:0:
0,252,68633,6,0,B|68:272|68:272|104:264|136:288,1,130,0|8,0:0|0:0,0:0:0:0:
184,332,69100,1,0,0:0:0:0:
256,360,69255,2,0,P|292:360|320:344,2,65,0|0|8,0:0|0:0|0:0,0:0:0:0:
244,280,69721,6,0,B|265:263|301:271|301:271|369:251,1,130,4|0,0:0|0:0,0:0:0:0:
440,284,70188,2,0,P|400:248|400:172,1,130,8|0,0:0|0:0,0:0:0:0:
448,116,70654,1,0,0:0:0:0:
480,44,70809,1,8,0:0:0:0:
404,52,70965,6,0,L|260:52,1,130,0|8,0:0|0:0,0:0:0:0:
54,180,71587,2,0,L|184:180,1,130,0|8,0:0|0:0,0:0:0:0:
236,120,72053,1,0,0:0:0:0:
274,52,72208,6,0,P|324:72|368:164,1,130,4|0,0:0|0:0,0:0:0:0:
384,212,72675,1,8,0:0:0:0:
280,328,72986,1,0,0:0:0:0:
236,180,73296,1,8,0:0:0:0:
312,168,73452,6,0,P|352:128|352:40,1,130
288,28,73918,2,0,L|140:28,1,130,8|0,0:0|0:0,0:0:0:0:
59,100,74385,2,0,L|124:100,1,65,0|8,0:0|0:0,0:0:0:0:
136,176,74695,6,0,B|168:168|184:148|184:148|288:148,1,130,4|0,0:0|0:0,0:0:0:0:
336,148,75162,1,8,0:0:0:0:
492,148,75473,2,0,L|448:200,1,65
436,276,75784,2,0,B|404:268|388:248|388:248|284:248,1,130,8|0,0:0|0:0,0:0:0:0:
236,248,76250,5,0,0:0:0:0:
158,248,76405,2,0,L|74:248,1,65,8|0,0:0|0:0,0:0:0:0:
36,192,76716,2,0,P|24:152|24:112,1,65
48,56,77027,1,8,0:0:0:0:
116,20,77183,6,0,P|144:72|232:112,1,130,4|0,0:0|0:0,0:0:0:0:
280,120,77649,1,8,0:0:0:0:
404,216,77960,1,0,0:0:0:0:
368,284,78115,1,0,0:0:0:0:
308,336,78271,1,8,0:0:0:0:
236,364,78426,1,4,0:0:0:0:
256,192,78581,12,0,79514,0:0:0:0:
120,144,79825,6,0,L|24:144,1,65,4|0,0:0|0:0,0:0:0:0:
128,224,80136,2,0,L|208:224,1,65,8|0,0:0|0:0,0:0:0:0:
128,304,80447,2,0,B|52:304|52:304|28:296|12:256,2,130,0|8|0,0:0|0:0|0:0,0:0:0:0:
208,304,81224,5,0,0:0:0:0:
284,304,81379,2,0,P|348:300|424:332,1,130,8|0,0:0|0:0,0:0:0:0:
484,352,81846,1,0,0:0:0:0:
484,276,82001,2,0,L|484:144,2,130,8|4|8,0:0|0:0|0:0,0:0:0:0:
368,172,82934,6,0,L|368:24,1,130,0|8,0:0|0:0,0:0:0:0:
288,44,83400,1,0,0:0:0:0:
216,76,83556,2,0,P|180:120|200:208,1,130,0|8,0:0|0:0,0:0:0:0:
324,264,84177,1,0,0:0:0:0:
192,348,84488,1,8,0:0:0:0:
48,288,84799,5,4,0:0:0:0:
44,208,84955,1,0,0:0:0:0:
60,132,85110,2,0,P|80:88|84:56,1,65,8|0,0:0|0:0,0:0:0:0:
152,36,85421,2,0,P|192:80|224:168,1,130,0|8,0:0|0:0,0:0:0:0:
276,292,86043,5,0,0:0:0:0:
348,320,86198,1,0,0:0:0:0:
424,340,86353,2,0,P|468:352|508:352,1,65,8|0,0:0|0:0,0:0:0:0:
484,276,86664,2,0,P|436:248|356:232,1,130,0|8,0:0|0:0,0:0:0:0:
212,192,87286,6,0,L|116:192,1,65,4|0,0:0|0:0,0:0:0:0:
112,124,87597,2,0,L|16:124,1,65,8|0,0:0|0:0,0:0:0:0:
16,196,87908,2,0,P|32:248|112:308,1,130,0|8,0:0|0:0,0:0:0:0:
156,332,88374,1,0,0:0:0:0:
228,360,88530,6,0,L|304:360,1,65
357,280,88841,2,0,L|292:280,1,65,8|0,0:0|0:0,0:0:0:0:
240,220,89151,5,0,0:0:0:0:
196,156,89307,1,0,0:0:0:0:
262,67,89462,1,8,0:0:0:0:
272,148,89618,1,0,0:0:0:0:
