osu file format v13

[General]
AudioFilename: a83c979aa0.mp3
AudioLeadIn: 2000
PreviewTime: 52157
Countdown: 0
SampleSet: Soft
StackLeniency: 0.7
Mode: 0
LetterboxInBreaks: 0
WidescreenStoryboard: 0

[Editor]
Bookmarks: 86043
DistanceSpacing: 1
BeatDivisor: 4
GridSize: 4
TimelineZoom: 3.299999

[Metadata]
Title:Fallen (TV Edit)
TitleUnicode:Fallen (TV Edit)
Artist:EGOIST
ArtistUnicode:EGOIST
Creator:tutuhaha
Version:Fallen
Source:PSYCHO-PASS 2
Tags:サイコパス 2 ending ryo supercell qoot8123
BeatmapID:517570
BeatmapSetID:221216

[Difficulty]
HPDrainRate:7
CircleSize:4.5
OverallDifficulty:8
ApproachRate:9
SliderMultiplier:1.7
SliderTickRate:1

[Events]
//Background and Video events
0,0,"Psycho-Pass2.png",0,0
Video,0,"bgvid.avi"
//Break Periods
//Storyboard Layer 0 (Background)
//Storyboard Layer 1 (Fail)
//Storyboard Layer 2 (Pass)
//Storyboard Layer 3 (Foreground)
//Storyboard Sound Samples
//Background Colour Transformations
3,100,163,162,255

[TimingPoints]
240,310.880829015544,4,2,1,60,1,0
240,-133.333333333333,4,2,1,60,0,0
7701,-133.333333333333,4,2,1,20,0,0
10188,-133.333333333333,4,2,2,80,0,0
10265,-133.333333333333,4,2,1,80,0,0
15162,-133.333333333333,4,2,2,80,0,0
15239,-133.333333333333,4,2,1,80,0,0
18892,-200,4,2,1,80,0,0
18970,-200,4,2,1,20,0,0
19825,-200,4,2,1,40,0,0
22623,-100,4,1,1,80,0,0
25265,-100,4,1,1,50,0,0
25732,-100,4,1,1,80,0,0
32571,-133.333333333333,4,2,2,80,0,0
32727,-133.333333333333,4,2,2,80,0,0
42519,-100,4,1,1,80,0,0
51846,-66.6666666666667,4,1,1,80,0,0
52312,-100,4,1,1,80,0,0
52467,-100,4,1,1,80,0,1
78581,-100,4,2,1,80,0,0
79825,-100,4,1,1,80,0,0

[HitObjects]
96,72,240,5,0,0:0:0:0:
96,72,395,1,0,0:0:0:0:
96,72,550,2,0,P|100:104|116:140,1,63.7500024318696,0|0,0:0|0:0,0:0:0:0:
184,132,861,2,0,P|184:180|172:208,1,63.7500024318696
108,208,1172,1,0,0:0:0:0:
108,208,1328,6,0,L|40:228,1,63.7500024318696
148,272,1638,2,0,L|80:292,1,63.7500024318696
220,300,1949,2,0,L|288:320,1,63.7500024318696
180,364,2260,2,0,L|248:384,2,63.7500024318696,0|0|0,0:0|0:0|0:0,0:0:0:0:
148,272,2727,6,0,P|128:240|120:200,1,63.7500024318696
218,151,3037,2,0,P|209:181|192:208,1,63.7500024318696
120,36,3348,2,0,P|108:92|156:156,1,127.500004863739
280,128,3815,6,0,P|291:66|256:15,1,127.500004863739
204,84,4281,1,0,0:0:0:0:
204,84,4436,2,0,L|356:56,1,127.500004863739
377,208,4903,2,0,L|300:224,1,63.7500024318696
260,316,5214,5,0,0:0:0:0:
292,312,5369,1,0,0:0:0:0:
324,308,5524,1,0,0:0:0:0:
356,304,5680,1,0,0:0:0:0:
376,208,5835,5,0,0:0:0:0:
408,204,5991,1,0,0:0:0:0:
440,200,6146,1,0,0:0:0:0:
472,196,6302,1,0,0:0:0:0:
304,164,6457,5,0,0:0:0:0:
280,160,6613,1,0,0:0:0:0:
256,156,6768,1,0,0:0:0:0:
232,152,6923,1,0,0:0:0:0:
160,52,7079,2,0,L|232:64,2,63.7500024318696,0|0|0,0:0|0:0|0:0,0:0:0:0:
88,40,7545,1,0,0:0:0:0:
256,192,7701,12,2,10188,0:0:0:0:
368,216,10499,6,0,P|384:164|380:128,1,63.7500024318696,2|0,0:0|0:0,0:0:0:0:
300,108,10809,2,0,P|304:148|320:176,1,63.7500024318696
408,272,11120,1,2,0:0:0:0:
408,272,11276,6,0,P|360:240|280:248,1,127.500004863739
248,296,11742,1,2,0:0:0:0:
248,296,11898,2,0,L|172:272,1,63.7500024318696
140,328,12208,2,0,L|64:304,1,63.7500024318696,0|2,0:0|0:0,0:0:0:0:
16,280,12519,1,0,0:0:0:0:
44,144,12675,6,0,P|72:184|80:224,1,63.7500024318696
132,244,12986,1,2,0:0:0:0:
200,240,13141,1,0,0:0:0:0:
264,216,13296,2,0,L|328:184,1,63.7500024318696
380,148,13607,1,2,0:0:0:0:
340,88,13763,6,0,P|324:60|316:20,1,63.7500024318696
452,148,14074,2,0,P|444:117|428:89,1,63.7500024318696,0|2,0:0|0:0,0:0:0:0:
356,264,14385,2,0,P|340:236|332:196,1,63.7500024318696
512,340,14695,2,0,P|504:309|488:281,1,63.7500024318696,0|2,0:0|0:0,0:0:0:0:
424,256,15006,1,0,0:0:0:0:
356,264,15162,6,0,L|264:272,1,63.7500024318696,2|0,0:0|0:0,0:0:0:0:
224,276,15473,1,2,0:0:0:0:
224,276,15628,1,0,0:0:0:0:
120,192,15784,2,0,L|212:200,1,63.7500024318696
252,204,16094,1,2,0:0:0:0:
252,204,16250,6,0,P|264:156|220:80,1,127.500004863739,0|0,0:0|0:0,0:0:0:0:
104,88,16716,1,2,0:0:0:0:
231,88,16872,2,0,L|300:88,1,63.7500024318696
415,159,17183,2,0,L|352:160,2,63.7500024318696,0|2|0,0:0|0:0|0:0,0:0:0:0:
488,160,17649,5,0,0:0:0:0:
488,184,17804,1,0,0:0:0:0:
440,248,17960,1,2,0:0:0:0:
440,272,18115,1,0,0:0:0:0:
348,216,18271,1,0,0:0:0:0:
348,240,18426,1,0,0:0:0:0:
300,304,18581,1,2,0:0:0:0:
300,328,18737,1,0,0:0:0:0:
228,268,18892,6,0,P|188:192|144:296,1,255
200,340,20136,1,0,0:0:0:0:
256,192,20291,12,0,22312,0:0:0:0:
312,116,22623,6,0,L|412:124,1,85,4|0,0:0|0:0,0:0:0:0:
256,192,22934,2,0,L|171:185,1,85,8|0,0:0|0:0,0:0:0:0:
276,280,23245,2,0,P|328:288|400:208,1,170,0|8,0:0|0:0,0:0:0:0:
248,104,23711,1,0,0:0:0:0:
296,184,23866,6,0,L|352:260,1,85
496,344,24177,2,0,L|445:275,1,85,8|0,0:0|0:0,0:0:0:0:
280,292,24488,2,0,B|328:368|328:368|284:352|248:372,1,170,0|8,0:0|0:0,0:0:0:0:
160,348,24955,1,0,0:0:0:0:
272,272,25110,6,0,P|328:272|372:248,1,85
368,252,25343,1,0,0:0:0:0:
380,240,25421,1,0,0:0:0:0:
388,228,25499,1,0,0:0:0:0:
396,212,25576,1,0,0:0:0:0:
400,196,25654,1,0,0:0:0:0:
440,180,25732,6,0,P|454:140|447:99,1,85
244,96,26043,2,0,P|236:137|251:176,1,85,8|0,0:0|0:0,0:0:0:0:
356,104,26353,5,0,0:0:0:0:
356,196,26509,1,0,0:0:0:0:
284,252,26664,1,8,0:0:0:0:
284,344,26820,1,0,0:0:0:0:
204,296,26975,2,0,P|156:288|104:308,1,85
372,296,27286,6,0,P|436:296|488:200,1,170,8|0,0:0|0:0,0:0:0:0:
456,128,27752,1,0,0:0:0:0:
368,92,27908,2,0,P|332:136|336:184,1,85,8|0,0:0|0:0,0:0:0:0:
284,344,28219,2,0,P|288:296|256:244,1,85
220,184,28530,1,8,0:0:0:0:
320,288,28685,6,0,P|380:296|420:200,1,170
332,204,29151,2,0,L|240:180,1,85,8|0,0:0|0:0,0:0:0:0:
88,248,29462,2,0,B|180:272|180:272|200:304|176:352,1,170,0|8,0:0|0:0,0:0:0:0:
16,252,29929,6,0,P|28:208|72:176,1,85
72,176,30162,1,0,0:0:0:0:
88,176,30239,1,0,0:0:0:0:
104,176,30317,1,0,0:0:0:0:
120,176,30395,1,0,0:0:0:0:
136,176,30473,1,0,0:0:0:0:
172,152,30550,6,0,L|254:171,1,85,0|8,0:0|0:0,0:0:0:0:
328,332,30861,2,0,L|228:308,1,85,0|8,0:0|0:0,0:0:0:0:
340,236,31172,6,0,P|408:232|440:132,1,170
384,76,31638,1,8,0:0:0:0:
292,68,31794,1,0,0:0:0:0:
220,128,31949,1,0,0:0:0:0:
192,216,32105,1,0,0:0:0:0:
144,296,32260,1,8,0:0:0:0:
52,316,32416,1,0,0:0:0:0:
4,232,32571,6,0,P|4:160|96:232,1,255.000009727478,6|0,0:0|0:0,0:0:0:0:
144,296,33348,2,0,P|192:332|280:324,1,127.500004863739,0|0,0:0|0:0,0:0:0:0:
280,248,33815,6,0,P|232:256|196:272,1,63.7500024318696,0|0,0:0|0:0,0:0:0:0:
324,372,34126,1,0,0:0:0:0:
324,372,34281,2,0,P|380:356|416:320,1,95.6250036478044
440,340,34592,2,0,P|444:296|460:260,1,63.7500024318696
420,192,34903,1,0,0:0:0:0:
384,112,35058,5,2,0:0:0:0:
188,16,35369,2,0,P|236:56|248:108,1,95.6250036478044
268,108,35680,2,0,P|268:64|280:28,1,63.7500024318696
356,32,35991,1,0,0:0:0:0:
456,120,36146,1,0,0:0:0:0:
352,52,36302,6,0,P|360:92|328:156,1,95.6250036478044
312,156,36613,2,0,P|284:112|276:84,1,63.7500024318696
220,44,36923,1,0,0:0:0:0:
112,124,37079,1,0,0:0:0:0:
216,64,37234,2,0,P|208:108|216:148,1,63.7500024318696,0|0,0:0|0:0,0:0:0:0:
208,304,37545,6,0,P|200:260|160:204,1,95.6250036478044,2|0,0:0|0:0,0:0:0:0:
144,204,37856,2,0,P|120:172|108:128,1,63.7500024318696
244,96,38167,2,0,P|248:56|237:12,1,63.7500024318696
96,24,38478,1,0,0:0:0:0:
216,36,38633,1,0,0:0:0:0:
76,48,38789,6,0,P|40:68|12:128,1,95.6250036478044
28,144,39100,2,0,P|48:188|48:228,1,63.7500024318696
92,328,39410,2,0,L|121:315,3,31.8750012159348,0|0|0|0,0:0|0:0|0:0|0:0,0:0:0:0:
60,312,39721,2,0,L|24:328,3,31.8750012159348,0|0|0|0,0:0|0:0|0:0|0:0,0:0:0:0:
48,276,40032,6,0,P|48:232|72:172,1,95.6250036478044,2|0,0:0|0:0,0:0:0:0:
88,164,40343,2,0,P|112:128|120:92,1,63.7500024318696
280,40,40654,1,0,0:0:0:0:
280,40,40809,2,0,P|208:56|192:124,1,127.500004863739
240,200,41276,5,0,0:0:0:0:
240,200,41431,2,0,P|256:168|252:120,1,63.7500024318696
332,288,41742,2,0,P|316:256|320:208,1,63.7500024318696
240,360,42053,2,0,P|256:328|252:280,1,63.7500024318696
152,204,42364,5,0,0:0:0:0:
152,204,42442,1,0,0:0:0:0:
152,204,42519,1,4,0:0:0:0:
68,220,42675,1,0,0:0:0:0:
188,220,42830,2,0,P|236:220|280:228,1,85,8|0,0:0|0:0,0:0:0:0:
352,124,43141,1,0,0:0:0:0:
436,140,43296,1,0,0:0:0:0:
316,140,43452,2,0,P|268:140|224:148,1,85,8|0,0:0|0:0,0:0:0:0:
364,228,43763,6,0,P|428:228|472:216,2,85,0|0|8,0:0|0:0|0:0,0:0:0:0:
252,288,44229,2,0,P|188:288|144:300,2,85,0|0|0,0:0|0:0|0:0,0:0:0:0:
332,320,44695,1,8,0:0:0:0:
332,320,44851,1,0,0:0:0:0:
268,188,45006,5,4,0:0:0:0:
268,164,45162,1,0,0:0:0:0:
316,100,45317,1,8,0:0:0:0:
316,76,45473,1,0,0:0:0:0:
408,132,45628,1,0,0:0:0:0:
408,108,45784,1,0,0:0:0:0:
456,44,45939,1,8,0:0:0:0:
456,20,46094,1,0,0:0:0:0:
492,144,46250,6,0,P|488:196|472:236,2,85,0|0|8,0:0|0:0|0:0,0:0:0:0:
336,104,46716,2,0,P|340:52|356:12,2,85,0|0|0,0:0|0:0|0:0,0:0:0:0:
404,156,47183,1,8,0:0:0:0:
404,156,47338,1,0,0:0:0:0:
336,204,47493,5,4,0:0:0:0:
252,200,47649,1,0,0:0:0:0:
168,208,47804,2,0,P|116:212|64:228,1,85,8|0,0:0|0:0,0:0:0:0:
240,168,48115,1,0,0:0:0:0:
314,129,48271,1,0,0:0:0:0:
383,80,48426,2,0,P|426:50|463:10,1,85,8|0,0:0|0:0,0:0:0:0:
416,192,48737,6,0,L|416:296,1,85
304,264,49048,2,0,L|304:368,1,85,8|0,0:0|0:0,0:0:0:0:
192,277,49359,2,0,L|192:192,1,85
80,264,49670,2,0,L|80:368,1,85,8|0,0:0|0:0,0:0:0:0:
28,208,49980,5,0,0:0:0:0:
152,232,50136,1,0,0:0:0:0:
168,236,50214,1,0,0:0:0:0:
184,240,50291,2,0,P|232:252|280:252,1,85,8|0,0:0|0:0,0:0:0:0:
360,260,50602,1,8,0:0:0:0:
328,136,50758,1,0,0:0:0:0:
384,280,50913,2,0,P|412:320|432:368,1,85,8|0,0:0|0:0,0:0:0:0:
256,356,51224,6,0,L|224:320,1,42.5
228,280,51379,2,0,L|260:244,1,42.5,0|0,0:0|0:0,0:0:0:0:
256,204,51535,2,0,L|224:168,1,42.5
228,128,51690,2,0,L|260:92,1,42.5,0|0,0:0|0:0,0:0:0:0:
288,60,51846,6,0,B|340:92|340:92|428:80,1,127.5
164,40,52312,6,0,P|124:88|16:72,1,170,4|0,0:0|0:0,0:0:0:0:
180,64,52778,2,0,L|264:64,1,85,8|0,0:0|0:0,0:0:0:0:
408,148,53089,2,0,L|316:148,1,85
180,304,53400,1,8,0:0:0:0:
180,304,53556,6,0,P|232:296|260:188,1,170
140,160,54022,2,0,P|116:200|132:256,1,85,8|0,0:0|0:0,0:0:0:0:
180,304,54333,1,0,0:0:0:0:
36,264,54488,1,0,0:0:0:0:
204,288,54644,1,8,0:0:0:0:
120,328,54799,6,0,B|64:356|-8:336|-8:336|20:352|32:380,1,170,4|0,0:0|0:0,0:0:0:0:
204,288,55265,2,0,P|240:264|268:224,1,85,8|0,0:0|0:0,0:0:0:0:
352,64,55576,2,0,B|312:104|308:148|308:148|328:144|344:152,1,127.5
360,148,55887,1,8,0:0:0:0:
232,168,56043,6,0,P|184:176|136:200,1,85
132,200,56276,2,0,P|96:224|84:236,1,42.5
0,292,56509,1,8,0:0:0:0:
0,292,56664,2,0,P|24:272|44:248,1,42.5
12,220,56820,2,0,P|44:180|88:148,1,85
244,68,57131,1,8,0:0:0:0:
96,160,57286,6,0,P|48:108|84:20,1,170,4|0,0:0|0:0,0:0:0:0:
244,68,57752,1,8,0:0:0:0:
116,44,57908,1,0,0:0:0:0:
244,140,58063,2,0,P|264:184|259:232,1,85
140,288,58374,1,8,0:0:0:0:
240,244,58530,1,0,0:0:0:0:
124,360,58685,6,0,P|84:336|64:288,1,85
52,208,58996,1,8,0:0:0:0:
64,116,59151,1,0,0:0:0:0:
104,40,59307,2,0,P|136:80|176:104,1,85
336,176,59618,1,8,0:0:0:0:
152,80,59773,6,0,B|108:52|12:48|12:48|52:32|52:16,1,170,4|0,0:0|0:0,0:0:0:0:
228,124,60239,2,0,P|272:152|308:192,1,85,8|0,0:0|0:0,0:0:0:0:
428,300,60550,2,0,P|384:272|348:232,1,85
256,120,60861,1,8,0:0:0:0:
352,272,61017,6,0,B|380:312|392:364|392:364|424:344|480:352,1,170
496,260,61405,2,0,L|496:208,1,42.5,0|8,0:0|0:0,0:0:0:0:
420,204,61561,2,0,L|420:246,2,42.5,0|0|0,0:0|0:0|0:0,0:0:0:0:
348,180,61794,1,8,0:0:0:0:
328,152,61872,1,0,0:0:0:0:
300,132,61949,1,0,0:0:0:0:
268,124,62027,1,0,0:0:0:0:
232,124,62105,1,8,0:0:0:0:
160,292,62260,6,0,P|216:296|276:200,1,170,4|0,0:0|0:0,0:0:0:0:
152,136,62727,2,0,P|120:176|116:236,1,85,8|0,0:0|0:0,0:0:0:0:
240,356,63037,2,0,P|264:300|180:212,1,170,0|8,0:0|0:0,0:0:0:0:
32,80,63504,6,0,P|8:136|92:224,1,170,0|0,0:0|0:0,0:0:0:0:
160,292,63970,2,0,P|184:248|192:188,1,85,8|0,0:0|0:0,0:0:0:0:
232,120,64281,1,0,0:0:0:0:
76,92,64436,1,0,0:0:0:0:
260,104,64592,1,8,0:0:0:0:
172,128,64747,6,0,B|176:184|136:264|136:264|156:236|180:240,1,170,4|0,0:0|0:0,0:0:0:0:
260,104,65214,2,0,P|260:52|244:4,1,85,8|0,0:0|0:0,0:0:0:0:
196,208,65524,2,0,B|196:260|216:304|216:304|192:296|160:304,1,127.5
160,296,65835,1,8,0:0:0:0:
344,328,65991,6,0,P|396:332|444:352,1,85,0|0,0:0|0:0,0:0:0:0:
448,352,66224,1,0,0:0:0:0:
468,360,66302,1,0,0:0:0:0:
276,324,66457,1,8,0:0:0:0:
256,324,66535,1,0,0:0:0:0:
236,328,66613,1,0,0:0:0:0:
144,352,66768,5,0,0:0:0:0:
32,208,66923,1,0,0:0:0:0:
168,64,67079,1,8,0:0:0:0:
32,208,67234,6,0,P|92:216|132:112,1,170,4|0,0:0|0:0,0:0:0:0:
88,52,67701,1,8,0:0:0:0:
52,140,67856,1,0,0:0:0:0:
24,288,68012,6,0,P|68:308|100:340,1,85
279,368,68322,2,0,P|318:350|350:323,1,85,8|0,0:0|0:0,0:0:0:0:
236,284,68633,1,0,0:0:0:0:
288,204,68789,1,0,0:0:0:0:
380,180,68944,1,8,0:0:0:0:
472,200,69100,1,0,0:0:0:0:
480,348,69255,6,0,P|424:360|372:348,1,85
308,324,69566,1,8,0:0:0:0:
508,328,69721,6,0,B|528:308|536:280|536:280|456:300|412:252,1,170,4|0,0:0|0:0,0:0:0:0:
296,168,70188,2,0,P|328:200|376:228,1,85,8|0,0:0|0:0,0:0:0:0:
236,112,70499,2,0,P|204:76|180:24,1,85
392,32,70809,5,8,0:0:0:0:
296,168,70965,1,0,0:0:0:0:
16,272,71276,1,0,0:0:0:0:
96,136,71431,2,0,L|72:192,1,42.5
88,248,71587,2,0,L|104:300,1,42.5
124,356,71742,5,0,0:0:0:0:
140,328,71820,1,0,0:0:0:0:
168,308,71898,1,0,0:0:0:0:
200,296,71975,1,0,0:0:0:0:
232,292,72053,1,0,0:0:0:0:
264,296,72131,1,0,0:0:0:0:
296,308,72208,6,0,P|356:332|476:312,1,170,4|0,0:0|0:0,0:0:0:0:
328,76,72675,2,0,P|274:140|257:223,1,170,8|0,0:0|0:0,0:0:0:0:
352,228,73141,2,0,P|412:224|448:212,1,85,0|8,0:0|0:0,0:0:0:0:
256,176,73452,6,0,P|214:165|172:165,2,85,0|0|0,0:0|0:0|0:0,0:0:0:0:
288,264,73918,1,8,0:0:0:0:
356,200,74074,1,0,0:0:0:0:
316,116,74229,2,0,P|264:104|216:108,1,85
104,148,74540,1,8,0:0:0:0:
296,92,74695,6,0,B|364:92|420:56|420:56|408:76|408:108,1,170,4|0,0:0|0:0,0:0:0:0:
512,269,75162,2,0,B|444:269|388:305|388:305|400:285|400:268,1,170,8|0,0:0|0:0,0:0:0:0:
344,192,75628,2,0,P|280:188|240:196,1,85,0|8,0:0|0:0,0:0:0:0:
60,176,75939,5,0,0:0:0:0:
60,176,76017,1,0,0:0:0:0:
60,176,76094,2,0,P|124:172|172:184,1,85,0|0,0:0|0:0,0:0:0:0:
256,248,76405,1,8,0:0:0:0:
452,176,76561,2,0,P|388:172|340:184,2,85,0|0|0,0:0|0:0|0:0,0:0:0:0:
408,348,77027,1,8,0:0:0:0:
256,248,77183,6,0,P|224:196|272:100,1,170,4|0,0:0|0:0,0:0:0:0:
352,64,77649,1,8,0:0:0:0:
352,64,77804,1,0,0:0:0:0:
208,136,77960,2,0,P|144:160|100:156,1,85,0|0,0:0|0:0,0:0:0:0:
36,156,78271,1,8,0:0:0:0:
232,160,78426,1,4,0:0:0:0:
256,192,78504,12,0,79514,0:0:0:0:
392,260,79825,6,0,L|296:288,1,85,4|0,0:0|0:0,0:0:0:0:
220,312,80136,1,8,0:0:0:0:
132,336,80291,1,0,0:0:0:0:
304,264,80447,2,0,P|344:216|296:112,1,170,0|8,0:0|0:0,0:0:0:0:
256,48,80913,1,0,0:0:0:0:
168,84,81069,6,0,L|60:124,1,85
48,292,81379,2,0,L|156:252,1,85,8|0,0:0|0:0,0:0:0:0:
268,144,81690,2,0,P|340:140|412:200,1,170,0|8,0:0|0:0,0:0:0:0:
364,352,82157,1,0,0:0:0:0:
364,352,82312,6,0,P|324:308|304:256,1,85,4|0,0:0|0:0,0:0:0:0:
308,268,82545,1,0,0:0:0:0:
304,252,82623,1,0,0:0:0:0:
300,236,82701,1,0,0:0:0:0:
300,220,82778,1,0,0:0:0:0:
328,52,82934,2,0,P|276:128|176:112,1,170,0|8,0:0|0:0,0:0:0:0:
128,76,83400,1,0,0:0:0:0:
36,96,83556,6,0,P|24:144|24:192,1,85
40,272,83866,1,8,0:0:0:0:
112,332,84022,1,0,0:0:0:0:
140,320,84100,1,0,0:0:0:0:
164,304,84177,2,0,P|200:272|216:236,1,85
168,96,84488,2,0,P|180:48|216:12,1,85,8|0,0:0|0:0,0:0:0:0:
420,68,84799,5,4,0:0:0:0:
420,68,84955,1,0,0:0:0:0:
332,104,85110,2,0,P|268:100|232:76,1,85,8|0,0:0|0:0,0:0:0:0:
64,51,85421,5,0,0:0:0:0:
64,51,85576,1,0,0:0:0:0:
152,88,85732,2,0,P|194:136|202:178,1,85,8|0,0:0|0:0,0:0:0:0:
324,304,86043,5,0,0:0:0:0:
324,304,86198,1,0,0:0:0:0:
288,216,86353,2,0,P|292:152|316:116,1,85,8|0,0:0|0:0,0:0:0:0:
464,192,86664,2,0,L|376:192,1,85
167,304,86975,2,0,L|252:304,1,85,8|0,0:0|0:0,0:0:0:0:
328,128,87286,5,4,0:0:0:0:
328,128,87442,1,0,0:0:0:0:
240,92,87597,2,0,P|176:96|140:120,1,85,8|0,0:0|0:0,0:0:0:0:
72,140,87908,1,0,0:0:0:0:
184,224,88063,1,0,0:0:0:0:
4,168,88219,1,8,0:0:0:0:
144,196,88374,6,0,P|196:212|236:204,1,85
256,192,88607,1,0,0:0:0:0:
280,168,88685,1,0,0:0:0:0:
400,88,88841,1,8,0:0:0:0:
432,72,88918,1,0,0:0:0:0:
464,64,88996,1,0,0:0:0:0:
428,260,89151,5,0,0:0:0:0:
428,260,89229,1,0,0:0:0:0:
428,260,89307,1,0,0:0:0:0:
328,312,89462,1,0,0:0:0:0:
328,104,89618,1,8,0:0:0:0:
