osu file format v14

[General]
AudioFilename: monokuro.mp3
AudioLeadIn: 1500
PreviewTime: 54331
Countdown: 0
SampleSet: Soft
StackLeniency: 0.7
Mode: 0
LetterboxInBreaks: 0
WidescreenStoryboard: 0

[Editor]
DistanceSpacing: 0.9
BeatDivisor: 4
GridSize: 8
TimelineZoom: 2.5

[Metadata]
Title:Ame, Kimi o Tsurete
TitleUnicode:雨、キミを連れて
Artist:EGOIST
ArtistUnicode:EGOIST
Creator:monstrata
Version:Prismatic
Source:
Tags:ryo supercell chelly guilty crown inori yuzuriha shu ouma extra terrestrial biological entities milan- ギルティクラウン
BeatmapID:764441
BeatmapSetID:346301

[Difficulty]
HPDrainRate:7
CircleSize:4
OverallDifficulty:8.7
ApproachRate:9.1
SliderMultiplier:1.7
SliderTickRate:1

[Events]
//Background and Video events
0,0,"guiltycrown.jpg",0,0
//Break Periods
//Storyboard Layer 0 (Background)
//Storyboard Layer 1 (Fail)
//Storyboard Layer 2 (Pass)
//Storyboard Layer 3 (Foreground)
//Storyboard Sound Samples

[TimingPoints]
561,326.086956521739,4,2,1,50,1,0
561,-133.333333333333,4,2,1,50,0,0
2843,-133.333333333333,4,2,1,35,0,0
3169,-133.333333333333,4,2,1,50,0,0
5452,-133.333333333333,4,2,1,35,0,0
5778,-133.333333333333,4,2,1,55,0,0
8060,-133.333333333333,4,2,1,35,0,0
8387,-133.333333333333,4,2,1,55,0,0
10669,-133.333333333333,4,2,1,65,0,0
10995,-100,4,2,1,50,0,0
12137,-100,4,2,1,35,0,0
12300,-100,4,2,1,50,0,0
13115,-100,4,2,1,35,0,0
13278,-100,4,2,1,50,0,0
14745,-100,4,2,1,35,0,0
14908,-100,4,2,1,50,0,0
15071,-100,4,2,1,35,0,0
15234,-100,4,2,1,50,0,0
15724,-100,4,2,1,35,0,0
15887,-100,4,2,1,50,0,0
18658,-100,4,2,1,35,0,0
18821,-100,4,2,1,50,0,0
19963,-100,4,2,1,35,0,0
20126,-100,4,2,1,50,0,0
22571,-100,4,2,1,35,0,0
22734,-100,4,2,1,50,0,0
23550,-100,4,2,1,35,0,0
23713,-100,4,2,1,50,0,0
23876,-100,4,2,1,35,0,0
24039,-100,4,2,1,50,0,0
25180,-100,4,2,1,35,0,0
25343,-100,4,2,1,50,0,0
25506,-100,4,2,1,35,0,0
25669,-100,4,2,1,50,0,0
26158,-100,4,2,1,35,0,0
26647,-100,4,2,1,50,0,0
27789,-100,4,2,1,35,0,0
27952,-100,4,2,1,50,0,0
28115,-100,4,2,1,35,0,0
28278,-100,4,2,1,50,0,0
29093,-100,4,2,1,35,0,0
29256,-100,4,2,1,50,0,0
30397,-100,4,2,1,35,0,0
30560,-100,4,2,1,50,0,0
33006,-100,4,2,1,35,0,0
33169,-100,4,2,1,50,0,0
34310,-100,4,2,1,35,0,0
34474,-100,4,2,1,50,0,0
35615,-100,4,2,1,35,0,0
35778,-100,4,2,1,50,0,0
36593,-100,4,2,1,35,0,0
36756,-100,4,2,1,50,0,0
36919,-100,4,2,1,35,0,0
37082,-100,4,2,1,50,0,0
38224,-100,4,2,1,35,0,0
38387,-100,4,2,1,50,0,0
39528,-100,4,2,1,35,0,0
39691,-100,4,2,1,50,0,0
40832,-100,4,2,1,35,0,0
40995,-100,4,2,1,50,0,0
41158,-100,4,2,1,45,0,0
41321,-100,4,2,1,50,0,0
41647,-100,4,1,1,60,0,0
41810,-100,4,2,1,50,0,0
42789,-100,4,2,1,35,0,0
42952,-100,4,2,1,50,0,0
43441,-100,4,2,1,35,0,0
43930,-100,4,2,1,50,0,0
45397,-100,4,2,1,35,0,0
45560,-100,4,2,1,50,0,0
48006,-100,4,2,1,35,0,0
48169,-100,4,2,1,50,0,0
48658,-100,4,2,1,35,0,0
48821,-100,4,2,1,50,0,0
50615,-100,4,2,1,35,0,0
50778,-100,4,2,1,50,0,0
52734,-133.333333333333,4,2,1,50,0,0
54039,-100,4,1,1,50,0,0
55343,-100,4,1,1,50,0,1
65696,-100,4,1,1,50,0,0
65778,-100,4,1,1,50,0,1
70982,326.086956521739,4,1,1,50,1,1
76117,-100,4,1,1,50,0,0
76199,-100,4,1,1,50,0,1
86552,-100,4,1,1,50,0,0
86634,-100,4,1,1,50,0,1
96742,-100,4,1,1,70,0,0

[Colours]
Combo1 : 128,128,128
Combo2 : 128,255,255
Combo3 : 187,119,255
Combo4 : 248,164,61
Combo5 : 255,155,255
Combo6 : 213,213,213

[HitObjects]
285,334,561,70,0,L|374:354,2,63.7500024318696,2|0|0,0:0|0:0|0:0,0:0:0:0:
216,287,1050,2,0,L|127:307,2,63.7500024318696,2|0|0,0:0|0:0|0:0,0:0:0:0:
292,251,1539,2,0,L|381:271,2,63.7500024318696,2|0|0,0:0|0:0|0:0,0:0:0:0:
223,204,2028,2,0,L|134:224,2,63.7500024318696,2|0|0,0:0|0:0|0:0,0:0:0:0:
386,120,2517,5,2,0:0:0:0:
327,183,2680,1,0,0:0:0:0:
412,202,2843,1,2,0:0:0:0:
229,120,3169,70,0,P|217:90|219:58,2,63.7500024318696,2|0|0,0:0|0:0|0:0,0:0:0:0:
312,137,3658,2,0,P|330:111|337:80,2,63.7500024318696,2|0|0,0:0|0:0|0:0,0:0:0:0:
188,194,4147,2,0,P|163:174|149:145,2,63.7500024318696,2|0|0,0:0|0:0|0:0,0:0:0:0:
321,221,4637,2,0,P|353:210|382:184,2,63.7500024318696,2|0|0,0:0|0:0|0:0,0:0:0:0:
182,311,5126,5,2,0:0:0:0:
243,255,5289,1,0,0:0:0:0:
277,333,5452,1,2,0:0:0:0:
70,187,5778,70,0,L|-6:169,2,63.7500024318696,2|0|0,0:0|0:0|0:0,0:0:0:0:
182,114,6267,2,0,L|124:60,2,63.7500024318696,2|0|0,0:0|0:0|0:0,0:0:0:0:
315,106,6756,2,0,L|292:30,2,63.7500024318696,2|0|0,0:0|0:0|0:0,0:0:0:0:
434,165,7245,2,0,L|451:88,2,63.7500024318696,2|0|0,0:0|0:0|0:0,0:0:0:0:
331,272,7734,5,2,0:0:0:0:
352,189,7897,1,0,0:0:0:0:
392,331,8060,2,0,P|358:352|314:356,1,63.7500024318696,2|0,0:0|0:0,0:0:0:0:
213,282,8387,70,0,P|248:300|273:337,2,63.7500024318696,2|0|0,0:0|0:0|0:0,0:0:0:0:
257,154,8876,2,0,P|268:184|268:216,2,63.7500024318696,2|0|0,0:0|0:0|0:0,0:0:0:0:
378,95,9365,2,0,P|364:123|341:145,2,63.7500024318696,2|0|0,0:0|0:0|0:0,0:0:0:0:
504,138,9854,2,0,P|474:148|442:148,2,63.7500024318696,2|0|0,0:0|0:0|0:0,0:0:0:0:
438,279,10343,5,2,0:0:0:0:
391,206,10506,1,0,0:0:0:0:
398,353,10669,2,0,L|474:362,1,63.7500024318696,2|0,0:0|0:0,0:0:0:0:
304,210,10995,70,0,L|183:195,1,85,6|0,0:0|0:0,0:0:0:0:
166,267,11321,1,2,0:3:0:0:
337,288,11484,2,0,P|380:247|388:199,1,85,2|0,0:0|0:0,0:0:0:0:
356,143,11810,1,2,0:3:0:0:
252,277,11974,6,0,P|266:334|303:365,1,85,2|4,0:0|0:3,0:0:0:0:
337,288,12300,1,2,0:3:0:0:
219,199,12463,2,0,L|128:188,1,85,2|0,0:0|0:0,0:0:0:0:
166,267,12789,1,2,0:3:0:0:
304,210,12952,1,2,0:0:0:0:
252,277,13115,1,4,0:3:0:0:
188,123,13278,2,0,L|152:38,1,85,2|0,0:0|0:3,0:0:0:0:
356,143,13604,70,0,L|447:154,1,85,2|0,0:2|0:0,0:0:0:0:
407,75,13930,1,2,0:3:0:0:
304,210,14093,2,0,L|248:283,1,85,2|0,0:0|0:0,0:0:0:0:
219,199,14419,1,2,0:3:0:0:
337,288,14582,6,0,L|372:372,1,85,2|4,0:0|0:3,0:0:0:0:
420,298,14908,1,2,0:3:0:0:
285,355,15071,2,0,L|200:344,1,85,4|0,0:3|0:0,0:0:0:0:
166,267,15397,1,2,0:3:0:0:
304,210,15560,1,2,0:2:0:0:
252,277,15724,1,4,0:3:0:0:
186,122,15887,1,2,0:0:0:0:
219,199,16050,1,0,0:0:0:0:
322,64,16213,70,0,P|364:57|404:72,1,85,4|0,0:2|0:0,0:0:0:0:
389,220,16539,1,2,0:3:0:0:
271,132,16702,2,0,P|230:117|171:130,1,85,2|0,0:0|0:0,0:0:0:0:
252,277,17028,1,2,0:3:0:0:
356,143,17191,5,2,0:0:0:0:
219,199,17354,1,4,0:3:0:0:
285,355,17517,1,2,0:3:0:0:
304,210,17680,1,2,0:2:0:0:
168,267,17843,1,0,0:0:0:0:
188,123,18006,1,2,0:3:0:0:
252,277,18169,1,2,0:2:0:0:
356,143,18332,1,0,0:0:0:0:
219,199,18495,1,2,0:0:0:0:
337,288,18658,1,4,0:3:0:0:
271,131,18821,70,0,L|228:35,1,85,4|0,0:2|0:0,0:0:0:0:
188,123,19147,1,2,0:3:0:0:
356,143,19310,2,0,L|460:155,1,85,2|0,0:0|0:0,0:0:0:0:
322,64,19637,1,2,0:3:0:0:
219,199,19800,5,2,0:2:0:0:
320,329,19963,1,4,0:3:0:0:
304,210,20126,1,2,0:3:0:0:
242,361,20289,1,2,0:0:0:0:
371,262,20452,1,0,0:0:0:0:
253,278,20615,1,2,0:3:0:0:
403,339,20778,1,2,0:0:0:0:
382,177,20941,1,8,0:3:0:0:
382,177,21022,1,2,0:2:0:0:
382,177,21104,1,8,0:3:0:0:
320,329,21267,1,2,0:2:0:0:
455,271,21430,70,0,L|356:260,1,85,4|0,0:2|0:0,0:0:0:0:
219,199,21756,1,8,0:0:0:0:
304,210,21919,1,0,0:0:0:0:
166,267,22082,2,0,L|67:256,1,85,2|0,0:0|0:0,0:0:0:0:
134,188,22408,1,8,0:0:0:0:
253,278,22571,1,4,0:3:0:0:
270,290,22653,1,0,0:0:0:0:
287,303,22734,5,2,0:2:0:0:
382,177,22897,1,4,0:3:0:0:
304,210,23060,1,8,0:0:0:0:
403,339,23224,2,0,P|441:308|455:265,1,85,2|2,0:3|0:2,0:0:0:0:
434,108,23550,1,4,0:3:0:0:
371,262,23713,1,8,0:0:0:0:
467,188,23876,1,4,0:3:0:0:
314,125,24039,70,0,P|268:132|227:174,1,85,2|0,0:2|0:0,0:0:0:0:
382,177,24365,1,8,0:0:0:0:
365,56,24528,1,0,0:0:0:0:
304,210,24691,2,0,P|333:246|389:260,1,85,2|0,0:0|0:0,0:0:0:0:
434,108,25017,1,8,0:0:0:0:
279,46,25180,1,4,0:3:0:0:
382,177,25343,6,0,L|498:192,1,85,2|4,0:0|3:0,0:0:0:0:
444,22,25669,1,8,0:0:0:0:
314,125,25832,2,0,L|299:241,1,85,2|2,0:3|0:2,0:0:0:0:
320,329,26158,1,4,0:3:0:0:
371,262,26321,1,8,0:0:0:0:
253,278,26484,1,4,0:3:0:0:
403,339,26647,70,0,L|498:351,1,85,2|0,0:0|0:0,0:0:0:0:
303,209,26974,2,0,L|398:197,1,85,8|2,0:0|0:2,0:0:0:0:
157,350,27300,2,0,L|252:362,1,85,2|0,0:0|0:0,0:0:0:0:
57,220,27626,1,8,0:0:0:0:
141,209,27789,1,4,0:3:0:0:
141,209,27870,1,0,0:0:0:0:
141,209,27952,6,0,P|125:272|96:297,1,85,2|4,0:2|0:3,0:0:0:0:
89,141,28278,1,8,0:0:0:0:
209,156,28441,2,0,L|317:170,1,85,2|0,0:2|0:2,0:0:0:0:
154,292,28767,1,2,0:2:0:0:
221,240,28930,1,10,0:0:0:0:
273,307,29093,1,4,0:3:0:0:
141,209,29256,69,2,0:2:0:0:
305,228,29419,2,0,P|345:265|356:323,2,85,2|8|2,0:2|0:0|0:2,0:0:0:0:
154,292,29908,1,2,0:3:0:0:
273,307,30071,1,0,0:0:0:0:
221,240,30234,1,8,0:0:0:0:
206,359,30397,1,4,0:3:0:0:
305,228,30560,5,2,0:2:0:0:
154,292,30724,1,2,0:2:0:0:
209,156,30887,2,0,L|317:141,1,85,8|0,0:0|0:0,0:0:0:0:
406,258,31213,1,2,0:2:0:0:
374,179,31376,1,0,0:0:0:0:
374,179,31457,1,0,0:0:0:0:
374,179,31539,1,8,0:0:0:0:
305,228,31702,1,0,0:0:0:0:
438,337,31865,70,0,P|476:354|528:346,1,85,4|0,0:2|0:0,0:0:0:0:
490,269,32191,1,8,0:0:0:0:
353,325,32354,1,2,0:2:0:0:
374,179,32517,2,0,L|437:100,1,85,2|0,0:3|0:0,0:0:0:0:
406,258,32843,1,8,0:0:0:0:
289,167,33006,1,4,0:3:0:0:
352,324,33169,6,0,P|433:338|487:277,1,170,2|8,0:2|0:0,0:0:0:0:
322,247,33658,2,0,L|250:318,1,85,2|2,0:3|0:2,0:0:0:0:
162,236,33984,1,2,0:2:0:0:
177,320,34147,1,8,0:0:0:0:
246,221,34310,1,4,0:3:0:0:
261,206,34392,1,0,0:0:0:0:
276,191,34474,70,0,L|373:217,1,85,2|0,0:2|0:0,0:0:0:0:
426,106,34800,1,8,0:0:0:0:
344,128,34963,1,0,0:0:0:0:
289,319,35126,2,0,L|371:296,1,85,2|0,0:3|0:0,0:0:0:0:
228,259,35452,1,8,0:0:0:0:
206,341,35615,1,4,0:3:0:0:
310,237,35778,6,0,B|373:221|373:221|416:227|440:257|444:287,1,170,2|8,0:2|0:0,0:0:0:0:
289,319,36267,2,0,L|206:341,1,85,2|2,0:3|0:2,0:0:0:0:
168,199,36593,1,4,0:3:0:0:
228,259,36756,1,8,0:0:0:0:
249,177,36919,1,4,0:3:0:0:
254,156,37001,1,0,0:0:0:0:
260,135,37082,70,0,L|343:113,1,85,2|0,0:2|0:0,0:0:0:0:
393,259,37408,1,8,0:0:0:0:
310,237,37571,1,2,0:2:0:0:
206,341,37734,2,0,L|289:319,1,85,2|0,0:3|0:0,0:0:0:0:
168,199,38060,1,8,0:0:0:0:
228,259,38224,1,4,0:3:0:0:
189,117,38387,6,0,B|150:106|150:106|63:119|63:119|22:107,1,170,2|8,0:2|0:0,0:0:0:0:
210,35,38876,2,0,L|293:57,1,85,2|2,0:3|0:2,0:0:0:0:
168,199,39202,1,0,0:0:0:0:
189,117,39365,1,8,0:0:0:0:
272,257,39528,1,4,0:3:0:0:
277,277,39609,1,0,0:0:0:0:
283,297,39691,69,2,0:2:0:0:
330,153,39854,1,2,0:2:0:0:
168,199,40017,2,0,L|61:229,1,85,8|2,0:0|0:2,0:0:0:0:
252,339,40343,1,2,0:3:0:0:
249,176,40506,1,2,0:2:0:0:
353,234,40669,1,8,0:0:0:0:
269,94,40832,1,4,0:3:0:0:
272,257,40995,5,2,0:2:0:0:
411,173,41158,1,4,0:3:0:0:
249,176,41321,1,8,0:0:0:0:
333,316,41484,1,2,0:3:0:0:
351,71,41647,2,0,L|246:100,1,85,4|0,0:2|0:0,0:0:0:0:
190,280,41974,2,0,L|271:257,1,85,2|0,0:3|0:0,0:0:0:0:
493,197,42300,70,0,L|412:174,1,85,6|0,0:2|3:0,0:0:0:0:
249,176,42626,1,8,0:0:0:0:
272,257,42789,1,4,0:3:0:0:
330,153,42952,1,2,0:2:0:0:
353,234,43115,1,0,0:0:0:0:
269,94,43278,1,8,0:0:0:0:
190,236,43441,6,0,P|201:304|301:336,1,170,8|4,0:3|0:3,0:0:0:0:
353,234,43930,1,8,0:0:0:0:
167,155,44093,2,0,L|63:184,1,85,2|0,0:2|0:0,0:0:0:0:
187,74,44419,1,2,0:3:0:0:
272,257,44582,1,8,0:0:0:0:
330,153,44745,1,2,0:2:0:0:
426,275,44908,70,0,L|398:375,1,85,2|0,0:2|0:0,0:0:0:0:
249,175,45234,2,0,L|277:275,1,85,8|4,0:0|0:3,0:0:0:0:
433,91,45560,2,0,L|405:191,1,85,2|0,0:2|0:0,0:0:0:0:
246,12,45887,1,8,0:0:0:0:
269,93,46050,1,0,0:0:0:0:
167,155,46213,5,2,0:3:0:0:
187,74,46376,1,2,0:2:0:0:
249,175,46539,1,8,0:0:0:0:
106,97,46702,2,0,L|-5:70,1,85,2|2,0:3|0:2,0:0:0:0:
126,16,47028,1,2,0:3:0:0:
167,155,47191,1,8,0:0:0:0:
269,93,47354,1,2,0:2:0:0:
310,232,47517,70,0,P|308:285|283:322,1,85,2|0,0:3|0:0,0:0:0:0:
150,281,47843,2,0,P|185:259|228:256,1,85,8|4,0:0|0:3,0:0:0:0:
407,126,48169,2,0,P|371:147|329:151,1,85,2|0,0:3|0:0,0:0:0:0:
284,12,48495,2,0,P|321:32|344:66,1,85,8|4,0:0|0:3,0:0:0:0:
167,155,48821,5,2,0:2:0:0:
269,93,48984,1,2,0:2:0:0:
249,175,49147,1,8,0:0:0:0:
187,74,49310,2,0,P|136:78|100:107,1,85,2|2,0:3|0:2,0:0:0:0:
190,236,49637,1,2,0:3:0:0:
269,93,49800,1,8,0:0:0:0:
167,155,49963,1,2,0:2:0:0:
330,151,50126,70,0,L|427:122,1,85,2|0,0:3|0:0,0:0:0:0:
187,74,50452,2,0,L|113:5,1,85,8|4,0:0|0:3,0:0:0:0:
190,236,50778,2,0,L|166:334,1,85,2|2,0:3|0:2,0:0:0:0:
341,318,51104,1,8,0:0:0:0:
322,236,51267,1,2,0:2:0:0:
258,337,51430,5,2,0:2:0:0:
404,261,51593,1,2,0:2:0:0:
239,255,51756,1,4,0:2:0:0:
422,343,51919,1,2,3:2:0:0:
438,336,52000,1,0,3:2:0:0:
453,327,52082,1,2,3:2:0:0:
466,315,52163,1,0,3:2:0:0:
476,301,52245,1,2,3:2:0:0:
483,285,52326,1,0,3:2:0:0:
487,267,52408,1,2,3:2:0:0:
322,236,52734,70,0,L|341:319,2,63.7500024318696,2|0|0,0:0|0:0|0:0,0:0:0:0:
264,173,53224,2,0,L|182:147,2,63.7500024318696,2|0|0,0:0|0:0|0:0,0:0:0:0:
347,154,53713,2,0,L|409:96,1,63.7500024318696,2|0,0:0|0:0,0:0:0:0:
458,55,54039,6,0,L|477:137,1,85,8|2,0:0|0:3,0:0:0:0:
471,157,54283,1,0,3:0:0:0:
466,178,54365,1,8,3:1:0:0:
427,253,54528,1,2,3:3:0:0:
431,273,54609,1,0,3:1:0:0:
436,294,54691,1,8,3:1:0:0:
345,228,54854,1,2,3:3:0:0:
317,219,54935,1,0,3:1:0:0:
290,211,55017,1,8,3:1:0:0:
263,202,55099,1,0,3:1:0:0:
236,194,55180,1,2,3:3:0:0:
209,186,55262,1,0,3:1:0:0:
182,177,55343,6,0,L|201:259,1,85,4|0,0:2|0:0,0:0:0:0:
326,142,55669,1,8,0:0:0:0:
224,35,55832,1,2,0:2:0:0:
263,202,55995,1,2,0:3:0:0:
387,83,56158,1,2,0:2:0:0:
244,118,56321,1,8,0:0:0:0:
408,166,56484,1,2,0:2:0:0:
366,0,56647,5,2,0:3:0:0:
326,142,56810,1,2,0:2:0:0:
470,107,56974,1,8,0:0:0:0:
306,59,57137,2,0,P|272:75|242:127,1,85,2|2,0:2|0:3,0:0:0:0:
246,256,57463,1,2,0:2:0:0:
326,142,57626,1,8,0:0:0:0:
195,188,57789,1,2,0:2:0:0:
326,228,57952,6,0,L|415:254,1,85,4|2,0:2|0:2,0:0:0:0:
215,347,58278,2,0,L|304:320,1,85,8|2,0:0|0:2,0:0:0:0:
195,188,58604,1,2,0:3:0:0:
93,317,58767,1,2,0:2:0:0:
246,256,58930,1,8,0:0:0:0:
116,154,59093,1,2,0:2:0:0:
178,307,59256,5,2,0:3:0:0:
279,177,59419,1,2,0:2:0:0:
127,239,59582,1,8,0:0:0:0:
256,341,59745,2,0,P|295:324|322:292,1,85,2|2,0:2|0:3,0:0:0:0:
227,109,60071,1,2,0:2:0:0:
246,256,60234,1,8,0:0:0:0:
363,166,60397,1,2,0:2:0:0:
195,188,60560,38,0,L|84:202,1,85,4|2,0:2|0:2,0:0:0:0:
8,328,60887,2,0,L|119:313,1,85,8|2,0:0|0:2,0:0:0:0:
246,256,61213,1,2,0:3:0:0:
127,239,61376,1,2,0:2:0:0:
256,341,61539,1,8,0:0:0:0:
279,177,61702,1,2,0:2:0:0:
178,307,61865,5,4,0:2:0:0:
116,154,62028,1,2,0:2:0:0:
246,256,62191,1,8,0:0:0:0:
347,125,62354,1,2,0:2:0:0:
195,188,62517,1,2,0:3:0:0:
133,35,62680,1,2,0:2:0:0:
263,137,62843,1,8,0:0:0:0:
364,6,63006,1,2,0:2:0:0:
212,69,63169,6,0,L|133:129,1,85,4|2,0:2|0:2,0:0:0:0:
178,307,63495,2,0,L|257:247,1,85,8|2,0:0|0:2,0:0:0:0:
263,137,63821,1,2,0:3:0:0:
195,188,63984,1,2,0:2:0:0:
314,205,64147,2,0,L|412:218,1,85,8|2,0:0|0:2,0:0:0:0:
217,23,64474,6,0,L|118:36,1,85,4|0,0:2|0:0,0:0:0:0:
195,188,64800,1,8,0:0:0:0:
263,137,64963,1,2,0:3:0:0:
144,120,65126,1,4,3:2:0:0:
132,143,65207,1,0,3:1:0:0:
126,169,65289,1,2,3:3:0:0:
130,195,65370,1,2,3:2:0:0:
140,220,65452,1,8,3:1:0:0:
148,245,65533,1,0,3:1:0:0:
148,272,65615,1,2,3:3:0:0:
142,298,65696,1,0,3:0:0:0:
131,322,65778,38,0,L|25:334,1,85,4|2,0:2|0:2,0:0:0:0:
29,184,66104,1,8,0:0:0:0:
166,243,66267,1,2,0:2:0:0:
232,85,66430,1,2,0:3:0:0:
115,174,66593,1,2,0:2:0:0:
96,28,66756,1,8,0:0:0:0:
199,164,66919,1,2,0:2:0:0:
265,6,67082,5,2,0:3:0:0:
147,95,67245,1,2,0:2:0:0:
284,154,67408,1,8,0:0:0:0:
180,16,67571,2,0,L|85:30,1,85,2|2,0:2|0:3,0:0:0:0:
115,174,67897,1,2,0:2:0:0:
232,85,68060,1,8,0:0:0:0:
147,95,68224,1,2,0:2:0:0:
284,154,68387,6,0,L|390:140,1,85,4|2,0:2|0:2,0:0:0:0:
215,311,68713,2,0,L|108:324,1,85,8|2,0:0|0:2,0:0:0:0:
204,226,69039,1,2,0:3:0:0:
300,300,69202,1,2,0:2:0:0:
289,215,69365,1,8,0:0:0:0:
174,317,69528,1,2,0:2:0:0:
193,181,69691,5,2,0:3:0:0:
310,336,69854,1,2,0:2:0:0:
329,200,70017,1,8,0:0:0:0:
234,299,70180,1,2,0:2:0:0:
369,274,70343,1,2,0:3:0:0:
245,214,70506,1,2,0:2:0:0:
310,336,70669,2,0,P|355:358|403:350,1,85,8|2,0:0|0:2,0:0:0:0:
412,202,70982,38,0,P|397:151|365:124,1,85,4|2,0:2|0:2,0:0:0:0:
173,164,71308,2,0,P|158:203|164:245,1,85,8|2,0:0|0:2,0:0:0:0:
310,336,71634,1,2,0:3:0:0:
329,200,71797,1,2,0:2:0:0:
234,299,71960,1,8,0:0:0:0:
369,274,72123,1,2,0:2:0:0:
274,134,72286,5,4,0:2:0:0:
234,299,72449,1,2,0:2:0:0:
412,202,72612,1,8,0:0:0:0:
245,214,72775,1,2,0:2:0:0:
394,356,72938,1,2,0:3:0:0:
329,200,73101,1,2,0:2:0:0:
240,384,73264,1,8,0:0:0:0:
369,274,73427,1,2,0:2:0:0:
165,246,73590,6,0,L|42:228,1,85,4|2,0:2|0:2,0:0:0:0:
372,129,73916,2,0,L|494:146,1,85,8|2,0:0|0:2,0:0:0:0:
310,336,74242,1,2,0:3:0:0:
245,214,74405,1,2,0:2:0:0:
369,274,74568,2,0,P|390:310|393:352,1,85,8|2,0:0|0:2,0:0:0:0:
178,161,74894,6,0,L|163:38,1,85,4|2,0:2|0:2,0:0:0:0:
329,200,75220,2,0,L|375:84,1,85,8|2,0:0|0:2,0:0:0:0:
165,246,75546,2,0,P|129:232|98:189,1,85,2|2,0:3|0:2,0:0:0:0:
276,135,75873,1,8,0:0:0:0:
268,154,75954,1,0,0:0:0:0:
260,174,76036,1,2,0:2:0:0:
252,194,76117,1,0,0:0:0:0:
245,213,76199,38,0,L|257:297,1,85,4|2,0:2|0:2,0:0:0:0:
425,102,76525,2,0,L|412:186,1,85,8|2,0:0|0:2,0:0:0:0:
264,51,76851,1,2,0:3:0:0:
276,135,77014,1,2,0:2:0:0:
130,155,77177,1,8,0:0:0:0:
197,103,77340,1,2,0:2:0:0:
141,239,77503,5,4,0:2:0:0:
106,96,77666,1,2,0:2:0:0:
218,191,77829,1,8,0:0:0:0:
274,55,77992,1,2,0:2:0:0:
309,198,78155,1,2,0:3:0:0:
197,103,78318,1,2,0:2:0:0:
257,273,78481,1,8,0:0:0:0:
343,113,78644,1,2,0:2:0:0:
131,165,78807,6,0,P|134:226|168:269,1,85,4|2,0:2|0:2,0:0:0:0:
399,184,79133,2,0,P|393:234|346:282,1,85,8|2,0:0|0:2,0:0:0:0:
193,12,79460,1,2,0:3:0:0:
358,24,79623,1,2,0:2:0:0:
218,191,79786,1,8,0:0:0:0:
274,55,79949,1,2,0:2:0:0:
309,198,80112,6,0,P|294:242|244:280,1,85,2|2,0:3|0:2,0:0:0:0:
112,96,80438,2,0,L|230:105,1,85,8|2,0:0|0:2,0:0:0:0:
205,121,80682,1,0,0:0:0:0:
214,140,80764,1,2,0:3:0:0:
64,166,80927,1,2,0:2:0:0:
160,26,81090,1,8,0:0:0:0:
148,172,81253,1,2,0:2:0:0:
148,172,81335,1,0,0:0:0:0:
148,172,81416,37,4,0:2:0:0:
226,262,81579,1,2,0:2:0:0:
195,102,81742,1,8,0:0:0:0:
142,256,81905,1,2,0:2:0:0:
301,225,82068,1,2,0:3:0:0:
178,331,82231,1,2,0:2:0:0:
232,178,82394,1,8,0:0:0:0:
263,337,82557,1,2,0:2:0:0:
384,230,82720,5,4,0:2:0:0:
226,262,82883,1,2,0:2:0:0:
328,384,83046,1,8,0:0:0:0:
301,225,83210,1,2,0:2:0:0:
178,331,83373,1,2,0:3:0:0:
338,300,83536,1,2,0:2:0:0:
232,178,83699,1,8,0:0:0:0:
263,337,83862,1,2,0:2:0:0:
306,142,84025,6,0,L|409:148,1,85,4|2,0:2|0:2,0:0:0:0:
301,225,84351,1,8,0:0:0:0:
352,70,84514,1,2,0:2:0:0:
352,70,84595,1,0,0:0:0:0:
352,70,84677,1,4,0:2:0:0:
384,230,84840,1,2,0:2:0:0:
266,66,85003,1,8,0:0:0:0:
438,74,85166,1,2,0:2:0:0:
306,142,85329,6,0,L|212:189,1,85,8|0,0:3|0:0,0:0:0:0:
227,201,85574,1,0,3:0:0:0:
226,222,85655,1,8,3:3:0:0:
145,157,85818,37,2,3:3:0:0:
149,183,85900,1,0,3:0:0:0:
151,209,85981,1,8,3:0:0:0:
60,133,86144,5,2,3:3:0:0:
69,163,86226,1,0,3:0:0:0:
78,194,86307,1,8,3:3:0:0:
87,224,86389,1,0,3:0:0:0:
96,255,86470,1,0,3:0:0:0:
105,285,86552,1,0,3:0:0:0:
114,316,86633,6,0,L|206:338,1,85,4|2,0:2|0:2,0:0:0:0:
312,211,86960,1,8,0:0:0:0:
171,253,87123,1,2,0:2:0:0:
337,293,87286,1,2,0:3:0:0:
287,129,87449,1,2,0:2:0:0:
254,273,87612,2,0,L|282:367,1,85,8|2,0:0|0:2,0:0:0:0:
370,148,87938,6,0,L|396:35,1,85,2|2,0:3|0:2,0:0:0:0:
224,71,88264,1,8,0:0:0:0:
312,211,88427,1,2,0:2:0:0:
306,46,88590,1,2,0:3:0:0:
228,191,88753,1,2,0:2:0:0:
140,52,88916,2,0,L|28:26,1,85,8|2,0:0|0:2,0:0:0:0:
287,129,89242,38,0,L|399:155,1,85,4|2,0:2|0:2,0:0:0:0:
145,215,89568,1,8,0:0:0:0:
224,71,89731,1,2,0:2:0:0:
312,211,89894,1,2,0:3:0:0:
166,132,90057,1,2,0:2:0:0:
230,275,90220,1,8,0:0:0:0:
287,129,90383,1,2,0:2:0:0:
83,156,90546,6,0,L|169:238,1,85,4|2,0:2|0:2,0:0:0:0:
270,25,90873,1,8,0:0:0:0:
166,132,91036,1,2,0:2:0:0:
289,251,91199,1,2,0:3:0:0:
248,108,91362,1,2,0:2:0:0:
145,215,91525,1,8,0:0:0:0:
309,169,91688,1,2,0:2:0:0:
187,47,91851,6,0,P|137:48|91:87,1,85,4|2,0:2|0:2,0:0:0:0:
145,215,92177,1,8,0:0:0:0:
248,108,92340,1,2,0:2:0:0:
289,251,92503,1,2,0:3:0:0:
166,132,92666,1,2,0:2:0:0:
128,294,92829,1,8,0:0:0:0:
228,191,92992,1,2,0:2:0:0:
350,311,93155,6,0,P|391:312|435:286,1,85,4|2,0:2|0:2,0:0:0:0:
309,169,93481,1,8,0:0:0:0:
207,274,93644,1,2,0:2:0:0:
372,229,93807,1,2,0:3:0:0:
248,108,93970,1,2,0:2:0:0:
289,251,94133,1,8,0:0:0:0:
329,84,94296,1,2,0:2:0:0:
166,132,94460,37,4,0:2:0:0:
267,333,94623,1,2,0:2:0:0:
248,108,94786,1,8,0:0:0:0:
62,236,94949,1,2,0:2:0:0:
289,251,95112,1,8,0:0:0:0:
186,48,95275,1,2,0:2:0:0:
207,274,95438,1,8,0:0:0:0:
390,147,95601,1,2,0:2:0:0:
166,132,95764,5,8,3:1:0:0:
142,126,95845,1,2,3:2:0:0:
118,131,95927,1,2,3:3:0:0:
99,146,96008,1,2,3:2:0:0:
88,167,96090,1,8,3:1:0:0:
87,191,96171,1,0,3:1:0:0:
96,213,96253,1,2,3:3:0:0:
114,229,96335,1,0,3:1:0:0:
132,246,96416,1,8,3:1:0:0:
142,268,96498,1,2,3:2:0:0:
145,292,96579,1,2,3:3:0:0:
140,315,96661,1,2,3:2:0:0:
128,336,96742,5,4,3:1:0:0:
