osu file format v14

[General]
AudioFilename: monokuro.mp3
AudioLeadIn: 1500
PreviewTime: 54331
Countdown: 0
SampleSet: Soft
StackLeniency: 0.7
Mode: 0
LetterboxInBreaks: 0
WidescreenStoryboard: 0

[Editor]
DistanceSpacing: 1
BeatDivisor: 4
GridSize: 8
TimelineZoom: 2.5

[Metadata]
Title:Ame, Kimi o Tsurete
TitleUnicode:雨、キミを連れて
Artist:EGOIST
ArtistUnicode:EGOIST
Creator:monstrata
Version:Insane
Source:
Tags:ryo supercell chelly guilty crown inori yuzuriha shu ouma extra terrestrial biological entities milan- ギルティクラウン
BeatmapID:764560
BeatmapSetID:346301

[Difficulty]
HPDrainRate:6
CircleSize:4
OverallDifficulty:8
ApproachRate:8.6
SliderMultiplier:1.6
SliderTickRate:1

[Events]
//Background and Video events
0,0,"guiltycrown.jpg",0,0
//Break Periods
//Storyboard Layer 0 (Background)
//Storyboard Layer 1 (Fail)
//Storyboard Layer 2 (Pass)
//Storyboard Layer 3 (Foreground)
//Storyboard Sound Samples

[TimingPoints]
561,326.086956521739,4,2,1,50,1,0
561,-133.333333333333,4,2,1,50,0,0
2843,-133.333333333333,4,2,1,35,0,0
3169,-133.333333333333,4,2,1,50,0,0
5452,-133.333333333333,4,2,1,35,0,0
5778,-133.333333333333,4,2,1,55,0,0
8060,-133.333333333333,4,2,1,35,0,0
8387,-133.333333333333,4,2,1,55,0,0
10669,-133.333333333333,4,2,1,65,0,0
10995,-100,4,2,1,50,0,0
12137,-100,4,2,1,35,0,0
12300,-100,4,2,1,50,0,0
13115,-100,4,2,1,35,0,0
13278,-100,4,2,1,50,0,0
14745,-100,4,2,1,35,0,0
14908,-100,4,2,1,50,0,0
15071,-100,4,2,1,35,0,0
15234,-100,4,2,1,50,0,0
15724,-100,4,2,1,35,0,0
15887,-100,4,2,1,50,0,0
18658,-100,4,2,1,35,0,0
18821,-100,4,2,1,50,0,0
19963,-100,4,2,1,35,0,0
20126,-100,4,2,1,50,0,0
22571,-100,4,2,1,35,0,0
22734,-100,4,2,1,50,0,0
23550,-100,4,2,1,35,0,0
23713,-100,4,2,1,50,0,0
23876,-100,4,2,1,35,0,0
24039,-100,4,2,1,50,0,0
25180,-100,4,2,1,35,0,0
25343,-100,4,2,1,50,0,0
25506,-100,4,2,1,35,0,0
25669,-100,4,2,1,50,0,0
26158,-100,4,2,1,35,0,0
26647,-100,4,2,1,50,0,0
27789,-100,4,2,1,35,0,0
27952,-100,4,2,1,50,0,0
28115,-100,4,2,1,35,0,0
28278,-100,4,2,1,50,0,0
29093,-100,4,2,1,35,0,0
29256,-100,4,2,1,50,0,0
30397,-100,4,2,1,35,0,0
30560,-100,4,2,1,50,0,0
33006,-100,4,2,1,35,0,0
33169,-100,4,2,1,50,0,0
34310,-100,4,2,1,35,0,0
34474,-100,4,2,1,50,0,0
35615,-100,4,2,1,35,0,0
35778,-100,4,2,1,50,0,0
36593,-100,4,2,1,35,0,0
36756,-100,4,2,1,50,0,0
36919,-100,4,2,1,35,0,0
37082,-100,4,2,1,50,0,0
38224,-100,4,2,1,35,0,0
38387,-100,4,2,1,50,0,0
39528,-100,4,2,1,35,0,0
39691,-100,4,2,1,50,0,0
40832,-100,4,2,1,35,0,0
40995,-100,4,2,1,50,0,0
41158,-100,4,2,1,45,0,0
41321,-100,4,2,1,50,0,0
41647,-100,4,1,1,60,0,0
41810,-100,4,2,1,50,0,0
42789,-100,4,2,1,35,0,0
42952,-100,4,2,1,50,0,0
43441,-100,4,2,1,35,0,0
43930,-100,4,2,1,50,0,0
45397,-100,4,2,1,35,0,0
45560,-100,4,2,1,50,0,0
48006,-100,4,2,1,35,0,0
48169,-100,4,2,1,50,0,0
48658,-100,4,2,1,35,0,0
48821,-100,4,2,1,50,0,0
50615,-100,4,2,1,35,0,0
50778,-100,4,2,1,50,0,0
52734,-133.333333333333,4,2,1,50,0,0
54039,-100,4,1,1,50,0,0
55343,-100,4,1,1,50,0,1
65696,-100,4,1,1,50,0,0
65778,-100,4,1,1,50,0,1
70982,326.086956521739,4,1,1,50,1,1
76117,-100,4,1,1,50,0,0
76199,-100,4,1,1,50,0,1
86552,-100,4,1,1,50,0,0
86634,-100,4,1,1,50,0,1
96742,-100,4,1,1,70,0,0

[Colours]
Combo1 : 128,128,128
Combo2 : 128,255,255
Combo3 : 187,119,255
Combo4 : 248,164,61
Combo5 : 255,155,255
Combo6 : 213,213,213

[HitObjects]
329,74,561,70,0,P|352:60|398:61,2,60.0000022888184,2|0|0,0:0|0:0|0:0,0:0:0:0:
377,137,1050,2,0,L|361:277,1,120.000004577637,2|0,0:0|0:0,0:0:0:0:
355,335,1539,2,0,P|384:333|410:318,2,60.0000022888184,2|0|0,0:0|0:0|0:0,0:0:0:0:
291,289,2028,2,0,P|234:270|175:296,1,120.000004577637,2|0,0:0|0:0,0:0:0:0:
103,314,2517,5,2,0:0:0:0:
122,235,2680,1,0,0:0:0:0:
63,179,2843,1,2,0:0:0:0:
242,71,3169,70,0,L|261:10,2,60.0000022888184,2|0|0,0:0|0:0|0:0,0:0:0:0:
318,94,3658,2,0,L|378:113,2,60.0000022888184,2|0|0,0:0|0:0|0:0,0:0:0:0:
295,170,4147,2,0,L|275:230,2,60.0000022888184,2|0|0,0:0|0:0|0:0,0:0:0:0:
219,147,4637,2,0,L|158:127,2,60.0000022888184,2|0|0,0:0|0:0|0:0,0:0:0:0:
195,224,5126,5,2,0:0:0:0:
219,300,5289,1,0,0:0:0:0:
141,282,5452,1,2,0:0:0:0:
351,259,5778,70,0,L|420:274,2,60.0000022888184,2|0|0,0:0|0:0|0:0,0:0:0:0:
272,240,6267,2,0,L|233:121,1,120.000004577637,2|0,0:0|0:0,0:0:0:0:
155,108,6756,2,0,L|85:92,2,60.0000022888184,2|0|0,0:0|0:0|0:0,0:0:0:0:
211,48,7245,2,0,P|269:50|309:93,1,120.000004577637,2|0,0:0|0:0,0:0:0:0:
372,144,7734,5,2,0:0:0:0:
446,114,7897,1,0,0:0:0:0:
508,163,8060,1,2,0:0:0:0:
409,347,8387,70,0,P|453:343|481:321,2,60.0000022888184,2|0|0,0:0|0:0|0:0,0:0:0:0:
422,269,8876,2,0,P|440:228|435:193,2,60.0000022888184,2|0|0,0:0|0:0|0:0,0:0:0:0:
360,218,9365,2,0,P|334:181|301:168,2,60.0000022888184,2|0|0,0:0|0:0|0:0,0:0:0:0:
284,246,9854,2,0,P|240:250|212:272,2,60.0000022888184,2|0|0,0:0|0:0|0:0,0:0:0:0:
346,297,10343,5,2,0:0:0:0:
422,269,10506,1,0,0:0:0:0:
435,189,10669,1,2,0:0:0:0:
241,66,10995,70,0,L|136:79,2,80,6|0|2,0:0|0:0|0:3,0:0:0:0:
292,127,11484,2,0,L|397:140,2,80,2|0|2,0:0|0:0|0:3,0:0:0:0:
213,140,11974,2,0,P|176:169|166:226,1,80,2|4,0:0|0:3,0:0:0:0:
194,276,12300,1,2,0:3:0:0:
242,212,12463,2,0,L|347:225,1,80,2|0,0:0|0:0,0:0:0:0:
352,294,12789,1,2,0:3:0:0:
226,350,12952,5,2,0:0:0:0:
274,285,13115,1,4,0:3:0:0:
306,359,13278,1,2,0:0:0:0:
115,267,13604,70,0,L|15:255,2,80,2|0|2,0:2|0:0|0:3,0:0:0:0:
164,198,14093,2,0,L|224:117,2,80,2|0|2,0:0|0:0|0:3,0:0:0:0:
194,276,14582,2,0,L|231:362,1,80,2|4,0:0|0:3,0:0:0:0:
306,359,14908,1,2,0:3:0:0:
352,294,15071,2,0,P|336:236|301:212,1,80,4|0,0:3|0:0,0:0:0:0:
274,285,15397,1,2,0:3:0:0:
384,368,15560,6,0,P|426:325|429:282,1,80,2|4,0:2|0:3,0:0:0:0:
398,229,15887,1,2,0:0:0:0:
432,32,16213,70,0,P|471:27|508:40,2,80,4|0|2,0:2|0:0|0:3,0:0:0:0:
385,97,16702,2,0,P|360:65|352:26,2,80,2|0|2,0:0|0:0|0:3,0:0:0:0:
463,105,17191,2,0,P|448:141|418:167,1,80,2|4,0:0|0:3,0:0:0:0:
340,161,17517,1,2,0:3:0:0:
294,225,17680,2,0,L|197:215,1,80,2|0,0:2|0:0,0:0:0:0:
167,280,18006,1,2,0:3:0:0:
277,359,18169,5,2,0:2:0:0:
245,288,18332,1,0,0:0:0:0:
199,351,18495,1,2,0:0:0:0:
372,232,18821,70,0,L|411:320,2,80,4|0|2,0:2|0:0|0:3,0:0:0:0:
372,152,19310,2,0,L|411:63,2,80,2|0|2,0:0|0:0|0:3,0:0:0:0:
296,257,19800,2,0,B|287:279|287:279|231:286,2,80,2|4|2,0:2|0:3|0:3,0:0:0:0:
294,126,20289,2,0,B|285:104|285:104|229:97,2,80,2|0|2,0:0|0:0|0:3,0:0:0:0:
372,232,20778,5,2,0:0:0:0:
248,192,20941,1,8,0:3:0:0:
372,151,21104,2,0,P|410:161|438:189,1,80,8|2,0:3|0:2,0:0:0:0:
296,257,21430,70,0,L|188:293,1,80,4|0,0:2|0:0,0:0:0:0:
357,307,21756,2,0,P|373:271|372:232,1,80,8|0,0:0|0:0,0:0:0:0:
248,192,22082,2,0,L|140:156,1,80,2|0,0:0|0:0,0:0:0:0:
35,191,22408,2,0,P|74:216|115:218,1,80,8|4,0:0|0:3,0:0:0:0:
156,88,22734,6,0,B|219:37|219:37|264:22|318:64,1,160,2|8,0:2|0:0,0:0:0:0:
248,192,23224,2,0,B|291:206|291:206|409:177,1,160,2|4,0:3|0:3,0:0:0:0:
500,81,23713,1,8,0:0:0:0:
423,101,23876,1,4,0:3:0:0:
457,234,24039,70,0,L|482:333,1,80,2|0,0:2|0:0,0:0:0:0:
341,344,24365,2,0,P|363:307|399:288,1,80,8|0,0:0|0:0,0:0:0:0:
510,178,24691,2,0,P|488:215|452:234,1,80,2|0,0:0|0:0,0:0:0:0:
356,135,25017,2,0,L|433:156,1,80,8|4,0:0|0:3,0:0:0:0:
297,189,25343,6,0,B|219:210|219:210|126:182,1,160,2|8,0:0|0:0,0:0:0:0:
276,111,25832,2,0,L|321:279,1,160,2|4,0:3|0:3,0:0:0:0:
414,321,26321,1,8,0:0:0:0:
393,244,26484,1,4,0:3:0:0:
337,342,26647,70,0,P|281:335|242:298,1,80,2|0,0:0|0:0,0:0:0:0:
206,380,26974,2,0,P|183:327|196:274,1,80,8|2,0:0|0:2,0:0:0:0:
107,284,27300,2,0,P|141:238|193:223,1,80,2|0,0:0|0:0,0:0:0:0:
140,150,27626,2,0,P|196:157|235:194,1,80,8|4,0:0|0:3,0:0:0:0:
317,265,27952,6,0,L|472:223,1,160,2|8,0:2|0:0,0:0:0:0:
296,188,28441,2,0,P|256:215|261:321,1,160,2|2,0:2|0:2,0:0:0:0:
405,283,28930,1,10,0:0:0:0:
387,138,29093,1,4,0:3:0:0:
317,265,29256,70,0,P|320:312|352:357,2,80,2|2|8,0:2|0:2|0:0,0:0:0:0:
449,204,29745,2,0,P|474:164|429:55,1,160,2|0,0:2|0:0,0:0:0:0:
246,97,30234,1,8,0:0:0:0:
387,138,30397,1,4,0:3:0:0:
337,47,30560,5,2,0:2:0:0:
296,188,30724,1,2,0:2:0:0:
397,294,30887,2,0,L|495:332,1,80,8|0,0:0|0:0,0:0:0:0:
371,159,31213,2,0,L|296:187,1,80,2|0,0:2|0:0,0:0:0:0:
180,299,31539,2,0,L|278:337,1,80,8|0,0:0|0:0,0:0:0:0:
154,164,31865,70,0,L|79:192,1,80,4|0,0:2|0:0,0:0:0:0:
216,214,32191,1,8,0:0:0:0:
228,134,32354,1,2,0:2:0:0:
140,243,32517,2,0,P|169:281|222:294,1,80,2|0,0:3|0:0,0:0:0:0:
291,184,32843,1,8,0:0:0:0:
216,214,33006,1,4,0:3:0:0:
354,233,33169,6,0,L|448:246,1,80,2|0,0:2|0:0,0:0:0:0:
365,154,33495,1,8,0:0:0:0:
279,263,33658,2,0,P|263:305|279:361,1,80,2|2,0:3|0:2,0:0:0:0:
343,312,33984,1,2,0:2:0:0:
291,184,34147,2,0,L|256:99,1,80,8|4,0:0|0:3,0:0:0:0:
272,94,34392,1,0,0:0:0:0:
284,78,34474,70,0,L|375:90,1,80,2|0,0:2|0:0,0:0:0:0:
433,244,34800,1,8,0:0:0:0:
354,233,34963,1,0,0:0:0:0:
482,181,35126,2,0,P|510:227|510:266,1,80,2|0,0:3|0:0,0:0:0:0:
343,312,35452,1,8,0:0:0:0:
354,233,35615,1,4,0:3:0:0:
422,323,35778,6,0,L|513:335,2,80,2|0|8,0:2|0:0|0:0,0:0:0:0:
280,262,36267,2,0,L|188:249,1,80,2|2,0:3|0:2,0:0:0:0:
291,184,36593,1,4,0:3:0:0:
343,312,36756,1,8,0:0:0:0:
354,233,36919,1,4,0:3:0:0:
269,341,37082,70,0,L|162:324,1,80,4|0,0:2|0:0,0:0:0:0:
280,262,37408,1,8,0:0:0:0:
343,312,37571,1,2,0:2:0:0:
365,154,37734,2,0,L|381:47,1,80,2|0,0:3|0:0,0:0:0:0:
291,184,38060,1,8,0:0:0:0:
354,233,38224,1,4,0:3:0:0:
301,104,38387,6,0,L|194:88,1,80,2|0,0:2|0:0,0:0:0:0:
141,80,38713,1,8,0:0:0:0:
201,231,38876,2,0,L|268:146,1,80,2|2,0:3|0:2,0:0:0:0:
301,104,39202,1,0,0:0:0:0:
171,155,39365,2,0,P|132:185|123:248,1,80,8|4,0:0|0:3,0:0:0:0:
231,307,39691,69,2,0:2:0:0:
201,231,39854,1,2,0:2:0:0:
179,369,40017,2,0,P|224:387|286:364,1,80,8|2,0:0|0:2,0:0:0:0:
362,261,40343,2,0,P|323:290|312:356,1,80,2|2,0:3|0:2,0:0:0:0:
443,272,40669,2,0,P|436:224|385:181,1,80,8|4,0:0|0:3,0:0:0:0:
218,90,40995,5,2,0:2:0:0:
331,182,41158,1,4,0:3:0:0:
353,39,41321,1,8,0:0:0:0:
301,104,41484,1,2,0:3:0:0:
465,128,41647,2,0,P|500:100|517:53,1,80,4|0,0:2|0:0,0:0:0:0:
271,27,41974,2,0,P|236:55|219:102,1,80,2|0,0:3|0:0,0:0:0:0:
278,246,42300,70,0,L|380:264,1,80,6|0,0:2|3:0,0:0:0:0:
250,170,42626,1,8,0:0:0:0:
198,232,42789,1,4,0:3:0:0:
142,78,42952,2,0,L|39:59,2,80,2|0|8,0:2|0:0|0:0,0:0:0:0:
331,182,43441,6,0,P|373:142|346:35,1,160,8|4,0:3|0:3,0:0:0:0:
300,105,43930,1,8,0:0:0:0:
278,246,44093,2,0,L|259:348,1,80,2|0,0:2|0:0,0:0:0:0:
198,232,44419,1,2,0:3:0:0:
331,182,44582,1,8,0:0:0:0:
250,170,44745,1,2,0:2:0:0:
358,260,44908,70,0,L|339:362,1,80,2|0,0:2|0:0,0:0:0:0:
412,194,45234,2,0,P|440:238|435:296,1,80,8|4,0:0|0:3,0:0:0:0:
360,111,45560,2,0,P|337:142|330:181,1,80,2|0,0:2|0:0,0:0:0:0:
454,37,45887,2,0,L|441:116,1,80,8|0,0:0|0:0,0:0:0:0:
295,20,46213,6,0,L|374:33,2,80,2|2|8,0:3|0:2|0:0,0:0:0:0:
164,113,46702,2,0,L|151:192,1,80,2|2,0:3|0:2,0:0:0:0:
229,66,47028,1,2,0:3:0:0:
118,48,47191,1,8,0:0:0:0:
237,146,47354,1,2,0:2:0:0:
183,1,47517,70,0,L|97:64,1,80,2|0,0:3|0:0,0:0:0:0:
302,99,47843,2,0,L|368:183,1,80,8|4,0:0|0:3,0:0:0:0:
183,199,48169,2,0,L|140:296,1,80,2|0,0:3|0:0,0:0:0:0:
302,298,48495,2,0,L|318:403,1,80,8|4,0:0|0:3,0:0:0:0:
349,233,48821,6,0,L|428:220,2,80,2|2|8,0:2|0:2|0:0,0:0:0:0:
223,290,49310,2,0,L|143:302,1,80,2|2,0:3|0:2,0:0:0:0:
269,225,49637,1,2,0:3:0:0:
382,306,49800,1,8,0:0:0:0:
302,298,49963,1,2,0:2:0:0:
315,159,50126,70,0,L|322:73,1,80,2|0,0:3|0:0,0:0:0:0:
269,225,50452,2,0,P|238:175|241:130,1,80,8|4,0:0|0:3,0:0:0:0:
348,234,50778,2,0,P|381:203|396:148,1,80,2|2,0:3|0:2,0:0:0:0:
223,290,51104,2,0,L|143:302,1,80,8|2,0:0|0:2,0:0:0:0:
382,306,51430,6,0,L|457:333,1,80,2|2,0:2|0:2,0:0:0:0:
315,159,51756,1,4,0:2:0:0:
302,298,51919,1,2,3:2:0:0:
300,311,52001,1,0,3:0:0:0:
299,324,52082,1,2,3:2:0:0:
298,337,52164,1,0,3:0:0:0:
297,351,52245,1,2,3:2:0:0:
296,364,52327,1,0,3:0:0:0:
294,377,52408,1,2,3:2:0:0:
261,100,52734,70,0,P|243:124|235:153,2,60.0000022888184,2|0|0,0:0|0:0|0:0,0:0:0:0:
373,156,53224,2,0,P|344:152|315:159,2,60.0000022888184,2|0|0,0:0|0:0|0:0,0:0:0:0:
381,280,53713,2,0,P|369:252|349:230,1,60.0000022888184,2|0,0:0|0:0,0:0:0:0:
303,295,54039,6,0,L|209:315,1,80,8|2,0:0|0:3,0:0:0:0:
205,307,54283,1,0,3:0:0:0:
185,303,54365,1,8,3:1:0:0:
108,283,54528,2,0,L|56:293,2,40,2|0|8,3:3|3:1|3:1,0:0:0:0:
164,225,54854,1,2,3:3:0:0:
170,205,54935,1,0,3:1:0:0:
176,186,55017,1,8,3:1:0:0:
182,167,55099,1,0,3:1:0:0:
188,148,55180,1,2,3:3:0:0:
195,129,55262,1,0,3:1:0:0:
201,110,55343,6,0,L|295:90,1,80,4|0,0:2|0:0,0:0:0:0:
409,135,55669,1,8,0:0:0:0:
355,76,55832,1,2,0:2:0:0:
254,170,55995,1,2,0:3:0:0:
332,152,56158,1,2,0:2:0:0:
301,17,56321,1,8,0:0:0:0:
279,93,56484,1,2,0:2:0:0:
430,58,56647,6,0,L|540:31,2,80,2|2|8,0:3|0:2|0:0,0:0:0:0:
254,170,57137,2,0,P|215:141|201:85,1,80,2|2,0:2|0:3,0:0:0:0:
279,93,57463,1,2,0:2:0:0:
308,231,57626,2,0,L|276:324,1,80,8|2,0:0|0:2,0:0:0:0:
150,262,57952,6,0,L|246:242,1,80,4|2,0:2|0:2,0:0:0:0:
332,152,58278,1,8,0:0:0:0:
387,255,58441,1,2,0:2:0:0:
411,176,58604,1,2,0:3:0:0:
308,231,58767,1,2,0:2:0:0:
392,95,58930,1,8,0:0:0:0:
467,236,59093,1,2,0:2:0:0:
332,152,59256,6,0,L|233:174,1,80,2|2,0:3|0:2,0:0:0:0:
326,311,59582,1,8,0:0:0:0:
411,176,59745,2,0,L|387:77,1,80,2|2,0:2|0:3,0:0:0:0:
308,231,60071,1,2,0:2:0:0:
387,255,60234,1,8,0:0:0:0:
332,152,60397,1,2,0:2:0:0:
247,286,60560,38,0,P|250:345|271:374,1,80,4|2,0:2|0:2,0:0:0:0:
484,360,60887,2,0,P|481:301|460:272,1,80,8|2,0:0|0:2,0:0:0:0:
326,311,61213,1,2,0:3:0:0:
405,335,61376,1,2,0:2:0:0:
308,231,61539,1,8,0:0:0:0:
247,286,61702,1,2,0:2:0:0:
387,255,61865,5,4,0:2:0:0:
369,175,62028,1,2,0:2:0:0:
468,260,62191,1,8,0:0:0:0:
439,133,62354,1,2,0:2:0:0:
500,186,62517,1,2,0:3:0:0:
367,93,62680,1,2,0:2:0:0:
387,255,62843,2,0,L|411:363,1,80,8|2,0:0|0:2,0:0:0:0:
247,286,63169,6,0,L|271:177,1,80,4|2,0:2|0:2,0:0:0:0:
225,75,63495,2,0,L|284:130,1,80,8|2,0:0|0:2,0:0:0:0:
417,162,63821,2,0,L|340:186,1,80,2|2,0:3|0:2,0:0:0:0:
205,154,64147,2,0,L|128:178,1,80,8|2,0:0|0:2,0:0:0:0:
384,313,64474,6,0,P|397:237|340:186,1,160,4|8,0:2|0:0,0:0:0:0:
247,286,64963,2,0,L|323:262,1,80,2|4,0:3|3:2,0:0:0:0:
189,231,65289,1,2,3:3:0:0:
177,247,65370,1,2,3:2:0:0:
170,265,65452,1,8,3:1:0:0:
168,285,65533,1,0,3:1:0:0:
170,305,65615,1,2,3:3:0:0:
177,324,65696,1,0,3:0:0:0:
189,340,65778,38,0,P|220:360|262:364,1,80,4|2,0:2|0:2,0:0:0:0:
305,236,66104,2,0,P|272:252|247:287,1,80,8|2,0:0|0:2,0:0:0:0:
113,253,66430,1,2,0:3:0:0:
189,231,66593,1,2,0:2:0:0:
94,330,66756,2,0,P|57:310|36:265,1,80,8|2,0:0|0:2,0:0:0:0:
191,151,67082,6,0,L|259:92,2,80,2|2|8,0:3|0:2|0:0,0:0:0:0:
113,253,67571,2,0,L|92:341,1,80,2|2,0:2|0:3,0:0:0:0:
69,188,67897,1,2,0:2:0:0:
189,231,68060,2,0,L|266:278,1,80,8|2,0:0|0:2,0:0:0:0:
397,195,68387,6,0,L|327:233,1,80,4|2,0:2|0:2,0:0:0:0:
464,236,68713,2,0,P|477:199|457:144,1,80,8|2,0:0|0:2,0:0:0:0:
378,67,69039,1,2,0:3:0:0:
397,195,69202,1,2,0:2:0:0:
457,81,69365,2,0,P|450:30|416:-4,1,80,8|2,0:0|0:2,0:0:0:0:
341,138,69691,5,2,0:3:0:0:
397,195,69854,1,2,0:2:0:0:
418,118,70017,1,8,0:0:0:0:
319,215,70180,2,0,P|285:235|223:225,1,80,2|2,0:2|0:3,0:0:0:0:
264,158,70506,1,2,0:2:0:0:
397,195,70669,1,8,0:0:0:0:
341,138,70832,1,2,0:2:0:0:
297,292,70982,38,0,L|268:393,1,80,4|2,0:2|0:2,0:0:0:0:
186,177,71307,2,0,P|189:131|230:83,1,80,8|2,0:0|0:2,0:0:0:0:
341,138,71633,1,2,0:3:0:0:
264,158,71796,1,2,0:2:0:0:
297,292,71960,1,8,0:0:0:0:
319,215,72123,1,2,0:2:0:0:
186,177,72286,5,4,0:2:0:0:
241,234,72449,1,2,0:2:0:0:
243,122,72612,1,8,0:0:0:0:
164,253,72775,1,2,0:2:0:0:
166,100,72938,1,2,0:3:0:0:
241,234,73101,1,2,0:2:0:0:
319,102,73264,2,0,P|353:121|374:157,1,80,8|2,0:0|0:2,0:0:0:0:
186,177,73590,6,0,L|105:176,1,80,4|2,0:2|0:2,0:0:0:0:
318,256,73916,2,0,L|398:256,1,80,8|2,0:0|0:2,0:0:0:0:
243,122,74242,2,0,L|158:98,1,80,2|2,0:3|0:2,0:0:0:0:
261,311,74568,2,0,L|346:335,1,80,8|2,0:0|0:2,0:0:0:0:
319,102,74894,6,0,P|305:74|250:43,1,80,4|2,0:2|0:2,0:0:0:0:
184,330,75220,2,0,P|198:358|253:389,1,80,8|2,0:0|0:2,0:0:0:0:
299,178,75546,2,0,L|218:177,1,80,2|2,0:3|0:2,0:0:0:0:
261,311,75873,1,8,0:0:0:0:
280,311,75954,1,0,0:0:0:0:
300,311,76036,1,2,0:2:0:0:
320,311,76117,1,0,0:0:0:0:
340,311,76199,38,0,P|372:277|381:241,1,80,4|2,0:2|0:2,0:0:0:0:
263,172,76525,2,0,P|276:216|303:242,1,80,8|2,0:0|0:2,0:0:0:0:
424,169,76851,1,2,0:3:0:0:
344,171,77014,1,2,0:2:0:0:
466,236,77177,2,0,P|495:202|497:140,1,80,8|2,0:0|0:2,0:0:0:0:
381,101,77503,5,4,0:2:0:0:
344,171,77666,1,2,0:2:0:0:
301,104,77829,2,0,L|246:16,1,80,8|2,0:0|0:2,0:0:0:0:
227,243,78155,1,2,0:3:0:0:
263,172,78318,1,2,0:2:0:0:
307,240,78481,2,0,L|362:328,1,80,8|2,0:0|0:2,0:0:0:0:
344,171,78807,5,4,0:2:0:0:
227,243,78970,1,2,0:2:0:0:
223,105,79133,2,0,P|241:52|278:28,1,80,8|2,0:0|0:2,0:0:0:0:
307,240,79460,1,2,0:3:0:0:
263,172,79623,1,2,0:2:0:0:
178,270,79786,1,8,0:0:0:0:
254,302,79949,1,2,0:2:0:0:
183,186,80112,6,0,P|144:193|113:216,1,80,2|2,0:3|0:2,0:0:0:0:
188,351,80438,1,8,0:0:0:0:
307,240,80601,1,2,0:2:0:0:
307,240,80682,1,0,0:0:0:0:
307,240,80764,1,2,0:3:0:0:
178,270,80927,1,2,0:2:0:0:
334,316,81090,2,0,L|428:343,1,80,8|2,0:0|0:2,0:0:0:0:
280,164,81416,38,0,L|186:136,1,80,4|2,0:2|0:2,0:0:0:0:
96,28,81742,1,8,0:0:0:0:
164,70,81905,1,2,0:2:0:0:
132,180,82068,1,2,0:3:0:0:
94,109,82231,1,2,0:2:0:0:
244,73,82394,2,0,L|338:101,1,80,8|2,0:0|0:2,0:0:0:0:
428,180,82720,38,0,L|334:208,1,80,4|2,0:2|0:2,0:0:0:0:
199,166,83046,1,8,0:0:0:0:
280,164,83210,1,2,0:2:0:0:
312,273,83373,1,2,0:3:0:0:
242,235,83536,1,2,0:2:0:0:
348,120,83699,2,0,L|442:92,1,80,8|2,0:0|0:2,0:0:0:0:
389,250,84025,38,0,L|295:278,1,80,4|2,0:2|0:2,0:0:0:0:
236,147,84351,2,0,L|330:175,1,80,8|2,0:0|0:2,0:0:0:0:
331,163,84595,1,0,0:0:0:0:
351,157,84677,2,0,L|445:185,1,80,4|2,0:2|0:2,0:0:0:0:
505,54,85003,2,0,L|411:82,1,80,8|2,0:0|0:2,0:0:0:0:
410,70,85248,1,0,0:0:0:0:
390,64,85329,6,0,L|296:92,1,80,8|0,0:3|0:0,0:0:0:0:
294,81,85574,1,0,3:0:0:0:
274,75,85655,1,8,3:0:0:0:
236,147,85818,2,0,L|184:146,2,40,2|0|8,3:3|3:0|3:0,0:0:0:0:
177,225,86144,1,2,3:3:0:0:
157,230,86226,1,0,3:0:0:0:
137,234,86307,1,8,3:3:0:0:
140,315,86470,1,0,3:0:0:0:
121,325,86552,1,0,3:0:0:0:
103,334,86633,6,0,L|199:348,1,80,4|2,0:2|0:2,0:0:0:0:
261,356,86960,2,0,P|258:321|225:278,1,80,8|2,0:0|0:2,0:0:0:0:
274,172,87286,2,0,P|279:211|302:244,1,80,2|2,0:3|0:2,0:0:0:0:
432,194,87612,2,0,L|336:180,1,80,8|2,0:0|0:2,0:0:0:0:
245,99,87938,6,0,P|213:122|196:158,1,80,2|2,0:3|0:2,0:0:0:0:
323,110,88264,1,8,0:0:0:0:
293,36,88427,1,2,0:2:0:0:
293,36,88508,1,0,0:0:0:0:
293,35,88590,2,0,L|199:22,1,80,2|2,0:3|0:2,0:0:0:0:
274,172,88916,2,0,L|367:185,1,80,8|2,0:0|0:2,0:0:0:0:
481,131,89242,37,4,0:2:0:0:
401,120,89405,1,2,0:2:0:0:
382,257,89568,2,0,P|428:275|477:261,1,80,8|2,0:0|0:2,0:0:0:0:
353,183,89894,1,2,0:3:0:0:
303,245,90057,1,2,0:2:0:0:
194,160,90220,2,0,P|158:189|146:233,1,80,8|2,0:0|0:2,0:0:0:0:
202,368,90546,5,4,0:2:0:0:
224,232,90710,1,2,0:2:0:0:
331,319,90873,2,0,L|384:408,1,80,8|2,0:0|0:2,0:0:0:0:
382,257,91199,1,2,0:3:0:0:
252,306,91362,1,2,0:2:0:0:
274,172,91525,2,0,L|287:78,1,80,8|2,0:0|0:2,0:0:0:0:
146,221,91851,6,0,L|58:256,1,80,4|2,0:2|0:2,0:0:0:0:
252,306,92177,2,0,L|326:364,1,80,8|2,0:0|0:2,0:0:0:0:
399,244,92503,1,2,0:3:0:0:
389,324,92666,1,2,0:2:0:0:
334,195,92829,2,0,L|347:101,1,80,8|2,0:0|0:2,0:0:0:0:
473,212,93155,5,4,0:2:0:0:
462,291,93318,1,2,0:2:0:0:
408,164,93481,2,0,B|413:126|413:126|456:98,1,80,8|2,0:0|0:2,0:0:0:0:
399,244,93807,1,2,0:3:0:0:
334,195,93970,1,2,0:2:0:0:
249,306,94133,1,8,0:0:0:0:
324,275,94296,1,2,0:2:0:0:
270,145,94460,37,4,0:2:0:0:
259,225,94623,1,2,0:2:0:0:
190,134,94786,1,8,0:0:0:0:
179,214,94949,1,2,0:2:0:0:
116,96,95112,1,8,0:0:0:0:
99,228,95275,1,2,0:2:0:0:
60,156,95438,1,8,0:0:0:0:
151,290,95601,1,2,0:2:0:0:
190,134,95764,6,0,L|206:70,3,40,8|2|2|2,3:1|3:2|3:3|3:2,0:0:0:0:
106,57,96090,2,0,L|115:95,3,40,8|0|2|0,3:1|3:1|3:3|3:1,0:0:0:0:
99,228,96416,1,8,3:1:0:0:
111,243,96498,1,2,3:2:0:0:
124,258,96579,1,2,3:3:0:0:
137,273,96661,1,2,3:2:0:0:
151,290,96742,5,4,3:1:0:0:
