osu file format v14

[General]
AudioFilename: monokuro.mp3
AudioLeadIn: 1500
PreviewTime: 54331
Countdown: 0
SampleSet: Soft
StackLeniency: 0.7
Mode: 0
LetterboxInBreaks: 0
WidescreenStoryboard: 0

[Editor]
DistanceSpacing: 1.2
BeatDivisor: 4
GridSize: 8
TimelineZoom: 2.5

[Metadata]
Title:Ame, Kimi o Tsurete
TitleUnicode:雨、キミを連れて
Artist:EGOIST
ArtistUnicode:EGOIST
Creator:monstrata
Version:Hard
Source:
Tags:ryo supercell chelly guilty crown inori yuzuriha shu ouma extra terrestrial biological entities milan- ギルティクラウン
BeatmapID:766020
BeatmapSetID:346301

[Difficulty]
HPDrainRate:5
CircleSize:3.7
OverallDifficulty:6
ApproachRate:7.5
SliderMultiplier:1.3
SliderTickRate:1

[Events]
//Background and Video events
0,0,"guiltycrown.jpg",0,0
//Break Periods
//Storyboard Layer 0 (Background)
//Storyboard Layer 1 (Fail)
//Storyboard Layer 2 (Pass)
//Storyboard Layer 3 (Foreground)
//Storyboard Sound Samples

[TimingPoints]
561,326.086956521739,4,2,1,50,1,0
561,-133.333333333333,4,2,1,50,0,0
2843,-133.333333333333,4,2,1,35,0,0
3169,-133.333333333333,4,2,1,50,0,0
5452,-133.333333333333,4,2,1,35,0,0
5778,-133.333333333333,4,2,1,55,0,0
8060,-133.333333333333,4,2,1,35,0,0
8387,-133.333333333333,4,2,1,55,0,0
10669,-133.333333333333,4,2,1,65,0,0
10995,-100,4,2,1,50,0,0
12137,-100,4,2,1,35,0,0
12300,-100,4,2,1,50,0,0
13115,-100,4,2,1,35,0,0
13278,-100,4,2,1,50,0,0
14745,-100,4,2,1,35,0,0
14908,-100,4,2,1,50,0,0
15071,-100,4,2,1,35,0,0
15234,-100,4,2,1,50,0,0
15724,-100,4,2,1,35,0,0
15887,-100,4,2,1,50,0,0
18658,-100,4,2,1,35,0,0
18821,-100,4,2,1,50,0,0
19963,-100,4,2,1,35,0,0
20126,-100,4,2,1,50,0,0
22571,-100,4,2,1,35,0,0
22734,-100,4,2,1,50,0,0
23550,-100,4,2,1,35,0,0
23713,-100,4,2,1,50,0,0
23876,-100,4,2,1,35,0,0
24039,-100,4,2,1,50,0,0
25180,-100,4,2,1,35,0,0
25343,-100,4,2,1,50,0,0
25506,-100,4,2,1,35,0,0
25669,-100,4,2,1,50,0,0
26158,-100,4,2,1,35,0,0
26647,-100,4,2,1,50,0,0
27789,-100,4,2,1,35,0,0
27952,-100,4,2,1,50,0,0
28115,-100,4,2,1,35,0,0
28278,-100,4,2,1,50,0,0
29093,-100,4,2,1,35,0,0
29256,-100,4,2,1,50,0,0
30397,-100,4,2,1,35,0,0
30560,-100,4,2,1,50,0,0
33006,-100,4,2,1,35,0,0
33169,-100,4,2,1,50,0,0
34310,-100,4,2,1,35,0,0
34474,-100,4,2,1,50,0,0
35615,-100,4,2,1,35,0,0
35778,-100,4,2,1,50,0,0
36593,-100,4,2,1,35,0,0
36756,-100,4,2,1,50,0,0
36919,-100,4,2,1,35,0,0
37082,-100,4,2,1,50,0,0
38224,-100,4,2,1,35,0,0
38387,-100,4,2,1,50,0,0
39528,-100,4,2,1,35,0,0
39691,-100,4,2,1,50,0,0
40832,-100,4,2,1,35,0,0
40995,-100,4,2,1,50,0,0
41158,-100,4,2,1,45,0,0
41321,-100,4,2,1,50,0,0
41647,-100,4,1,1,60,0,0
41810,-100,4,2,1,50,0,0
42789,-100,4,2,1,35,0,0
42952,-100,4,2,1,50,0,0
43441,-100,4,2,1,35,0,0
43930,-100,4,2,1,50,0,0
45397,-100,4,2,1,35,0,0
45560,-100,4,2,1,50,0,0
48006,-100,4,2,1,35,0,0
48169,-100,4,2,1,50,0,0
48658,-100,4,2,1,35,0,0
48821,-100,4,2,1,50,0,0
50615,-100,4,2,1,35,0,0
50778,-100,4,2,1,50,0,0
52734,-133.333333333333,4,2,1,50,0,0
54039,-100,4,1,1,50,0,0
55343,-100,4,1,1,50,0,1
65696,-100,4,1,1,50,0,0
65778,-100,4,1,1,50,0,1
70982,326.086956521739,4,1,1,50,1,1
76117,-100,4,1,1,50,0,0
76199,-100,4,1,1,50,0,1
86552,-100,4,1,1,50,0,0
86634,-100,4,1,1,50,0,1
96742,-100,4,1,1,70,0,0

[Colours]
Combo1 : 128,128,128
Combo2 : 128,255,255
Combo3 : 187,119,255
Combo4 : 248,164,61
Combo5 : 255,155,255
Combo6 : 213,213,213

[HitObjects]
285,97,561,70,0,P|330:113|359:157,1,97.50000371933,2|0,0:0|0:0,0:0:0:0:
283,175,1050,2,0,L|188:203,1,97.50000371933,2|0,0:0|0:0,0:0:0:0:
114,224,1539,2,0,P|141:263|187:280,1,97.50000371933,2|0,0:0|0:0,0:0:0:0:
171,356,2028,2,0,P|207:325|255:320,1,97.50000371933,2|0,0:0|0:0,0:0:0:0:
326,352,2517,6,0,L|388:338,1,48.750001859665,2|0,0:0|0:0,0:0:0:0:
448,364,2843,1,2,0:0:0:0:
417,211,3169,70,0,L|398:115,1,97.50000371933,2|0,0:0|0:0,0:0:0:0:
381,39,3658,2,0,B|372:92|318:105,1,97.50000371933,2|0,0:0|0:0,0:0:0:0:
242,85,4147,2,0,B|194:73|194:73|138:103,1,97.50000371933,2|0,0:0|0:0,0:0:0:0:
88,141,4637,2,0,P|138:172|189:163,1,97.50000371933,2|0,0:0|0:0,0:0:0:0:
252,162,5126,6,0,L|260:231,1,48.750001859665,2|0,0:0|0:0,0:0:0:0:
327,241,5452,1,2,0:0:0:0:
443,344,5778,70,0,P|406:317|348:321,1,97.50000371933,2|0,0:0|0:0,0:0:0:0:
293,365,6267,2,0,B|244:372|244:372|197:340,1,97.50000371933,2|0,0:0|0:0,0:0:0:0:
139,302,6756,2,0,P|184:269|233:273,1,97.50000371933,2|0,0:0|0:0,0:0:0:0:
299,287,7245,2,0,L|312:183,1,97.50000371933,2|0,0:0|0:0,0:0:0:0:
321,112,7734,6,0,L|369:91,1,48.750001859665,2|0,0:0|0:0,0:0:0:0:
370,16,8060,1,2,0:0:0:0:
242,106,8387,70,0,B|197:126|197:126|139:115,1,97.50000371933,2|0,0:0|0:0,0:0:0:0:
106,181,8876,2,0,B|126:226|126:226|115:284,1,97.50000371933,2|0,0:0|0:0,0:0:0:0:
181,317,9365,2,0,B|226:297|226:297|284:308,1,97.50000371933,2|0,0:0|0:0,0:0:0:0:
317,242,9854,2,0,B|297:197|297:197|308:139,1,97.50000371933,2|0,0:0|0:0,0:0:0:0:
326,74,10343,6,0,L|374:53,1,48.750001859665,2|0,0:0|0:0,0:0:0:0:
380,132,10669,1,2,0:0:0:0:
226,157,10995,70,0,L|144:191,2,65,6|0|2,0:0|0:0|0:3,0:0:0:0:
255,84,11484,2,0,L|265:-3,2,65,2|0|2,0:0|0:0|0:3,0:0:0:0:
303,145,11974,6,0,L|373:198,1,65,2|4,0:0|0:3,0:0:0:0:
416,231,12300,1,2,0:3:0:0:
407,307,12463,2,0,L|399:372,1,65,2|0,0:0|0:0,0:0:0:0:
330,334,12789,1,2,0:3:0:0:
267,287,12952,2,0,B|241:269|241:269|204:269,1,65,2|4,0:0|0:3,0:0:0:0:
129,272,13278,1,2,0:0:0:0:
130,116,13604,70,0,B|156:134|156:134|257:134,1,130,2|2,0:2|0:3,0:0:0:0:
320,94,14093,2,0,L|361:21,2,65,2|0|2,0:0|0:0|0:3,0:0:0:0:
322,171,14582,6,0,B|371:256|371:256|372:289,1,130,2|2,0:0|0:3,0:0:0:0:
368,366,15071,2,0,P|417:354|436:332,2,65,4|0|2,0:3|0:0|0:3,0:0:0:0:
302,323,15560,2,0,L|220:318,1,65,2|4,0:2|0:3,0:0:0:0:
171,276,15887,1,2,0:0:0:0:
171,108,16213,70,0,L|264:122,2,65,4|0|2,0:2|0:0|0:3,0:0:0:0:
94,95,16702,2,0,L|59:7,2,65,2|0|2,0:0|0:0|0:3,0:0:0:0:
121,168,17191,6,0,L|62:241,1,65,2|4,0:0|0:3,0:0:0:0:
109,291,17517,1,2,0:3:0:0:
161,233,17680,2,0,L|254:246,1,65,2|0,0:2|0:0,0:0:0:0:
250,317,18006,1,2,0:3:0:0:
326,331,18169,2,0,P|356:313|375:278,1,65,2|0,0:2|0:0,0:0:0:0:
300,258,18495,1,2,0:0:0:0:
257,107,18821,70,0,B|320:80|320:128|384:104,1,130,4|2,0:2|0:3,0:0:0:0:
456,72,19310,2,0,L|504:24,2,65,2|0|2,0:0|0:0|0:3,0:0:0:0:
447,151,19800,6,0,B|458:190|458:190|449:236|449:236|462:277,1,130,2|2,0:2|0:3,0:0:0:0:
485,351,20289,2,0,P|521:330|539:294,2,65,2|0|2,0:0|0:0|0:3,0:0:0:0:
408,333,20778,2,0,L|340:318,1,65,2|8,0:0|0:3,0:0:0:0:
313,247,21104,2,0,L|245:232,1,65,8|2,0:3|0:2,0:0:0:0:
218,161,21430,70,0,P|188:117|223:30,1,130,4|8,0:2|0:0,0:0:0:0:
265,98,21919,1,0,0:0:0:0:
297,171,22082,2,0,P|273:218|181:232,1,130,2|8,0:0|0:0,0:0:0:0:
143,191,22571,1,4,0:3:0:0:
69,219,22734,6,0,L|56:295,2,65,2|4|8,0:2|0:3|0:0,0:0:0:0:
81,140,23224,2,0,P|126:112|211:151,1,130,2|4,0:3|0:3,0:0:0:0:
224,205,23713,2,0,L|293:223,1,65,8|4,0:0|0:3,0:0:0:0:
362,238,24039,70,0,P|292:255|268:316,1,130,2|8,0:2|0:0,0:0:0:0:
344,312,24528,1,0,0:0:0:0:
417,291,24691,2,0,B|435:272|443:246|435:218|435:218|469:160,1,130,2|8,0:0|0:0,0:0:0:0:
446,97,25180,1,4,0:3:0:0:
370,120,25343,6,0,B|344:164|344:164|316:171|297:191|290:216,1,130,2|8,0:0|0:0,0:0:0:0:
261,288,25832,2,0,B|198:269|198:269|168:211,1,130,2|4,0:3|0:3,0:0:0:0:
137,138,26321,2,0,P|171:133|200:139,1,65,8|4,0:0|0:3,0:0:0:0:
249,200,26647,70,0,L|312:216,1,65,2|0,0:0|0:0,0:0:0:0:
314,137,26974,2,0,L|348:82,1,65,8|2,0:0|0:2,0:0:0:0:
274,55,27300,2,0,L|232:5,1,65,2|0,0:0|0:0,0:0:0:0:
183,67,27626,2,0,L|122:91,1,65,8|4,0:0|0:3,0:0:0:0:
166,157,27952,6,0,L|170:221,1,65,2|4,0:2|0:3,0:0:0:0:
175,299,28278,1,8,0:0:0:0:
238,255,28441,2,0,B|263:238|263:238|323:240,1,65,2|0,0:2|0:2,0:0:0:0:
375,243,28767,2,0,P|353:294|323:310,2,65,2|10|4,0:2|0:0|0:3,0:0:0:0:
340,175,29256,70,0,P|306:130|307:96,1,65,2|2,0:2|0:2,0:0:0:0:
382,111,29582,2,0,P|403:60|434:44,1,65,8|2,0:0|0:2,0:0:0:0:
458,115,29908,2,0,P|513:108|542:126,1,65,2|0,0:3|0:0,0:0:0:0:
492,182,30234,2,0,P|525:226|524:260,1,65,8|4,0:0|0:3,0:0:0:0:
450,244,30560,6,0,L|401:315,1,65,2|2,0:2|0:2,0:0:0:0:
340,268,30887,2,0,B|310:257|310:257|276:269,1,65,8|0,0:0|0:0,0:0:0:0:
206,296,31213,1,2,0:2:0:0:
145,246,31376,2,0,B|113:256,2,32.5,0|0|8,0:0|0:0|0:0,0:0:0:0:
219,219,31702,1,0,0:0:0:0:
232,141,31865,70,0,L|242:76,1,65,4|0,0:2|0:0,0:0:0:0:
304,169,32191,2,0,L|314:233,1,65,8|2,0:0|0:2,0:0:0:0:
347,104,32517,2,0,L|357:39,1,65,2|0,0:3|0:0,0:0:0:0:
418,131,32843,2,0,L|429:196,1,65,8|4,0:0|0:3,0:0:0:0:
486,248,33169,6,0,P|427:226|374:259,1,130,2|8,0:2|0:0,0:0:0:0:
348,333,33658,2,0,B|307:305|307:305|207:316,1,130,2|2,0:3|0:2,0:0:0:0:
136,249,34147,1,8,0:0:0:0:
150,327,34310,1,4,0:3:0:0:
214,235,34474,70,0,B|209:203|209:203|181:183,1,65,2|0,0:2|0:0,0:0:0:0:
239,130,34800,2,0,B|212:111|212:111|207:79,1,65,8|0,0:0|0:0,0:0:0:0:
285,71,35126,2,0,B|311:89|311:89|316:121,1,65,2|0,0:3|0:0,0:0:0:0:
286,193,35452,2,0,B|291:225|291:225|317:243,1,65,8|4,0:0|0:3,0:0:0:0:
395,242,35778,6,0,L|468:198,2,65,2|0|8,0:2|0:0|0:0,0:0:0:0:
356,309,36267,2,0,P|327:321|296:315,1,65,2|2,0:3|0:2,0:0:0:0:
240,259,36593,1,4,0:3:0:0:
163,279,36756,1,8,0:0:0:0:
218,335,36919,1,4,0:3:0:0:
185,200,37082,70,0,L|169:137,1,65,2|0,0:2|0:0,0:0:0:0:
251,151,37408,2,0,L|309:95,1,65,8|2,0:0|0:2,0:0:0:0:
340,172,37734,2,0,L|387:127,1,65,2|0,0:3|0:0,0:0:0:0:
453,76,38060,2,0,L|469:140,1,65,8|4,0:0|0:3,0:0:0:0:
479,223,38387,6,0,L|416:204,1,65,2|0,0:2|0:0,0:0:0:0:
340,172,38713,1,8,0:0:0:0:
274,222,38876,2,0,L|227:267,1,65,2|2,0:3|0:2,0:0:0:0:
168,318,39202,2,0,P|200:341|246:340,1,65,0|8,0:0|0:0,0:0:0:0:
293,307,39528,1,4,0:3:0:0:
367,330,39691,69,2,0:2:0:0:
310,382,39854,1,2,0:2:0:0:
349,254,40017,2,0,L|396:209,1,65,8|2,0:0|0:2,0:0:0:0:
275,232,40343,2,0,L|259:168,1,65,2|2,0:3|0:2,0:0:0:0:
218,285,40669,2,0,L|155:266,1,65,8|4,0:0|0:3,0:0:0:0:
78,165,40995,5,2,0:2:0:0:
154,188,41158,1,4,0:3:0:0:
32,230,41321,2,0,P|6:265|4:308,1,65,8|2,0:0|0:3,0:0:0:0:
111,346,41647,2,0,P|93:305|57:282,1,65,4|0,0:2|0:0,0:0:0:0:
78,165,41974,2,0,L|123:101,1,65,2|0,0:3|0:0,0:0:0:0:
159,47,42300,70,0,B|185:75|185:75|286:75,1,130,6|8,0:2|0:0,0:0:0:0:
334,127,42789,1,4,0:3:0:0:
317,202,42952,2,0,P|332:230|358:249,2,65,2|0|8,0:2|0:0|0:0,0:0:0:0:
260,149,43441,6,0,P|227:148|167:234,1,130,8|4,0:3|0:3,0:0:0:0:
197,285,43930,1,8,0:0:0:0:
243,224,44093,2,0,L|328:233,1,65,2|0,0:2|0:0,0:0:0:0:
384,241,44419,1,2,0:3:0:0:
354,169,44582,2,0,L|319:90,1,65,8|2,0:0|0:2,0:0:0:0:
259,69,44908,70,0,P|227:77|202:96,1,65,2|0,0:2|0:0,0:0:0:0:
134,58,45234,2,0,P|124:88|128:120,1,65,8|4,0:0|0:3,0:0:0:0:
61,160,45560,2,0,P|82:183|112:195,1,65,2|0,0:2|0:0,0:0:0:0:
112,274,45887,2,0,P|143:266|168:247,1,65,8|0,0:0|0:0,0:0:0:0:
184,172,46213,6,0,B|246:152|246:152|287:152|322:181,1,130,2|8,0:3|0:0,0:0:0:0:
326,244,46702,2,0,L|412:268,1,65,2|2,0:3|0:2,0:0:0:0:
444,208,47028,1,2,0:3:0:0:
424,133,47191,2,0,L|337:109,1,65,8|2,0:0|0:2,0:0:0:0:
287,90,47517,70,0,P|281:122|291:153,1,65,2|0,0:3|0:0,0:0:0:0:
232,204,47843,2,0,P|257:224|288:231,1,65,8|4,0:0|0:3,0:0:0:0:
358,197,48169,2,0,P|389:204|414:224,1,65,2|0,0:3|0:0,0:0:0:0:
354,274,48495,2,0,P|363:304|358:336,1,65,8|4,0:0|0:3,0:0:0:0:
285,309,48821,6,0,B|207:349|207:349|158:335,1,130,2|8,0:2|0:0,0:0:0:0:
93,308,49310,2,0,P|111:281|142:264,1,65,2|2,0:3|0:2,0:0:0:0:
216,256,49637,1,2,0:3:0:0:
246,184,49800,2,0,L|226:111,1,65,8|2,0:0|0:2,0:0:0:0:
210,45,50126,70,0,P|229:13|261:-8,1,65,2|0,0:3|0:0,0:0:0:0:
285,66,50452,2,0,P|322:66|356:83,1,65,8|4,0:0|0:3,0:0:0:0:
305,142,50778,2,0,P|335:153|367:153,1,65,2|2,0:3|0:2,0:0:0:0:
401,222,51104,2,0,P|426:201|441:173,1,65,8|2,0:0|0:2,0:0:0:0:
422,97,51430,6,0,L|484:31,2,65,2|2|4,0:2|0:2|0:2,0:0:0:0:
347,77,51919,1,2,3:2:0:0:
347,77,52001,1,0,3:0:0:0:
347,77,52082,2,0,L|258:56,2,65,2|2|2,3:2|3:2|3:2,0:0:0:0:
367,151,52734,70,0,L|386:215,2,48.750001859665,2|0|0,0:0|0:0|0:0,0:0:0:0:
292,131,53224,2,0,L|294:198,2,48.750001859665,2|0|0,0:0|0:0|0:0,0:0:0:0:
224,92,53713,2,0,L|208:157,1,48.750001859665,2|0,0:0|0:0,0:0:0:0:
196,215,54039,6,0,L|215:297,2,65,8|2|8,0:0|0:3|3:1,0:0:0:0:
139,162,54528,1,2,3:3:0:0:
139,162,54609,1,0,3:1:0:0:
139,162,54691,2,0,L|97:149,3,32.5,8|0|2|0,3:1|0:0|3:3|3:1,0:0:0:0:
84,227,55017,2,0,L|52:236,3,32.5,8|0|2|0,3:1|3:1|3:3|3:1,0:0:0:0:
70,310,55343,6,8,P|82:350|121:376,1,65,4|0,0:2|0:0,0:0:0:0:
147,306,55669,2,0,L|213:303,1,65,8|2,0:0|0:2,0:0:0:0:
289,297,55995,1,2,0:3:0:0:
254,366,56158,1,2,0:2:0:0:
246,231,56321,2,0,P|276:220|308:220,1,65,8|2,0:0|0:2,0:0:0:0:
365,273,56647,6,0,L|377:353,2,65,2|2|8,0:3|0:2|0:0,0:0:0:0:
383,198,57137,2,0,B|392:136|392:136|389:99|343:67,1,130,2|2,0:2|0:2,0:0:0:0:
290,41,57626,1,8,0:0:0:0:
221,81,57789,1,2,0:2:0:0:
221,160,57952,6,0,P|200:182|162:199,1,65,4|2,0:2|0:2,0:0:0:0:
152,121,58278,2,0,P|122:113|88:89,1,65,8|2,0:0|0:2,0:0:0:0:
151,41,58604,1,2,0:3:0:0:
221,81,58767,1,2,0:2:0:0:
290,41,58930,2,0,L|363:-2,1,65,8|2,0:0|0:2,0:0:0:0:
397,66,59256,6,0,L|470:23,2,65,2|2|8,0:3|0:2|0:0,0:0:0:0:
331,108,59745,2,0,P|318:185|367:232,1,130,2|2,0:2|0:2,0:0:0:0:
424,231,60234,1,8,0:0:0:0:
394,158,60397,1,2,0:2:0:0:
377,294,60560,38,0,L|291:309,1,65,4|2,0:2|0:2,0:0:0:0:
263,240,60887,2,0,L|198:228,1,65,8|2,0:0|0:2,0:0:0:0:
156,157,61213,2,0,L|70:172,2,65,2|2|8,0:3|0:2|0:0,0:0:0:0:
233,144,61702,1,2,0:2:0:0:
259,69,61865,6,0,P|288:54|320:51,1,65,4|2,0:2|0:2,0:0:0:0:
310,130,62191,2,0,P|337:147|356:173,1,65,8|2,0:0|0:2,0:0:0:0:
284,204,62517,2,0,P|302:230|330:247,1,65,2|2,0:3|0:2,0:0:0:0:
319,325,62843,2,0,P|351:323|379:306,1,65,8|2,0:0|0:2,0:0:0:0:
406,233,63169,6,0,L|480:216,1,65,4|2,0:2|0:2,0:0:0:0:
355,174,63495,2,0,L|377:101,1,65,8|2,0:0|0:2,0:0:0:0:
279,188,63821,2,0,L|227:132,1,65,2|2,0:3|0:2,0:0:0:0:
253,261,64147,2,0,L|179:278,1,65,8|2,0:0|0:2,0:0:0:0:
122,369,64474,6,0,P|176:337|189:275,1,130,4|8,0:2|0:0,0:0:0:0:
112,290,64963,2,0,L|38:307,1,65,2|4,0:3|3:2,0:0:0:0:
57,227,65289,1,2,3:3:0:0:
57,227,65370,1,0,3:0:0:0:
57,227,65452,2,0,L|103:216,3,32.5,8|2|0|0,3:1|3:2|3:1|3:1,0:0:0:0:
64,144,65778,38,0,P|126:148|165:198,1,130,4|8,0:2|0:0,0:0:0:0:
188,273,66267,1,2,0:2:0:0:
241,216,66430,2,0,L|327:200,1,65,2|2,0:3|0:2,0:0:0:0:
299,126,66756,2,0,L|385:110,1,65,8|2,0:0|0:2,0:0:0:0:
357,36,67082,6,0,P|408:48|443:115,1,130,2|8,0:3|0:0,0:0:0:0:
402,179,67571,2,0,L|365:263,1,65,2|2,0:2|0:3,0:0:0:0:
345,310,67897,1,2,0:2:0:0:
268,319,68060,2,0,L|204:327,1,65,8|2,0:0|0:2,0:0:0:0:
134,364,68387,6,0,P|173:320|162:228,1,130,4|8,0:2|0:0,0:0:0:0:
128,188,68876,1,2,0:2:0:0:
159,115,69039,2,0,L|198:28,1,65,2|2,0:3|0:2,0:0:0:0:
243,107,69365,2,0,L|337:97,1,65,8|2,0:0|0:2,0:0:0:0:
291,175,69691,6,0,B|328:228|328:228|312:321,1,130,2|8,0:3|0:0,0:0:0:0:
303,369,70180,2,0,P|347:362|383:332,1,65,2|2,0:2|0:3,0:0:0:0:
395,280,70506,1,2,0:2:0:0:
472,267,70669,2,0,L|483:202,1,65,8|2,0:0|0:2,0:0:0:0:
495,127,70982,38,0,P|463:128|435:144,1,65,4|2,0:2|0:2,0:0:0:0:
377,96,71307,2,0,P|361:124|361:156,1,65,8|2,0:0|0:2,0:0:0:0:
318,221,71633,2,0,P|317:253|302:281,1,65,2|2,0:3|0:2,0:0:0:0:
243,233,71960,2,0,P|214:248|182:249,1,65,8|2,0:0|0:2,0:0:0:0:
154,123,72286,6,0,L|195:174,1,65,4|2,0:2|0:2,0:0:0:0:
212,74,72612,2,0,L|202:10,1,65,8|2,0:0|0:2,0:0:0:0:
310,10,72938,2,0,L|299:74,1,65,2|2,0:3|0:2,0:0:0:0:
317,174,73264,2,0,L|357:123,1,65,8|2,0:0|0:2,0:0:0:0:
410,62,73590,6,0,P|438:119|395:190,1,130,4|8,0:2|0:0,0:0:0:0:
364,236,74079,1,2,0:2:0:0:
359,313,74242,2,0,L|355:397,1,65,2|2,0:3|0:2,0:0:0:0:
294,270,74568,2,0,L|219:308,1,65,8|2,0:0|0:2,0:0:0:0:
169,187,74894,6,0,L|227:217,1,65,4|2,0:2|0:2,0:0:0:0:
147,111,75220,2,0,P|118:125|99:150,1,65,8|2,0:0|0:2,0:0:0:0:
105,228,75546,2,0,P|117:257|115:289,1,65,2|2,0:3|0:2,0:0:0:0:
69,353,75873,2,0,L|21:364,3,32.5,8|0|2|0,0:0|0:0|0:2|0:0,0:0:0:0:
149,360,76199,38,0,L|241:346,1,65,4|2,0:2|0:2,0:0:0:0:
255,284,76525,2,0,L|319:293,1,65,8|2,0:0|0:2,0:0:0:0:
396,304,76851,1,2,0:3:0:0:
366,232,77014,1,2,0:2:0:0:
413,170,77177,2,0,L|453:119,1,65,8|2,0:0|0:2,0:0:0:0:
392,74,77503,6,0,L|351:124,1,65,4|2,0:2|0:2,0:0:0:0:
300,184,77829,2,0,L|235:174,1,65,8|2,0:0|0:2,0:0:0:0:
158,163,78155,1,2,0:3:0:0:
206,100,78318,1,2,0:2:0:0:
175,26,78481,2,0,P|129:9|90:16,1,65,8|2,0:0|0:2,0:0:0:0:
126,89,78807,6,0,P|88:120|74:157,1,65,4|2,0:2|0:2,0:0:0:0:
158,163,79133,2,0,P|195:194|209:231,1,65,8|2,0:0|0:2,0:0:0:0:
130,236,79460,2,0,L|51:264,2,65,2|2|8,0:3|0:2|0:0,0:0:0:0:
191,284,79949,1,2,0:2:0:0:
263,255,80112,6,0,L|326:309,2,65,2|2|8,0:3|0:2|0:0,0:0:0:0:
274,179,80601,1,2,0:2:0:0:
274,179,80682,1,0,0:0:0:0:
274,179,80764,2,0,L|353:151,1,65,2|2,0:3|0:2,0:0:0:0:
337,79,81090,2,0,L|257:107,1,65,8|2,0:0|0:2,0:0:0:0:
206,123,81416,38,0,L|144:101,1,65,4|2,0:2|0:2,0:0:0:0:
71,75,81742,2,0,P|73:132|95:158,1,65,8|2,0:0|0:2,0:0:0:0:
141,180,82068,1,2,0:3:0:0:
136,257,82231,1,2,0:2:0:0:
66,291,82394,2,0,L|6:317,1,65,8|2,0:0|0:2,0:0:0:0:
129,336,82720,6,0,L|206:354,1,65,4|2,0:2|0:2,0:0:0:0:
254,304,83046,2,0,L|331:322,1,65,8|2,0:0|0:2,0:0:0:0:
374,266,83373,1,2,0:3:0:0:
350,193,83536,1,2,0:2:0:0:
275,176,83699,2,0,L|197:157,1,65,8|2,0:0|0:2,0:0:0:0:
134,138,84025,6,0,P|182:172|172:259,1,130,4|8,0:2|0:0,0:0:0:0:
130,294,84514,1,2,0:2:0:0:
130,294,84595,1,0,0:0:0:0:
130,294,84677,2,0,L|54:305,1,65,4|2,0:2|0:2,0:0:0:0:
5,215,85003,2,0,L|70:225,1,65,8|2,0:0|0:2,0:0:0:0:
134,137,85329,6,0,P|187:113|257:165,1,130,8|8,0:3|3:0,0:0:0:0:
285,211,85818,1,2,3:3:0:0:
285,211,85900,1,0,3:0:0:0:
285,211,85981,1,8,3:0:0:0:
328,275,86144,2,0,L|315:335,2,32.5,2|0|8,3:3|3:0|3:3,0:0:0:0:
362,206,86470,1,0,3:0:0:0:
362,206,86552,1,0,3:0:0:0:
362,206,86633,38,0,B|392:144|336:144|368:80,1,130,4|8,0:2|0:0,0:0:0:0:
384,7,87123,1,2,0:2:0:0:
491,71,87286,1,2,0:3:0:0:
461,0,87449,1,2,0:2:0:0:
432,120,87612,2,0,P|456:140|497:148,1,65,8|2,0:0|0:2,0:0:0:0:
498,225,87938,6,0,P|516:267|481:343,1,130,2|8,0:3|0:0,0:0:0:0:
406,348,88427,1,2,0:2:0:0:
362,282,88590,1,2,0:3:0:0:
439,277,88753,1,2,0:2:0:0:
328,354,88916,2,0,L|252:359,1,65,8|2,0:0|0:2,0:0:0:0:
206,304,89242,6,0,L|130:309,2,65,4|2|8,0:2|0:2|0:0,0:0:0:0:
258,246,89731,1,2,0:2:0:0:
310,188,89894,2,0,L|305:112,2,65,2|2|8,0:3|0:2|0:0,0:0:0:0:
368,240,90383,1,2,0:2:0:0:
426,292,90546,6,0,L|502:287,1,65,4|2,0:2|0:2,0:0:0:0:
442,215,90873,2,0,L|475:146,1,65,8|2,0:0|0:2,0:0:0:0:
382,160,91199,2,0,L|410:101,1,65,2|2,0:3|0:2,0:0:0:0:
441,30,91525,2,0,P|408:25|372:36,1,65,8|2,0:0|0:2,0:0:0:0:
329,94,91851,38,0,P|264:114|199:94,1,130,4|8,0:2|0:0,0:0:0:0:
155,38,92340,1,2,0:2:0:0:
77,50,92503,1,2,0:3:0:0:
50,125,92666,1,2,0:2:0:0:
101,184,92829,2,0,L|77:255,1,65,8|2,0:0|0:2,0:0:0:0:
22,299,93155,6,0,B|84:279|84:279|172:302,1,130,4|8,0:2|0:0,0:0:0:0:
221,316,93644,1,2,0:2:0:0:
263,251,93807,1,2,0:3:0:0:
214,190,93970,1,2,0:2:0:0:
140,217,94133,2,0,B|77:200,1,65,8|2,0:0|0:2,0:0:0:0:
2,178,94460,6,0,P|18:149|54:128,1,65,4|2,0:2|0:2,0:0:0:0:
163,70,94786,1,8,0:0:0:0:
121,136,94949,1,2,0:2:0:0:
5,62,95112,1,8,0:0:0:0:
84,66,95275,1,2,0:2:0:0:
77,199,95438,2,0,B|93:263,1,65,8|2,0:0|0:2,0:0:0:0:
169,281,95764,6,0,B|160:312,3,32.5,8|2|2|2,3:1|3:2|3:3|3:2,0:0:0:0:
244,259,96090,2,0,B|293:245,3,32.5,8|0|2|0,3:1|3:1|3:3|3:1,0:0:0:0:
187,205,96416,2,0,B|150:169,3,32.5,8|2|2|2,3:1|3:2|3:3|3:2,0:0:0:0:
205,115,96742,37,4,3:1:0:0:
