osu file format v14

[General]
AudioFilename: monokuro.mp3
AudioLeadIn: 1500
PreviewTime: 54331
Countdown: 0
SampleSet: Soft
StackLeniency: 0.7
Mode: 0
LetterboxInBreaks: 0
WidescreenStoryboard: 0

[Editor]
DistanceSpacing: 1
BeatDivisor: 4
GridSize: 8
TimelineZoom: 2.5

[Metadata]
Title:Ame, Kimi o Tsurete
TitleUnicode:雨、キミを連れて
Artist:EGOIST
ArtistUnicode:EGOIST
Creator:monstrata
Version:Easy
Source:
Tags:ryo supercell chelly guilty crown inori yuzuriha shu ouma extra terrestrial biological entities milan- ギルティクラウン
BeatmapID:774571
BeatmapSetID:346301

[Difficulty]
HPDrainRate:2
CircleSize:3
OverallDifficulty:2
ApproachRate:3
SliderMultiplier:0.9
SliderTickRate:1

[Events]
//Background and Video events
0,0,"guiltycrown.jpg",0,0
//Break Periods
//Storyboard Layer 0 (Background)
//Storyboard Layer 1 (Fail)
//Storyboard Layer 2 (Pass)
//Storyboard Layer 3 (Foreground)
//Storyboard Sound Samples

[TimingPoints]
561,326.086956521739,4,2,1,50,1,0
5778,-100,4,2,1,55,0,0
10995,-100,4,2,1,50,0,0
39691,-100,4,2,1,50,0,0
41647,-100,4,1,1,60,0,0
41810,-100,4,2,1,50,0,0
54039,-100,4,1,1,50,0,0
55343,-100,4,1,1,50,0,1
65696,-100,4,1,1,50,0,0
65778,-100,4,1,1,50,0,1
70982,326.086956521739,4,1,1,50,1,1
76117,-100,4,1,1,50,0,0
76199,-100,4,1,1,50,0,1
86552,-100,4,1,1,50,0,0
86634,-100,4,1,1,50,0,1
96742,-100,4,1,1,70,0,0

[Colours]
Combo1 : 128,128,128
Combo2 : 128,255,255
Combo3 : 187,119,255
Combo4 : 248,164,61
Combo5 : 255,155,255
Combo6 : 213,213,213

[HitObjects]
168,56,561,70,0,B|89:180|233:180|168:309,2,270,2|2|2,0:0|0:0|0:0,0:0:0:0:
344,56,3169,6,0,B|422:180|278:180|343:309,2,270,2|2|2,0:0|0:0|0:0,0:0:0:0:
164,36,5778,70,0,B|101:75|136:154|136:154|214:188|254:126,2,270,2|2|2,0:0|0:0|0:0,0:0:0:0:
344,31,8387,6,0,B|407:40|418:75|418:75|393:117|412:159|412:159|389:200|414:246,2,270,2|2|2,0:0|0:0|0:0,0:0:0:0:
167,65,10995,70,0,L|105:146,1,90,6|2,0:0|0:3,0:0:0:0:
59,209,11647,2,0,B|144:248|144:192|240:232,1,180,0|2,0:0|0:3,0:0:0:0:
288,301,12626,1,0,0:0:0:0:
376,289,12952,2,0,P|403:253|410:208,1,90,2|2,0:0|0:0,0:0:0:0:
358,138,13604,6,0,L|256:120,1,90,2|2,0:2|0:3,0:0:0:0:
180,107,14256,2,0,B|126:155|126:155|103:215|147:275,1,180,0|2,0:0|0:3,0:0:0:0:
202,318,15234,1,0,0:0:0:0:
269,261,15560,2,0,L|358:246,1,90,2|2,0:2|0:0,0:0:0:0:
446,230,16213,70,0,P|427:188|391:163,1,90,4|2,0:2|0:3,0:0:0:0:
302,172,16865,2,0,P|306:127|332:91,2,90,0|2|2,0:0|0:0|0:3,0:0:0:0:
358,246,17843,1,0,0:0:0:0:
321,331,18169,2,0,B|280:345|280:345|236:332,1,90,2|2,0:2|0:0,0:0:0:0:
147,312,18821,6,0,P|165:273|216:246,1,90,4|2,0:2|0:3,0:0:0:0:
258,176,19474,2,0,L|247:72,2,90,0|2|2,0:0|0:2|0:3,0:0:0:0:
324,236,20452,1,0,0:0:0:0:
389,297,20778,2,0,L|493:286,1,90,2|8,0:0|0:3,0:0:0:0:
495,199,21430,70,0,L|391:210,1,90,4|8,0:2|0:0,0:0:0:0:
364,128,22082,2,0,L|260:117,1,90,2|8,0:0|0:0,0:0:0:0:
184,111,22734,2,0,B|178:148|197:176|218:190|218:190|215:245,2,135,2|2|8,0:2|0:3|0:0,0:0:0:0:
189,20,24039,6,0,P|151:25|102:70,1,90,2|8,0:2|0:0,0:0:0:0:
36,4,24691,2,0,P|21:39|35:104,1,90,2|8,0:0|0:0,0:0:0:0:
98,145,25343,2,0,B|108:234|108:234|77:281,2,135,2|2|8,0:0|0:3|0:0,0:0:0:0:
184,111,26647,70,0,L|273:123,1,90,2|8,0:0|0:0,0:0:0:0:
300,209,27300,2,0,L|389:221,1,90,2|8,0:0|0:0,0:0:0:0:
416,307,27952,2,0,P|465:270|474:196,2,135,2|2|10,0:2|0:2|0:0,0:0:0:0:
327,323,29256,6,0,L|238:335,1,90,2|8,0:2|0:0,0:0:0:0:
154,299,29908,1,2,0:3:0:0:
143,208,30234,1,8,0:0:0:0:
216,152,30560,2,0,P|234:197|227:243,2,90,2|8|2,0:2|0:0|0:2,0:0:0:0:
132,117,31539,1,8,0:0:0:0:
59,172,31865,70,0,P|52:225|68:261,1,90,4|8,0:2|0:0,0:0:0:0:
114,332,32517,2,0,B|160:337|160:337|208:313,1,90,2|8,0:3|0:0,0:0:0:0:
283,286,33169,2,0,B|325:285|325:285|352:304|387:304|412:285,2,135,2|2|8,0:2|0:3|0:0,0:0:0:0:
211,230,34474,6,0,L|180:129,1,90,2|8,0:2|0:0,0:0:0:0:
154,59,35126,2,0,P|208:57|254:86,1,90,2|8,0:3|0:0,0:0:0:0:
278,153,35778,2,0,B|326:161|326:161|418:135,2,135,2|2|8,0:2|0:3|0:0,0:0:0:0:
184,143,37082,70,0,B|75:161,1,90,2|8,0:2|0:0,0:0:0:0:
62,241,37734,2,0,B|170:259,1,90,2|8,0:3|0:0,0:0:0:0:
239,269,38387,2,0,P|212:323|137:344,2,135,2|2|8,0:2|0:3|0:0,0:0:0:0:
206,185,39691,6,0,P|257:181|304:207,1,90,2|8,0:2|0:0,0:0:0:0:
327,278,40343,1,2,0:3:0:0:
415,287,40669,1,8,0:0:0:0:
466,215,40995,2,0,P|447:152|431:135,1,90,2|8,0:2|0:0,0:0:0:0:
343,124,41647,1,4,0:2:0:0:
289,194,41974,1,2,0:3:0:0:
201,182,42300,70,0,L|142:256,2,90,6|8|2,0:2|0:0|0:2,0:0:0:0:
168,100,43278,1,8,0:0:0:0:
223,31,43604,2,0,L|316:44,2,90,0|8|0,0:0|0:0|0:0,0:0:0:0:
135,17,44582,1,8,0:0:0:0:
79,87,44908,6,0,P|91:145|203:181,1,180,2|2,0:2|0:2,0:0:0:0:
256,114,45887,1,8,0:0:0:0:
344,128,46213,2,0,P|375:201|308:284,1,180,2|2,0:3|0:2,0:0:0:0:
234,268,47191,1,8,0:0:0:0:
200,186,47517,70,0,B|146:179|146:179|106:189,2,90,2|8|2,0:3|0:0|0:3,0:0:0:0:
289,197,48495,1,8,0:0:0:0:
344,127,48821,2,0,P|373:171|373:224,2,90,2|8|2,0:2|0:0|0:2,0:0:0:0:
257,115,49800,1,8,0:0:0:0:
224,33,50126,6,0,P|182:69|169:111,1,90,2|8,0:3|0:0,0:0:0:0:
200,186,50778,1,2,0:3:0:0:
139,252,51104,1,8,0:0:0:0:
165,337,51430,2,0,B|210:356|252:333|252:333|308:347,2,135,2|2|4,0:2|3:2|3:2,0:0:0:0:
76,319,52734,70,0,P|49:269|71:190,2,135,2|2|2,0:0|0:0|0:0,0:0:0:0:
139,251,54039,2,0,L|219:165,1,90,8|8,0:0|3:1,0:0:0:0:
262,120,54691,2,0,P|288:158|272:235,1,90,8|8,3:1|3:1,0:0:0:0:
248,280,55343,22,0,B|293:233|293:233|351:261|404:237,1,180,4|2,0:2|0:3,0:0:0:0:
471,176,56321,1,8,0:0:0:0:
441,91,56647,2,0,L|465:-33,2,90,2|8|2,0:3|0:0|0:3,0:0:0:0:
383,160,57626,1,8,0:0:0:0:
325,229,57952,6,0,B|239:258|239:258|141:240,1,180,4|2,0:2|0:3,0:0:0:0:
62,225,58930,1,8,0:0:0:0:
30,139,59256,2,0,P|50:94|90:69,2,90,2|8|2,0:3|0:0|0:3,0:0:0:0:
120,155,60234,1,8,0:0:0:0:
151,241,60560,6,0,B|239:258|239:258|325:229,1,180,4|2,0:2|0:3,0:0:0:0:
408,195,61539,1,8,0:0:0:0:
478,248,61865,2,0,L|463:350,2,90,4|8|2,0:2|0:0|0:3,0:0:0:0:
490,162,62843,1,8,0:0:0:0:
420,107,63169,6,0,P|368:115|331:151,1,90,4|8,0:2|0:0,0:0:0:0:
351,226,63821,2,0,P|299:218|262:182,1,90,2|8,0:3|0:0,0:0:0:0:
202,136,64474,2,0,B|136:112|136:152|64:128,2,135,4|2|8,0:2|0:3|3:1,0:0:0:0:
288,109,65778,38,0,L|374:47,1,90,4|8,0:2|0:0,0:0:0:0:
437,9,66430,2,0,L|446:98,1,90,2|8,0:3|0:0,0:0:0:0:
449,187,67082,2,0,L|366:150,2,90,2|8|2,0:3|0:0|0:3,0:0:0:0:
460,276,68060,1,8,0:0:0:0:
388,330,68387,6,0,B|351:357|351:357|301:357,1,90,4|8,0:2|0:0,0:0:0:0:
321,268,69039,2,0,B|279:249|279:249|254:206,1,90,2|8,0:3|0:0,0:0:0:0:
341,178,69691,2,0,B|336:132|336:132|361:89,2,90,2|8|2,0:3|0:0|0:3,0:0:0:0:
404,242,70669,1,8,0:0:0:0:
388,330,70982,5,4,0:2:0:0:
303,360,71307,2,0,P|262:341|234:296,2,90,8|2|8,0:0|0:3|0:0,0:0:0:0:
320,272,72286,1,4,0:2:0:0:
337,184,72612,2,0,L|436:149,2,90,8|2|8,0:0|0:3|0:0,0:0:0:0:
253,214,73590,6,0,L|173:145,1,90,4|8,0:2|0:0,0:0:0:0:
116,97,74242,2,0,P|95:143|102:193,1,90,2|8,0:3|0:0,0:0:0:0:
163,247,74894,1,4,0:2:0:0:
227,311,75220,1,8,0:0:0:0:
307,269,75546,1,2,0:3:0:0:
291,179,75873,1,8,0:0:0:0:
199,166,76199,38,0,P|216:124|250:96,1,90,4|8,0:2|0:0,0:0:0:0:
340,102,76851,2,0,L|447:111,1,90,2|8,0:3|0:0,0:0:0:0:
469,188,77503,2,0,L|362:197,1,90,4|8,0:2|0:0,0:0:0:0:
289,205,78155,2,0,P|304:247|339:275,1,90,2|8,0:3|0:0,0:0:0:0:
410,330,78807,6,0,B|348:308|348:308|203:323,1,180,4|2,0:2|0:3,0:0:0:0:
145,334,79786,1,8,0:0:0:0:
87,263,80112,2,0,L|14:172,2,90,2|8|2,0:3|0:0|0:3,0:0:0:0:
178,249,81090,1,8,0:0:0:0:
210,163,81416,6,0,P|253:144|307:152,1,90,4|8,0:2|0:0,0:0:0:0:
269,235,82068,2,0,P|288:275|324:300,1,90,2|8,0:3|0:0,0:0:0:0:
355,215,82720,2,0,L|451:194,1,90,4|8,0:2|0:0,0:0:0:0:
442,106,83373,2,0,L|354:86,1,90,2|8,0:3|0:0,0:0:0:0:
266,64,84025,6,0,B|245:114|245:114|248:185|248:185|231:236,1,180,4|4,0:2|0:2,0:0:0:0:
199,322,85003,1,8,0:0:0:0:
288,306,85329,2,0,L|397:286,2,90,8|8|8,0:3|3:0|3:0,0:0:0:0:
230,236,86307,1,8,3:3:0:0:
143,252,86633,38,0,L|34:271,2,90,4|8|2,0:2|0:0|0:3,0:0:0:0:
174,169,87612,1,8,0:0:0:0:
260,152,87938,2,0,P|306:189|320:236,2,90,2|8|2,0:3|0:0|0:3,0:0:0:0:
230,236,88916,1,8,0:0:0:0:
287,303,89242,6,0,L|351:378,1,90,4|8,0:2|0:0,0:0:0:0:
394,296,89894,2,0,L|490:278,1,90,2|8,0:3|0:0,0:0:0:0:
441,199,90546,2,0,L|473:106,1,90,4|8,0:2|0:0,0:0:0:0:
380,109,91199,2,0,L|315:34,1,90,2|8,0:3|0:0,0:0:0:0:
271,116,91851,6,0,L|174:133,2,90,4|8|2,0:2|0:0|0:3,0:0:0:0:
331,182,92829,1,8,0:0:0:0:
395,245,93155,2,0,L|491:262,1,90,4|8,0:2|0:0,0:0:0:0:
429,332,93807,2,0,L|333:315,1,90,2|8,0:3|0:0,0:0:0:0:
281,383,94460,5,4,0:2:0:0:
199,346,94786,1,8,0:0:0:0:
208,256,95112,1,8,0:0:0:0:
296,236,95438,1,8,0:0:0:0:
322,149,95764,38,0,P|267:62|244:175,1,270,8|4,3:1|3:1,0:0:0:0:
