osu file format v12

[General]
AudioFilename: EFM - 7 - Raver Raver Raver.mp3
AudioLeadIn: 2000
PreviewTime: 11032
Countdown: 0
SampleSet: Soft
StackLeniency: 0.7
Mode: 0
LetterboxInBreaks: 0

[Editor]
DistanceSpacing: 1
BeatDivisor: 4
GridSize: 4

[Metadata]
Title:Raver Raver Raver
TitleUnicode:Raver Raver Raver
Artist:EFM-7
ArtistUnicode:EFM-7
Creator:Katty Pie
Version:Hard
Source:
Tags:yanlu hardcore heaven 3
BeatmapID:216139
BeatmapSetID:76830

[Difficulty]
HPDrainRate:6
CircleSize:4
OverallDifficulty:6
ApproachRate:7
SliderMultiplier:1.6
SliderTickRate:1

[Events]
//Background and Video events
0,0,"rrrrr.jpg",0,0
//Break Periods
//Storyboard Layer 0 (Background)
//Storyboard Layer 1 (Fail)
//Storyboard Layer 2 (Pass)
//Storyboard Layer 3 (Foreground)
//Storyboard Sound Samples
//Background Colour Transformations
3,100,163,162,255

[TimingPoints]
94,341.880341880342,4,2,0,60,1,0
6931,-100,4,1,0,20,0,0
7273,-100,4,1,0,25,0,0
7615,-100,4,1,0,30,0,0
7871,-100,4,1,0,35,0,0
8299,-100,4,1,0,40,0,0
8982,-100,4,1,0,50,0,0
9666,-100,4,2,0,60,0,0
11034,-100,4,1,0,50,0,1
31546,-100,4,2,0,80,0,1
32899,341.102899374645,4,2,0,40,1,0
54729,-100,4,2,0,60,0,0
73831,-100,4,1,0,30,0,0
74172,-100,4,1,0,35,0,0
74513,-100,4,1,0,40,0,0
74854,-100,4,1,0,45,0,0
75195,-100,4,2,0,60,0,0
76565,340.715502555366,4,1,0,50,1,0
107910,-100,4,3,0,35,0,0
109273,-100,4,1,0,60,0,1
109444,-100,4,1,0,40,0,0
120176,-100,4,1,0,60,0,1
120346,-100,4,2,0,60,0,0
131079,-100,4,1,0,60,0,0

[Colours]
Combo1 : 0,255,255
Combo2 : 255,255,0
Combo3 : 251,121,248
Combo4 : 157,255,60
Combo5 : 168,81,255
Combo6 : 255,128,64
SliderBorder : 200,200,200

[HitObjects]
200,136,94,2,0,P|252:88|312:144,1,160,4|2,0:0|0:0,0:0:0:0:
368,192,606,1,0,0:0:0:0:
312,248,777,2,0,P|260:296|200:240,1,160,2|2,0:0|0:0,0:0:0:0:
144,192,1290,1,0,0:0:0:0:
52,192,1461,2,0,P|80:108|144:76,1,160,2|0,0:0|0:0,0:0:0:0:
256,48,1974,1,0,0:0:0:0:
372,76,2145,2,0,P|432:108|460:192,1,160,2|2,0:0|0:0,0:0:0:0:
336,296,2829,6,0,L|308:212,1,80,4|0,0:0|0:0,0:0:0:0:
244,264,3170,2,0,L|220:168,1,80,2|0,0:0|0:0,0:0:0:0:
156,232,3512,2,0,L|132:136,1,80,2|0,0:0|0:0,0:0:0:0:
68,196,3854,2,0,L|44:100,2,80,2|0|2,0:0|0:0|0:0,0:0:0:0:
156,332,4538,1,2,0:0:0:0:
316,336,4880,2,0,P|384:292|356:200,1,160,2|2,0:0|0:0,0:0:0:0:
376,60,5564,6,0,P|324:32|296:40,1,80,4|0,0:0|0:0,0:0:0:0:
304,116,5905,2,0,P|247:132|233:158,1,80,2|0,0:0|0:0,0:0:0:0:
292,208,6247,2,0,P|264:260|272:288,2,80,2|0|2,0:0|0:0|0:0,0:0:0:0:
368,176,6760,1,0,0:0:0:0:
448,176,6931,1,4,0:0:0:0:
396,328,7273,1,0,0:0:0:0:
236,328,7615,1,4,0:0:0:0:
188,176,7957,1,0,0:0:0:0:
320,84,8299,6,0,L|384:24,1,80,4|0,0:0|0:0,0:0:0:0:
192,84,8641,2,0,L|128:24,1,80
129,121,8982,2,0,L|188:176,1,80,4|0,0:0|0:0,0:0:0:0:
382,121,9324,2,0,L|324:176,1,80
256,220,9666,1,8,0:0:0:0:
264,300,9837,1,2,0:0:0:0:
340,320,10008,1,8,0:0:0:0:
408,276,10179,1,2,0:0:0:0:
488,276,10350,2,0,P|512:200|485:127,1,160,8|8,0:0|0:0,0:0:0:0:
340,56,11034,6,0,L|284:120,1,80,4|0,0:0|0:0,0:0:0:0:
244,48,11376,2,0,L|188:112,1,80,8|0,0:0|0:0,0:0:0:0:
144,44,11717,2,0,L|88:108,1,80
88,184,12059,2,0,P|32:224|96:264,1,160,8|0,0:0|0:0,0:0:0:0:
256,376,12743,1,8,0:0:0:0:
425,267,13085,2,0,P|480:224|424:184,1,160,0|8,0:0|0:0,0:0:0:0:
352,40,13769,5,8,0:0:0:0:
320,112,13940,1,0,0:0:0:0:
256,160,14111,1,8,0:0:0:0:
192,112,14282,1,0,0:0:0:0:
160,40,14452,1,8,0:0:0:0:
80,40,14623,1,0,0:0:0:0:
40,108,14794,2,0,P|16:168|41:256,1,160,8|0,0:0|0:0,0:0:0:0:
184,332,15478,2,0,P|243:356|332:330,2,160,8|0|8,0:0|0:0|0:0,0:0:0:0:
256,188,16504,6,0,P|280:148|272:108,1,80,4|0,0:0|0:0,0:0:0:0:
196,128,16846,2,0,P|184:82|150:60,1,80,8|0,0:0|0:0,0:0:0:0:
108,124,17188,2,0,P|68:100|28:108,2,80,8|0|8,0:0|0:0|0:0,0:0:0:0:
100,204,17700,1,0,0:0:0:0:
116,284,17871,2,0,P|164:316|256:288,1,160,0|8,0:0|0:0,0:0:0:0:
396,284,18555,2,0,P|348:316|256:288,1,160,0|8,0:0|0:0,0:0:0:0:
328,144,19239,6,0,B|368:116|368:116|368:64,1,80,8|0,0:0|0:0,0:0:0:0:
184,144,19581,2,0,B|144:116|144:116|144:64,1,80,8|0,0:0|0:0,0:0:0:0:
328,144,19923,2,0,P|340:184|324:224,1,80,8|0,0:0|0:0,0:0:0:0:
184,144,20264,2,0,P|172:184|188:224,1,80,8|0,0:0|0:0,0:0:0:0:
256,256,20606,1,0,0:0:0:0:
256,96,20948,1,8,0:0:0:0:
412,56,21290,1,0,0:0:0:0:
416,216,21632,1,8,0:0:0:0:
408,296,21803,1,0,0:0:0:0:
332,320,21974,6,0,L|244:320,1,80,4|0,0:0|0:0,0:0:0:0:
228,244,22316,2,0,L|148:244,1,80,8|0,0:0|0:0,0:0:0:0:
136,164,22658,2,0,L|40:164,1,80
44,84,22999,2,0,B|64:56|112:56|112:56|152:72|152:72|189:56,1,160,8|0,0:0|0:0,0:0:0:0:
256,204,23683,1,8,0:0:0:0:
322,56,24025,2,0,B|360:72|360:72|400:56|400:56|448:56|468:84,1,160,0|8,0:0|0:0,0:0:0:0:
432,240,24709,5,8,0:0:0:0:
396,312,24880,1,0,0:0:0:0:
316,324,25051,1,8,0:0:0:0:
256,272,25222,1,0,0:0:0:0:
196,324,25393,1,8,0:0:0:0:
116,312,25564,1,0,0:0:0:0:
80,240,25735,2,0,P|48:168|112:120,1,160,8|0,0:0|0:0,0:0:0:0:
256,76,26418,1,8,0:0:0:0:
411,120,26760,2,0,P|464:168|432:240,1,160,0|8,0:0|0:0,0:0:0:0:
276,272,27444,6,0,P|256:228|212:212,1,80,8|0,0:0|0:0,0:0:0:0:
152,228,27786,2,0,P|172:272|216:288,1,80,8|0,0:0|0:0,0:0:0:0:
276,272,28128,2,0,P|352:320|432:288,1,160,8|8,0:0|0:0,0:0:0:0:
456,232,28641,1,0,0:0:0:0:
448,152,28811,2,0,P|372:104|292:136,1,160,0|8,0:0|0:0,0:0:0:0:
256,180,29324,1,0,0:0:0:0:
202,121,29495,2,0,P|140:104|64:152,1,160,0|8,0:0|0:0,0:0:0:0:
180,264,30179,6,0,L|204:340,1,80,8|0,0:0|0:0,0:0:0:0:
260,280,30521,2,0,L|284:368,1,80,8|0,0:0|0:0,0:0:0:0:
428,304,30863,2,0,L|404:228,1,80,8|0,0:0|0:0,0:0:0:0:
348,288,31205,2,0,L|324:200,1,80,8|0,0:0|0:0,0:0:0:0:
296,140,31546,1,8,0:0:0:0:
256,28,31717,1,2,0:0:0:0:
216,140,31888,1,8,0:0:0:0:
320,68,32059,1,2,0:0:0:0:
192,68,32230,2,0,B|164:72|164:72|136:64|136:64|104:72|104:72|72:64|72:64|36:72,1,160,8|8,0:0|0:0,0:0:0:0:
48,232,32899,6,0,P|44:280|76:336,1,80,4|0,0:0|0:0,0:0:0:0:
124,268,33240,2,0,P|136:314|185:356,1,80,2|0,0:0|0:0,0:0:0:0:
212,280,33581,2,0,P|239:319|300:341,1,80,2|0,0:0|0:0,0:0:0:0:
300,264,33922,2,0,P|339:291|404:291,1,80,2|0,0:0|0:0,0:0:0:0:
372,216,34263,2,0,P|418:228|479:206,1,80,2|0,0:0|0:0,0:0:0:0:
420,148,34604,2,0,P|467:143|517:102,1,80,2|0,0:0|0:0,0:0:0:0:
440,76,34945,2,0,P|368:40|305:77,1,160,2|2,0:0|0:0,0:0:0:0:
48,152,35627,6,0,P|44:104|76:48,1,80,4|0,0:0|0:0,0:0:0:0:
124,116,35968,2,0,P|136:69|185:27,1,80,2|0,0:0|0:0,0:0:0:0:
212,104,36310,2,0,P|239:64|300:42,1,80,2|0,0:0|0:0,0:0:0:0:
300,120,36651,2,0,P|339:92|404:92,1,80,2|0,0:0|0:0,0:0:0:0:
372,168,36992,2,0,P|418:155|479:177,1,80,2|0,0:0|0:0,0:0:0:0:
420,236,37333,2,0,P|467:240|517:281,1,80,2|0,0:0|0:0,0:0:0:0:
440,308,37674,2,0,P|368:344|305:306,1,160,2|2,0:0|0:0,0:0:0:0:
148,272,38356,6,0,L|56:272,1,80,4|0,0:0|0:0,0:0:0:0:
36,200,38697,2,0,L|128:200,1,80,2|0,0:0|0:0,0:0:0:0:
148,128,39038,2,0,L|56:128,1,80,2|0,0:0|0:0,0:0:0:0:
36,56,39379,2,0,L|136:56,1,80,2|0,0:0|0:0,0:0:0:0:
196,56,39721,1,2,0:0:0:0:
256,108,39891,1,0,0:0:0:0:
316,56,40062,1,2,0:0:0:0:
372,112,40232,1,0,0:0:0:0:
428,56,40403,2,0,P|448:140|388:188,1,160,2|2,0:0|0:0,0:0:0:0:
300,304,41085,5,4,0:0:0:0:
220,304,41256,1,0,0:0:0:0:
192,228,41426,1,2,0:0:0:0:
260,184,41597,1,0,0:0:0:0:
324,232,41767,1,2,0:0:0:0:
396,280,41938,1,0,0:0:0:0:
464,236,42108,1,2,0:0:0:0:
436,160,42279,1,0,0:0:0:0:
356,160,42449,2,0,P|336:108|300:88,1,80,2|0,0:0|0:0,0:0:0:0:
156,160,42790,2,0,P|176:108|212:88,1,80,2|0,0:0|0:0,0:0:0:0:
136,36,43132,2,0,L|52:36,3,80,2|0|2|0,0:0|0:0|0:0|0:0,0:0:0:0:
44,116,43814,6,0,P|32:160|48:192,1,80,4|0,0:0|0:0,0:0:0:0:
80,260,44155,2,0,L|160:260,1,80,2|0,0:0|0:0,0:0:0:0:
188,336,44496,2,0,L|272:336,1,80,2|0,0:0|0:0,0:0:0:0:
320,276,44837,2,0,P|332:232|316:200,1,80,2|0,0:0|0:0,0:0:0:0:
304,124,45178,2,0,P|312:80|352:56,2,80,2|0|2,0:0|0:0|0:0,0:0:0:0:
208,124,45690,2,0,P|200:80|160:56,2,80,0|2|0,0:0|0:0|0:0,0:0:0:0:
256,188,46202,1,2,0:0:0:0:
224,260,46372,1,0,0:0:0:0:
148,284,46543,6,0,P|104:296|64:280,1,80,4|0,0:0|0:0,0:0:0:0:
108,216,46884,2,0,L|108:128,3,80,2|0|2|0,0:0|0:0|0:0|0:0,0:0:0:0:
68,68,47566,2,0,P|112:56|152:72,1,80,2|0,0:0|0:0,0:0:0:0:
224,64,47907,1,2,0:0:0:0:
276,124,48078,1,0,0:0:0:0:
328,64,48248,1,2,0:0:0:0:
380,124,48419,2,0,L|460:124,1,80,0|2,0:0|0:0,0:0:0:0:
492,196,48760,1,0,0:0:0:0:
460,268,48930,2,0,L|364:268,1,80,2|0,0:0|0:0,0:0:0:0:
300,268,49271,5,4,0:0:0:0:
256,336,49442,1,0,0:0:0:0:
212,268,49613,1,2,0:0:0:0:
132,268,49783,2,0,L|52:268,1,80,0|2,0:0|0:0,0:0:0:0:
20,196,50124,1,0,0:0:0:0:
52,124,50295,2,0,L|132:124,1,80,2|0,0:0|0:0,0:0:0:0:
180,60,50636,2,0,P|220:84|228:136,1,80,2|0,0:0|0:0,0:0:0:0:
304,80,50977,2,0,P|315:125|284:167,1,80,2|0,0:0|0:0,0:0:0:0:
376,180,51318,2,0,P|352:219|299:227,1,80,2|0,0:0|0:0,0:0:0:0:
356,304,51659,2,0,P|310:315|268:284,1,80,2|0,0:0|0:0,0:0:0:0:
188,304,52000,5,4,0:0:0:0:
120,260,52171,1,0,0:0:0:0:
188,216,52341,1,2,0:0:0:0:
124,168,52512,1,0,0:0:0:0:
192,128,52682,1,2,0:0:0:0:
128,80,52853,1,0,0:0:0:0:
196,36,53024,2,0,L|284:36,1,80,2|0,0:0|0:0,0:0:0:0:
256,192,53365,12,4,54729,0:0:0:0:
348,68,55070,5,2,0:0:0:0:
392,132,55241,1,0,0:0:0:0:
368,208,55411,2,0,L|328:300,1,80,2|0,0:0|0:0,0:0:0:0:
272,232,55752,2,0,L|232:324,1,80,2|0,0:0|0:0,0:0:0:0:
160,324,56093,1,2,0:0:0:0:
88,288,56264,1,0,0:0:0:0:
144,232,56435,1,2,0:0:0:0:
80,184,56605,1,0,0:0:0:0:
148,140,56776,2,0,P|192:108|204:76,1,80,2|0,0:0|0:0,0:0:0:0:
320,80,57117,2,0,P|276:112|264:144,1,80,2|0,0:0|0:0,0:0:0:0:
228,204,57458,6,0,L|228:292,1,80,4|0,0:0|0:0,0:0:0:0:
296,328,57799,2,0,P|324:292|328:258,1,80,2|0,0:0|0:0,0:0:0:0:
404,260,58140,2,0,P|408:293|436:329,1,80,2|0,0:0|0:0,0:0:0:0:
508,288,58481,2,0,L|508:180,1,80,2|0,0:0|0:0,0:0:0:0:
480,132,58822,1,2,0:0:0:0:
432,68,58993,1,0,0:0:0:0:
356,48,59163,1,2,0:0:0:0:
276,52,59334,1,0,0:0:0:0:
208,96,59505,2,0,P|168:164|208:244,1,160,2|2,0:0|0:0,0:0:0:0:
320,336,60187,6,0,P|360:328|380:280,1,80,4|0,0:0|0:0,0:0:0:0:
356,220,60528,2,0,P|316:228|296:276,1,80,2|0,0:0|0:0,0:0:0:0:
215,259,60869,2,0,P|196:228|156:220,1,80,2|0,0:0|0:0,0:0:0:0:
132,296,61210,2,0,P|152:328|192:336,1,80,2|0,0:0|0:0,0:0:0:0:
256,188,61551,2,0,L|256:100,1,80,2|0,0:0|0:0,0:0:0:0:
188,64,61892,2,0,L|188:152,1,80,2|0,0:0|0:0,0:0:0:0:
120,188,62233,2,0,L|120:96,1,80,2|0,0:0|0:0,0:0:0:0:
52,64,62574,2,0,L|52:148,1,80,2|0,0:0|0:0,0:0:0:0:
44,224,62916,5,4,0:0:0:0:
68,300,63086,1,0,0:0:0:0:
136,344,63257,1,2,0:0:0:0:
216,336,63427,1,0,0:0:0:0:
280,288,63598,2,0,L|368:288,1,80,2|0,0:0|0:0,0:0:0:0:
400,220,63939,2,0,L|320:220,1,80,2|0,0:0|0:0,0:0:0:0:
292,144,64280,1,2,0:0:0:0:
224,184,64451,1,0,0:0:0:0:
160,140,64621,1,2,0:0:0:0:
92,184,64792,1,0,0:0:0:0:
92,184,64962,2,0,P|68:252|98:331,1,160,2|2,0:0|0:0,0:0:0:0:
248,312,65644,6,0,P|288:308|319:284,1,80,4|0,0:0|0:0,0:0:0:0:
380,232,65985,1,8,0:0:0:0:
380,152,66156,1,0,0:0:0:0:
319,99,66327,2,0,P|288:76|248:72,1,80,8|0,0:0|0:0,0:0:0:0:
168,72,66668,2,0,L|88:132,1,80,8|0,0:0|0:0,0:0:0:0:
68,192,67009,1,8,0:0:0:0:
80,272,67179,1,0,0:0:0:0:
140,328,67350,1,8,0:0:0:0:
216,348,67520,1,0,0:0:0:0:
296,332,67691,2,0,B|336:332|336:332|364:303,1,80,8|0,0:0|0:0,0:0:0:0:
360,224,68032,2,0,B|320:224|320:224|291:252,1,80,8|0,0:0|0:0,0:0:0:0:
212,244,68373,6,0,L|164:176,1,80,4|0,0:0|0:0,0:0:0:0:
204,108,68714,2,0,L|256:176,1,80,8|0,0:0|0:0,0:0:0:0:
328,148,69055,2,0,L|364:60,1,80,8|0,0:0|0:0,0:0:0:0:
440,68,69397,2,0,L|408:152,1,80,8|0,0:0|0:0,0:0:0:0:
456,212,69738,1,8,0:0:0:0:
444,292,69908,1,0,0:0:0:0:
372,328,70079,2,0,P|336:344|300:328,1,80,8|0,0:0|0:0,0:0:0:0:
336,256,70420,2,0,P|248:256|220:320,1,160,8|8,0:0|0:0,0:0:0:0:
116,192,71102,5,4,0:0:0:0:
128,112,71273,1,0,0:0:0:0:
180,52,71443,2,0,P|220:60|256:48,1,80,8|0,0:0|0:0,0:0:0:0:
332,52,71784,2,0,P|292:60|256:48,1,80,8|0,0:0|0:0,0:0:0:0:
256,128,72125,2,0,L|256:224,1,80,8|0,0:0|0:0,0:0:0:0:
296,276,72466,1,8,0:0:0:0:
216,276,72637,1,0,0:0:0:0:
216,356,72808,1,8,0:0:0:0:
296,356,72978,1,0,0:0:0:0:
368,316,73149,2,0,P|380:248|304:192,1,160,8|8,0:0|0:0,0:0:0:0:
256,192,73831,12,4,75195,0:0:0:0:
256,240,75536,6,0,L|256:328,2,80,2|0|2,0:0|0:0|0:0,0:0:0:0:
212,172,76048,1,0,0:0:0:0:
292,172,76219,1,2,0:0:0:0:
376,36,76565,6,0,P|472:56|488:116,1,160,0|8,0:0|0:0,0:0:0:0:
408,112,77076,1,0,0:0:0:0:
456,176,77246,1,0,0:0:0:0:
376,192,77416,1,0,0:0:0:0:
424,256,77587,2,0,L|424:344,1,80,8|0,0:0|0:0,0:0:0:0:
344,348,77927,2,0,L|344:260,1,80
264,256,78268,2,0,B|224:264|224:264|192:240,1,80,8|0,0:0|0:0,0:0:0:0:
144,176,78609,1,0,0:0:0:0:
156,96,78779,1,0,0:0:0:0:
224,56,78950,2,0,B|264:48|264:48|295:71,1,80,8|0,0:0|0:0,0:0:0:0:
376,80,79290,6,0,L|376:160,2,80,4|0|8,0:0|0:0|0:0,0:0:0:0:
456,96,79801,2,0,L|456:4,2,80
456,176,80312,2,0,L|456:280,1,80,8|0,0:0|0:0,0:0:0:0:
376,268,80653,2,0,P|412:328|496:328,2,160,0|8|0,0:0|0:0|0:0,0:0:0:0:
320,212,81505,1,0,0:0:0:0:
256,164,81675,1,8,0:0:0:0:
192,212,81846,1,0,0:0:0:0:
136,268,82016,6,0,P|100:328|16:328,1,160,4|8,0:0|0:0,0:0:0:0:
56,256,82527,2,0,L|56:176,1,80
16,108,82868,2,0,P|60:96|112:124,1,80,0|8,0:0|0:0,0:0:0:0:
172,104,83208,1,0,0:0:0:0:
236,156,83379,1,0,0:0:0:0:
292,100,83549,1,0,0:0:0:0:
344,160,83720,1,8,0:0:0:0:
396,100,83890,1,0,0:0:0:0:
452,160,84060,2,0,L|452:256,1,80
372,256,84401,2,0,L|372:360,1,80,8|0,0:0|0:0,0:0:0:0:
292,352,84742,6,0,P|256:364|217:351,1,80,4|0,0:0|0:0,0:0:0:0:
216,272,85082,2,0,P|177:259|141:271,1,80,8|0,0:0|0:0,0:0:0:0:
140,352,85423,2,0,P|104:364|65:351,1,80
52,272,85764,1,8,0:0:0:0:
52,192,85934,1,0,0:0:0:0:
104,132,86105,1,0,0:0:0:0:
180,108,86275,2,0,L|256:132,1,80,0|8,0:0|0:0,0:0:0:0:
332,108,86616,2,0,L|256:132,1,80
204,196,86956,1,0,0:0:0:0:
256,260,87127,1,8,0:0:0:0:
304,196,87297,1,0,0:0:0:0:
384,196,87467,6,0,B|460:220|460:220|456:300,1,160,4|8,0:0|0:0,0:0:0:0:
388,344,87978,1,0,0:0:0:0:
308,344,88149,2,0,L|212:344,1,80,0|0,0:0|0:0,0:0:0:0:
168,288,88490,2,0,L|84:288,1,80,8|0,0:0|0:0,0:0:0:0:
16,324,88830,2,0,P|0:284|20:248,1,80,0|0,0:0|0:0,0:0:0:0:
16,172,89171,1,8,0:0:0:0:
152,84,89512,1,8,0:0:0:0:
284,176,89852,1,8,0:0:0:0:
416,76,90193,6,0,P|448:108|456:148,1,80,4|0,0:0|0:0,0:0:0:0:
396,192,90534,1,8,0:0:0:0:
396,192,90704,1,0,0:0:0:0:
456,243,90875,2,0,P|448:276|416:308,1,80,0|0,0:0|0:0,0:0:0:0:
336,308,91215,2,0,L|252:308,1,80,8|0,0:0|0:0,0:0:0:0:
176,304,91556,2,0,P|88:280|72:200,1,160,0|8,0:0|0:0,0:0:0:0:
40,144,92067,1,0,0:0:0:0:
40,144,92237,2,0,P|128:168|144:248,1,160,8|8,0:0|0:0,0:0:0:0:
256,108,92919,5,4,0:0:0:0:
312,52,93089,1,0,0:0:0:0:
392,52,93260,1,8,0:0:0:0:
444,112,93430,1,0,0:0:0:0:
388,168,93600,2,0,L|388:260,1,80,0|0,0:0|0:0,0:0:0:0:
308,248,93941,2,0,L|308:164,2,80,8|0|8,0:0|0:0|0:0,0:0:0:0:
176,340,94622,1,8,0:0:0:0:
76,216,94963,1,8,0:0:0:0:
204,120,95304,1,8,0:0:0:0:
352,64,95645,6,0,L|436:64,1,80,4|0,0:0|0:0,0:0:0:0:
468,136,95985,2,0,L|384:136,1,80,8|0,0:0|0:0,0:0:0:0:
352,208,96326,2,0,L|440:208,1,80,0|0,0:0|0:0,0:0:0:0:
468,280,96667,2,0,L|384:280,1,80,8|0,0:0|0:0,0:0:0:0:
308,280,97007,2,0,B|260:280|240:312|240:312|224:280|169:280,1,160,0|8,0:0|0:0,0:0:0:0:
112,224,97519,1,0,0:0:0:0:
116,144,97689,2,0,B|164:144|184:112|184:112|200:144|254:143,1,160,8|8,0:0|0:0,0:0:0:0:
292,72,98200,1,0,0:0:0:0:
372,72,98370,5,4,0:0:0:0:
340,144,98541,1,0,0:0:0:0:
376,216,98711,1,8,0:0:0:0:
340,288,98881,1,0,0:0:0:0:
380,360,99052,2,0,P|348:368|302:360,1,80,0|0,0:0|0:0,0:0:0:0:
244,308,99392,2,0,P|198:300|166:308,1,80,8|0,0:0|0:0,0:0:0:0:
84,308,99733,1,8,0:0:0:0:
20,160,100074,1,8,0:0:0:0:
148,60,100415,1,8,0:0:0:0:
268,164,100755,1,8,0:0:0:0:
200,308,101096,6,0,B|180:272|180:272|180:232,1,80,4|0,0:0|0:0,0:0:0:0:
260,248,101437,2,0,B|280:284|280:284|280:324,1,80,8|0,0:0|0:0,0:0:0:0:
352,352,101777,2,0,L|436:352,1,80,0|0,0:0|0:0,0:0:0:0:
476,280,102118,2,0,L|396:280,1,80,8|0,0:0|0:0,0:0:0:0:
340,224,102459,2,0,P|304:176|200:192,1,160,0|8,0:0|0:0,0:0:0:0:
260,248,102970,1,0,0:0:0:0:
180,272,103140,2,0,P|216:320|320:304,1,160,8|8,0:0|0:0,0:0:0:0:
460,224,103822,6,0,L|460:128,1,80,4|0,0:0|0:0,0:0:0:0:
392,184,104162,2,0,L|392:100,1,80,8|0,0:0|0:0,0:0:0:0:
324,144,104503,2,0,L|324:64,1,80,0|0,0:0|0:0,0:0:0:0:
256,108,104844,2,0,L|256:20,2,80,8|0|0,0:0|0:0|0:0,0:0:0:0:
212,176,105355,1,0,0:0:0:0:
176,248,105525,1,8,0:0:0:0:
336,248,105866,1,8,0:0:0:0:
256,108,106207,1,8,0:0:0:0:
256,192,106547,12,4,107910,0:0:0:0:
256,240,108251,6,0,L|256:308,2,40,8|0|2,0:0|0:0|0:0,0:0:0:0:
192,192,108592,1,8,0:0:0:0:
256,144,108762,1,2,0:0:0:0:
320,192,108932,1,8,0:0:0:0:
468,256,109273,6,0,P|492:200|476:164,1,80,4|0,0:0|0:0,0:0:0:0:
408,184,109614,2,0,P|411:123|384:94,1,80,8|0,0:0|0:0,0:0:0:0:
324,108,109955,2,0,P|306:49|270:32,1,80
207,40,110295,2,0,B|152:40|152:40|176:96|123:130,1,160,8|0,0:0|0:0,0:0:0:0:
207,344,110977,2,0,B|152:344|152:344|176:288|123:253,1,160,8|0,0:0|0:0,0:0:0:0:
272,192,111658,1,8,0:0:0:0:
396,92,111999,6,0,L|456:40,1,80,8|0,0:0|0:0,0:0:0:0:
436,156,112340,2,0,L|520:132,1,80,8|0,0:0|0:0,0:0:0:0:
436,228,112680,2,0,L|520:252,1,80,8|0,0:0|0:0,0:0:0:0:
396,292,113021,2,0,L|456:344,1,80,8|0,0:0|0:0,0:0:0:0:
396,292,113362,2,0,P|324:260|256:296,1,160,0|8,0:0|0:0,0:0:0:0:
118,292,114043,2,0,P|190:260|258:296,1,160,0|8,0:0|0:0,0:0:0:0:
256,136,114725,6,0,P|288:96|316:88,1,80,4|0,0:0|0:0,0:0:0:0:
256,136,115065,2,0,P|224:176|196:184,1,80,8|0,0:0|0:0,0:0:0:0:
180,104,115406,2,0,L|180:20,1,80,8|0,0:0|0:0,0:0:0:0:
332,168,115747,2,0,L|332:252,1,80,8|0,0:0|0:0,0:0:0:0:
332,328,116087,1,0,0:0:0:0:
256,304,116258,1,0,0:0:0:0:
180,328,116428,2,0,P|100:320|72:240,2,160,8|0|8,0:0|0:0|0:0,0:0:0:0:
160,168,117450,6,0,B|144:128|144:128|144:91,1,80,8|0,0:0|0:0,0:0:0:0:
224,108,117791,2,0,B|240:68|240:68|267:42,1,80,8|0,0:0|0:0,0:0:0:0:
308,112,118132,2,0,B|347:95|347:95|384:95,1,80,8|0,0:0|0:0,0:0:0:0:
364,172,118473,2,0,B|403:188|403:188|429:215,1,80,8|0,0:0|0:0,0:0:0:0:
428,296,118813,1,0,0:0:0:0:
360,252,118984,1,0,0:0:0:0:
292,296,119154,1,8,0:0:0:0:
224,256,119324,1,0,0:0:0:0:
156,296,119495,2,0,P|144:228|224:180,1,160,0|8,0:0|0:0,0:0:0:0:
80,28,120176,6,0,L|124:100,1,80,4|0,0:0|0:0,0:0:0:0:
40,96,120517,2,0,L|84:168,1,80,2|0,0:0|0:0,0:0:0:0:
0,164,120858,2,0,L|44:236,1,80,2|0,0:0|0:0,0:0:0:0:
108,280,121198,2,0,B|144:268|144:268|180:284|180:284|220:268|220:268|256:284,1,160,2|2,0:0|0:0,0:0:0:0:
404,288,121880,2,0,B|368:300|368:300|332:284|332:284|292:300|292:300|256:284,1,160,2|2,0:0|0:0,0:0:0:0:
256,124,122561,1,2,0:0:0:0:
404,64,122902,6,0,P|400:108|368:140,1,80,4|0,0:0|0:0,0:0:0:0:
440,188,123243,2,0,P|406:216|360:216,1,80,2|0,0:0|0:0,0:0:0:0:
380,300,123583,2,0,P|335:295|304:264,1,80,2|0,0:0|0:0,0:0:0:0:
248,328,123924,2,0,P|219:294|219:248,1,80,2|0,0:0|0:0,0:0:0:0:
156,208,124265,1,2,0:0:0:0:
184,132,124435,1,0,0:0:0:0:
256,96,124605,1,2,0:0:0:0:
328,132,124776,1,0,0:0:0:0:
356,208,124946,2,0,P|404:160|372:64,1,160,2|2,0:0|0:0,0:0:0:0:
188,40,125628,6,0,L|104:40,1,80,4|0,0:0|0:0,0:0:0:0:
136,116,125968,2,0,L|48:148,1,80,2|0,0:0|0:0,0:0:0:0:
112,204,126309,2,0,L|40:264,1,80,2|0,0:0|0:0,0:0:0:0:
48,336,126650,2,0,P|96:360|168:292,1,160,2|2,0:0|0:0,0:0:0:0:
344,297,127331,2,0,P|416:360|464:336,2,160,2|0|2,0:0|0:0|0:0,0:0:0:0:
388,144,128353,5,4,0:0:0:0:
320,100,128524,1,0,0:0:0:0:
256,148,128694,1,2,0:0:0:0:
192,100,128864,1,0,0:0:0:0:
124,144,129035,2,0,P|140:192|172:212,1,80,2|0,0:0|0:0,0:0:0:0:
152,328,129375,2,0,P|136:280|104:260,1,80,2|0,0:0|0:0,0:0:0:0:
256,192,129716,12,4,131079,0:0:0:0:
