osu file format v12

[General]
AudioFilename: EFM - 7 - Raver Raver Raver.mp3
AudioLeadIn: 2000
PreviewTime: 11032
Countdown: 0
SampleSet: Normal
StackLeniency: 0.7
Mode: 0
LetterboxInBreaks: 0

[Editor]
DistanceSpacing: 1
BeatDivisor: 4
GridSize: 4

[Metadata]
Title:Raver Raver Raver
TitleUnicode:Raver Raver Raver
Artist:EFM-7
ArtistUnicode:EFM-7
Creator:Katty Pie
Version:Easy
Source:
Tags:yanlu hardcore heaven 3
BeatmapID:217172
BeatmapSetID:76830

[Difficulty]
HPDrainRate:2
CircleSize:3
OverallDifficulty:3
ApproachRate:3
SliderMultiplier:0.8
SliderTickRate:1

[Events]
//Background and Video events
0,0,"rrrrr.jpg",0,0
//Break Periods
2,44014,49967
//Storyboard Layer 0 (Background)
//Storyboard Layer 1 (Fail)
//Storyboard Layer 2 (Pass)
//Storyboard Layer 3 (Foreground)
//Storyboard Sound Samples
//Background Colour Transformations
3,100,163,162,255

[TimingPoints]
94,341.880341880342,4,2,0,60,1,0
11034,-100,4,1,0,50,0,1
31546,-100,4,2,0,80,0,1
32899,341.102899374645,4,2,0,40,1,0
54729,-100,4,2,0,60,0,0
73831,-100,4,1,0,30,0,0
74172,-100,4,1,0,35,0,0
74513,-100,4,1,0,40,0,0
74854,-100,4,1,0,45,0,0
75195,-100,4,2,0,60,0,0
76565,340.715502555366,4,1,0,50,1,0
109273,-100,4,1,0,60,0,1
109444,-100,4,1,0,40,0,0
120176,-100,4,1,0,60,0,1
120346,-100,4,2,0,60,0,0
131079,-100,4,1,0,60,0,0

[Colours]
Combo1 : 0,255,255
Combo2 : 255,255,0
Combo3 : 251,121,248
Combo4 : 157,255,60
Combo5 : 168,81,255
Combo6 : 255,128,64
SliderBorder : 200,200,200

[HitObjects]
400,76,94,2,0,P|436:144|400:216,2,160,4|2|2,0:0|0:0|0:0,0:0:0:0:
324,96,1803,2,0,P|256:132|189:94,1,160,2|2,0:0|0:0,0:0:0:0:
112,76,2829,6,0,P|76:144|112:216,2,160,4|0|2,0:0|0:0|0:0,0:0:0:0:
189,94,4538,2,0,P|256:132|324:96,1,160,2|2,0:0|0:0,0:0:0:0:
404,92,5564,5,4,0:0:0:0:
464,144,5905,1,2,0:0:0:0:
484,220,6247,2,0,L|484:312,1,80,2|2,0:0|0:0,0:0:0:0:
256,192,6931,12,4,9666,0:0:0:0:
160,64,11034,6,0,B|212:64|260:124|260:124|304:68|361:68,1,240,4|8,0:0|0:0,0:0:0:0:
404,136,12401,1,0,0:0:0:0:
332,172,12743,2,0,P|260:204|184:168,1,160,8|8,0:0|0:0,0:0:0:0:
108,176,13769,6,0,P|92:244|228:328,1,240,4|8,0:0|0:0,0:0:0:0:
292,332,15136,2,0,L|376:332,1,80,0|8,0:0|0:0,0:0:0:0:
392,256,15820,2,0,L|472:256,1,80,0|8,0:0|0:0,0:0:0:0:
484,176,16504,5,4,0:0:0:0:
452,104,16846,1,8,0:0:0:0:
388,56,17188,2,0,P|348:44|312:53,1,80,0|8,0:0|0:0,0:0:0:0:
268,120,17871,2,0,B|268:148|268:148|268:204|268:204|268:264|216:280|168:268|168:232,1,240,0|8,0:0|0:0,0:0:0:0:
168,152,19239,6,0,B|168:116|120:104|68:120|68:179|68:179|68:235|68:235|68:264,1,240,0|8,0:0|0:0,0:0:0:0:
132,316,20606,1,0,0:0:0:0:
212,312,20948,2,0,B|292:328|292:328|331:257,1,160,8|8,0:0|0:0,0:0:0:0:
360,184,21974,6,0,P|372:96|254:26,1,240,4|8,0:0|0:0,0:0:0:0:
256,108,23341,1,0,0:0:0:0:
256,188,23683,2,0,P|188:152|184:72,1,160,8|8,0:0|0:0,0:0:0:0:
106,44,24709,6,0,B|64:56|60:104|60:104|92:136|92:136|128:184|86:242,1,240,4|8,0:0|0:0,0:0:0:0:
144,296,26076,1,0,0:0:0:0:
216,332,26418,2,0,L|296:332,1,80,8|0,0:0|0:0,0:0:0:0:
368,296,27102,1,8,0:0:0:0:
423,240,27444,6,0,B|384:184|420:136|420:136|452:104|452:104|448:56|405:44,1,240,4|8,0:0|0:0,0:0:0:0:
324,44,28811,2,0,L|244:44,1,80,0|8,0:0|0:0,0:0:0:0:
240,124,29495,2,0,L|160:124,1,80,0|8,0:0|0:0,0:0:0:0:
80,124,30179,5,8,0:0:0:0:
80,204,30521,1,8,0:0:0:0:
160,200,30863,2,0,L|160:288,1,80,8|8,0:0|0:0,0:0:0:0:
232,312,31546,2,0,B|284:312|284:312|294:327|294:327|299:310|299:310|316:282|347:262|347:262|364:256|364:256|348:248|348:248|348:196,1,240,2|8,0:0|0:0,0:0:0:0:
348,120,32899,6,0,P|260:60|124:80,1,240,4|2,0:0|0:0,0:0:0:0:
160,152,34263,2,0,P|228:136|288:276,1,240,0|2,0:0|0:0,0:0:0:0:
216,252,35627,6,0,P|236:320|372:284,1,240,4|2,0:0|0:0,0:0:0:0:
436,240,36992,1,0,0:0:0:0:
436,160,37333,1,2,0:0:0:0:
392,96,37674,1,0,0:0:0:0:
316,68,38015,1,2,0:0:0:0:
236,64,38356,6,0,B|176:64|140:124|140:124|104:64|40:64,1,240,0|2,0:0|0:0,0:0:0:0:
44,144,39721,2,0,P|144:204|236:143,1,240,2|2,0:0|0:0,0:0:0:0:
316,148,41085,6,0,P|252:244|136:280,1,240,4|2,0:0|0:0,0:0:0:0:
56,280,42449,2,0,L|56:200,1,80,0|2,0:0|0:0,0:0:0:0:
112,144,43132,2,0,L|112:48,2,80,0|2|4,0:0|0:0|0:0,0:0:0:0:
256,192,52000,12,2,53706,0:0:0:0:
192,48,54729,6,0,B|228:48|256:88|256:88|296:96|336:88|336:88|364:48|402:48,1,240,4|2,0:0|0:0,0:0:0:0:
476,80,56093,2,0,P|516:180|471:303,1,240,2|2,0:0|0:0,0:0:0:0:
402,335,57458,6,0,B|364:336|336:296|336:296|296:288|256:296|256:296|228:336|192:336,1,240,4|2,0:0|0:0,0:0:0:0:
112,316,58822,1,0,0:0:0:0:
76,244,59163,2,0,P|68:208|80:160,2,80,2|2|2,0:0|0:0|0:0,0:0:0:0:
148,204,60187,6,0,P|264:184|296:76,1,240,4|2,0:0|0:0,0:0:0:0:
215,78,61551,2,0,P|248:184|364:204,1,240,2|2,0:0|0:0,0:0:0:0:
348,124,62916,6,0,P|436:160|400:280,1,240,4|2,0:0|0:0,0:0:0:0:
332,312,64280,2,0,P|296:324|256:314,1,80,0|2,0:0|0:0,0:0:0:0:
216,244,64962,2,0,P|252:232|291:241,2,80,0|2|4,0:0|0:0|0:0,0:0:0:0:
140,216,65985,6,0,P|80:168|80:88,1,160,8|8,0:0|0:0,0:0:0:0:
152,60,67009,1,0,0:0:0:0:
232,60,67350,2,0,B|276:60|300:96|300:96|324:60|368:60,1,160,8|8,0:0|0:0,0:0:0:0:
444,84,68373,5,4,0:0:0:0:
480,156,68714,2,0,P|504:232|477:304,1,160,8|8,0:0|0:0,0:0:0:0:
408,348,69738,1,0,0:0:0:0:
328,332,70079,2,0,P|255:358|179:334,1,160,8|8,0:0|0:0,0:0:0:0:
112,292,71102,6,0,L|112:208,1,80,4|8,0:0|0:0,0:0:0:0:
112,132,71784,2,0,L|164:64,1,80,0|8,0:0|0:0,0:0:0:0:
240,48,72466,1,0,0:0:0:0:
316,76,72808,2,0,B|388:112|388:112|388:191,1,160,8|8,0:0|0:0,0:0:0:0:
372,268,73831,6,0,B|328:288|328:288|328:324|328:324|292:316|256:344|256:344|216:316|180:324|180:324|180:288|180:288|136:272,2,320,4|2|4,0:0|0:0|0:0,0:0:0:0:
328,200,76905,6,0,P|256:172|180:204,1,160,8|8,0:0|0:0,0:0:0:0:
104,192,77927,1,0,0:0:0:0:
24,180,78268,2,0,P|44:136|84:116,1,80,8|0,0:0|0:0,0:0:0:0:
120,56,78950,1,8,0:0:0:0:
192,88,79290,5,4,0:0:0:0:
264,52,79631,2,0,B|344:52|344:52|402:106,1,160,8|8,0:0|0:0,0:0:0:0:
432,180,80653,2,0,L|432:268,1,80,0|8,0:0|0:0,0:0:0:0:
380,320,81335,2,0,L|296:320,1,80,0|8,0:0|0:0,0:0:0:0:
220,320,82016,5,4,0:0:0:0:
140,316,82357,2,0,P|48:304|64:264,1,160,8|8,0:0|0:0,0:0:0:0:
48,196,83379,1,0,0:0:0:0:
116,152,83720,2,0,P|208:164|192:204,1,160,8|8,0:0|0:0,0:0:0:0:
256,252,84742,5,4,0:0:0:0:
311,194,85082,2,0,P|304:164|396:152,1,160,8|8,0:0|0:0,0:0:0:0:
464,196,86105,1,0,0:0:0:0:
460,276,86445,1,8,0:0:0:0:
404,332,86786,2,0,P|360:344|330:330,1,80,0|8,0:0|0:0,0:0:0:0:
256,300,87467,5,4,0:0:0:0:
173,300,87808,2,0,B|108:300|108:300|124:240|78:219,1,160,8|8,0:0|0:0,0:0:0:0:
72,140,88830,1,0,0:0:0:0:
144,104,89171,2,0,B|209:104|209:104|193:164|238:184,1,160,8|8,0:0|0:0,0:0:0:0:
320,184,90193,5,4,0:0:0:0:
332,104,90534,2,0,P|392:148|376:240,1,160,8|8,0:0|0:0,0:0:0:0:
372,304,91556,2,0,L|296:344,1,80,0|8,0:0|0:0,0:0:0:0:
248,284,92237,2,0,L|172:324,1,80,0|8,0:0|0:0,0:0:0:0:
96,320,92919,5,4,0:0:0:0:
96,240,93260,2,0,B|72:208|72:208|96:176|96:176|72:140|72:140|100:104,1,160,8|8,0:0|0:0,0:0:0:0:
148,52,94282,1,0,0:0:0:0:
228,56,94622,2,0,B|256:78|256:78|292:54|292:54|324:78|324:78|356:54,1,160,8|8,0:0|0:0,0:0:0:0:
432,76,95645,6,0,L|460:164,1,80,4|8,0:0|0:0,0:0:0:0:
376,160,96326,2,0,L|404:248,1,80,0|8,0:0|0:0,0:0:0:0:
328,272,97007,2,0,L|240:272,1,80,0|8,0:0|0:0,0:0:0:0:
248,352,97689,2,0,L|164:352,1,80,0|8,0:0|0:0,0:0:0:0:
104,300,98370,5,4,0:0:0:0:
128,224,98711,2,0,P|124:148|184:98,1,160,8|8,0:0|0:0,0:0:0:0:
256,60,99733,1,0,0:0:0:0:
327,98,100074,2,0,P|388:148|384:224,1,160,8|8,0:0|0:0,0:0:0:0:
356,300,101096,6,0,L|296:352,1,80,0|8,0:0|0:0,0:0:0:0:
216,352,101777,2,0,L|156:300,2,80,0|8|0,0:0|0:0|0:0,0:0:0:0:
256,280,102800,2,0,L|256:192,1,80,8|0,0:0|0:0,0:0:0:0:
256,120,103481,1,8,0:0:0:0:
324,80,103822,6,0,P|244:40|188:160,1,240,4|8,0:0|0:0,0:0:0:0:
176,228,105185,1,0,0:0:0:0:
196,304,105525,2,0,B|240:316|260:348|260:348|296:328|337:339,1,160,8|8,0:0|0:0,0:0:0:0:
256,192,106547,12,4,108592,0:0:0:0:
164,272,109273,6,0,P|236:336|348:272,1,240,4|8,0:0|0:0,0:0:0:0:
420,240,110636,1,0,0:0:0:0:
496,220,110977,2,0,P|444:164|368:179,1,160,8|8,0:0|0:0,0:0:0:0:
296,144,111999,6,0,B|220:120|220:120|176:128|160:168|160:168|84:142,1,240,0|8,0:0|0:0,0:0:0:0:
64,220,113362,2,0,P|56:264|72:304,1,80,0|8,0:0|0:0,0:0:0:0:
136,256,114043,2,0,L|216:256,1,80,8|8,0:0|0:0,0:0:0:0:
288,296,114725,5,4,0:0:0:0:
360,260,115065,1,8,0:0:0:0:
432,296,115406,2,0,P|440:252|424:212,1,80,0|8,0:0|0:0,0:0:0:0:
432,140,116087,2,0,P|380:48|288:112,1,240,0|8,0:0|0:0,0:0:0:0:
268,184,117450,6,0,L|268:264,1,80,4|8,0:0|0:0,0:0:0:0:
188,276,118132,2,0,L|188:368,2,80,8|8|0,0:0|0:0|0:0,0:0:0:0:
108,264,119154,2,0,P|68:200|100:128,1,160,8|8,0:0|0:0,0:0:0:0:
152,68,120176,6,0,B|224:68|256:116|256:116|284:68|360:68,1,240,4|2,0:0|0:0,0:0:0:0:
416,124,121539,1,0,0:0:0:0:
420,204,121880,2,0,P|448:276|376:288,1,160,2|2,0:0|0:0,0:0:0:0:
308,296,122902,6,0,P|272:308|224:292,1,80,4|2,0:0|0:0,0:0:0:0:
192,228,123583,2,0,P|228:216|276:232,1,80,0|2,0:0|0:0,0:0:0:0:
348,208,124265,2,0,P|364:108|254:51,1,240,0|2,0:0|0:0,0:0:0:0:
176,52,125628,5,4,0:0:0:0:
104,88,125968,1,2,0:0:0:0:
64,156,126309,1,0,0:0:0:0:
64,236,126650,1,2,0:0:0:0:
92,312,126990,2,0,P|188:356|264:264,1,240,0|2,0:0|0:0,0:0:0:0:
256,192,128353,12,4,131079,0:0:0:0:
