osu file format v12

[General]
AudioFilename: Legend of Swordsman(short ver.).mp3
AudioLeadIn: 0
PreviewTime: 110146
Countdown: 0
SampleSet: Soft
StackLeniency: 0.7
Mode: 0
LetterboxInBreaks: 0
WidescreenStoryboard: 1

[Editor]
DistanceSpacing: 1
BeatDivisor: 4
GridSize: 4

[Metadata]
Title:Legend of Swordsman
TitleUnicode:劍者傳說
Artist:EBTC
ArtistUnicode:無非文化
Creator:Akabato
Version:Hard
Source:霹靂經武紀之梟皇論戰
Tags:pili 殢無傷 黃建秦 everything but the culture chinese classical 古風 中國風 布袋戲
BeatmapID:335010
BeatmapSetID:133416

[Difficulty]
HPDrainRate:6
CircleSize:4
OverallDifficulty:6
ApproachRate:7
SliderMultiplier:2
SliderTickRate:2

[Events]
//Background and Video events
0,0,"wushang.jpg",0,0
//Break Periods
2,67679,74579
//Storyboard Layer 0 (Background)
//Storyboard Layer 1 (Fail)
//Storyboard Layer 2 (Pass)
//Storyboard Layer 3 (Foreground)
//Storyboard Sound Samples
//Background Colour Transformations
3,100,163,162,255

[TimingPoints]
22146,666.666666666667,4,2,1,65,1,0
24479,-100,4,2,1,30,0,0
24812,-100,4,2,1,65,0,1
24979,-100,4,2,1,65,0,0
35145,-100,4,2,1,35,0,0
35479,-100,4,2,1,65,0,0
49812,-100,4,2,1,35,0,0
50145,-100,4,2,1,65,0,0
52479,-100,4,2,1,35,0,0
52812,-100,4,2,1,65,0,0
55146,-100,4,2,1,35,0,0
55479,-100,4,2,1,65,0,0
60479,-100,4,2,1,35,0,0
60812,-100,4,2,1,65,0,0
63146,-100,4,2,1,35,0,0
63479,-100,4,2,1,65,0,0
76479,-100,4,2,1,35,0,0
76812,-100,4,2,1,65,0,0
79146,-100,4,2,1,35,0,0
79479,-100,4,2,1,65,0,0
80479,-100,4,2,1,35,0,0
80812,-100,4,2,1,65,0,0
81812,-100,4,2,1,35,0,0
82146,-100,4,2,1,65,0,0
85812,-100,4,2,1,35,0,0
86146,-100,4,2,1,65,0,0
92479,-100,4,2,1,35,0,0
92812,-100,4,2,1,65,0,0
96479,-100,4,2,1,35,0,0
96812,-100,4,2,1,65,0,0
101812,-100,4,2,1,35,0,0
102146,-100,4,2,1,65,0,0
103146,-100,4,2,1,35,0,0
103479,-100,4,2,1,65,0,0
105812,-100,4,2,1,35,0,0
106146,-100,4,2,1,65,0,0
107146,-100,4,2,1,35,0,0
107479,-100,4,2,1,65,0,0
115146,-100,4,2,1,35,0,0
115479,-100,4,2,1,65,0,0
125812,-100,4,2,1,35,0,0
126146,-100,4,2,1,65,0,0
131479,-100,4,2,1,50,0,0
132479,-100,4,2,1,30,0,0
132812,-100,4,2,1,50,0,0
135146,-100,4,2,1,30,0,0
135479,-100,4,2,1,50,0,0
137812,-100,4,2,1,30,0,0
138146,-100,4,2,1,50,0,0
140479,-100,4,2,1,30,0,0
140812,-100,4,2,1,50,0,0
142146,-100,4,2,1,50,0,1
142312,-100,4,2,1,50,0,0

[Colours]
Combo1 : 216,216,216
Combo2 : 188,122,122
Combo3 : 83,83,166
Combo4 : 255,196,106
SliderBorder : 255,255,255

[HitObjects]
256,192,22145,12,0,24479,0:0:0:0:
104,56,24812,5,12,0:0:0:0:
56,144,25145,2,0,L|8:160,2,50,0|0|0,0:0|0:0|0:0,0:0:0:0:
56,144,25812,1,0,0:0:0:0:
104,232,26145,1,2,0:0:0:0:
104,232,26312,1,0,0:0:0:0:
104,232,26479,1,0,0:0:0:0:
112,332,26812,2,0,P|160:316|200:260,1,100,2|10,0:0|0:0,0:0:0:0:
280,332,27479,6,0,P|294:283|271:218,1,100,10|0,0:0|0:0,0:0:0:0:
292,136,28145,2,0,B|332:128|332:128|348:112|348:112|388:104,1,100,0|0,0:0|0:0,0:0:0:0:
480,76,28812,1,2,0:0:0:0:
480,76,29145,1,0,0:0:0:0:
480,76,29479,1,8,0:0:0:0:
192,32,30145,6,0,P|136:72|56:80,1,150,10|0,0:0|0:0,0:0:0:0:
56,80,30812,2,0,L|28:180,1,100
76,264,31479,1,2,0:0:0:0:
116,296,31646,1,0,0:0:0:0:
156,328,31812,1,0,0:0:0:0:
256,328,32145,1,2,0:0:0:0:
356,328,32479,1,10,0:0:0:0:
356,328,32812,6,0,B|428:312|444:232|444:232|492:176,1,200,10|0,0:0|0:0,0:0:0:0:
488,84,33812,1,0,0:0:0:0:
412,20,34145,2,0,P|389:79|399:126,1,100,2|0,0:0|0:0,0:0:0:0:
284,264,34812,2,0,P|308:224|308:168,1,100,8|0,0:0|0:0,0:0:0:0:
40,192,35479,5,10,0:0:0:0:
128,144,35812,1,0,0:0:0:0:
144,192,35979,1,0,0:0:0:0:
128,240,36145,1,0,0:0:0:0:
248,192,36479,2,0,B|280:176|328:208|368:184,1,100,0|2,0:0|0:0,0:0:0:0:
376,232,36979,1,0,0:0:0:0:
408,272,37145,1,0,0:0:0:0:
468,192,37479,1,2,0:0:0:0:
408,112,37812,1,10,0:0:0:0:
424,12,38145,6,0,P|368:20|327:54,1,100,10|0,0:0|0:0,0:0:0:0:
236,32,38812,2,0,P|172:96|52:120,1,200,0|2,0:0|0:0,0:0:0:0:
48,220,39812,1,0,0:0:0:0:
32,320,40145,1,8,0:0:0:0:
256,328,40812,5,10,0:0:0:0:
352,304,41145,1,0,0:0:0:0:
352,304,41312,1,0,0:0:0:0:
352,304,41479,2,0,L|464:256,1,100
432,164,42145,2,0,L|496:140,2,50,2|0|0,0:0|0:0|0:0,0:0:0:0:
432,64,42812,1,2,0:0:0:0:
344,16,43145,1,10,0:0:0:0:
256,64,43479,6,0,P|232:104|176:120,1,100,10|0,0:0|0:0,0:0:0:0:
124,40,44145,2,0,B|60:64|44:128|44:128|44:208,1,200,0|2,0:0|0:0,0:0:0:0:
68,300,45145,1,0,0:0:0:0:
168,288,45479,5,8,0:0:0:0:
208,320,45646,1,2,0:0:0:0:
256,344,45812,1,0,0:0:0:0:
304,320,45979,1,2,0:0:0:0:
344,288,46145,1,12,0:0:0:0:
440,328,46479,5,0,0:0:0:0:
440,328,46646,1,0,0:0:0:0:
440,328,46812,2,0,P|448:280|432:224,1,100,0|0,0:0|0:0,0:0:0:0:
348,188,47479,2,0,P|368:88|428:12,1,200,2|8,0:0|0:0,0:0:0:0:
427,12,48479,1,0,0:0:0:0:
256,48,48812,6,0,L|208:8,2,50,10|0|0,0:0|0:0|0:0,0:0:0:0:
256,48,49312,1,0,0:0:0:0:
256,48,49479,1,2,0:0:0:0:
256,144,49812,1,8,0:0:0:0:
168,104,50145,2,0,P|164:173|189:213,1,100,2|0,0:0|0:0,0:0:0:0:
256,256,50812,5,10,0:0:0:0:
240,304,50979,1,0,0:0:0:0:
200,336,51146,1,2,0:0:0:0:
152,344,51312,1,0,0:0:0:0:
104,336,51479,1,2,0:0:0:0:
64,248,51812,5,0,0:0:0:0:
64,248,51979,1,0,0:0:0:0:
64,248,52146,2,0,B|47:224|47:224|45:176|45:176|28:145,1,100,0|8,0:0|0:0,0:0:0:0:
96,80,52812,2,0,P|200:64|277:13,1,200,2|8,0:0|0:0,0:0:0:0:
376,32,53812,1,0,0:0:0:0:
440,232,54146,6,0,B|424:280|360:296|336:352,1,150,10|0,0:0|0:0,0:0:0:0:
340,342,54812,1,0,0:0:0:0:
256,280,55146,1,8,0:0:0:0:
256,280,55479,1,2,0:0:0:0:
176,344,55812,1,0,0:0:0:0:
80,280,56146,2,0,L|40:240,1,50,10|0,0:0|0:0,0:0:0:0:
80,104,56479,2,0,L|40:144,1,50,2|0,0:0|0:0,0:0:0:0:
120,192,56812,1,10,0:0:0:0:
336,24,57479,6,0,B|384:48|384:48|400:88|400:88|448:112,1,150,0|0,0:0|0:0,0:0:0:0:
472,160,58146,2,0,P|392:224|384:272,1,150,2|0,0:0|0:0,0:0:0:0:
400,312,58812,2,0,L|256:360,1,150,8|0,0:0|0:0,0:0:0:0:
240,312,59479,5,10,0:0:0:0:
206,272,59646,1,0,0:0:0:0:
166,248,59812,1,2,0:0:0:0:
118,248,59979,1,0,0:0:0:0:
70,264,60146,1,2,0:0:0:0:
40,168,60479,1,8,0:0:0:0:
16,72,60812,6,0,P|72:56|128:24,1,100,2|0,0:0|0:0,0:0:0:0:
200,72,61479,2,0,P|223:61|251:57,1,50,10|0,0:0|0:0,0:0:0:0:
296,64,61812,1,2,0:0:0:0:
344,80,61979,1,0,0:0:0:0:
392,72,62146,1,10,0:0:0:0:
464,144,62479,5,0,0:0:0:0:
464,144,62646,1,0,0:0:0:0:
464,144,62812,2,0,P|472:200|456:248,1,100,0|8,0:0|0:0,0:0:0:0:
372,288,63479,2,0,B|320:300|272:284|272:284|240:324|180:336,1,200,2|8,0:0|0:0,0:0:0:0:
132,252,64479,1,0,0:0:0:0:
116,204,64646,1,0,0:0:0:0:
132,156,64812,5,10,0:0:0:0:
192,76,65146,1,0,0:0:0:0:
241,67,65312,1,0,0:0:0:0:
292,72,65479,2,0,P|341:101|360:138,1,100,0|8,0:0|0:0,0:0:0:0:
256,192,66146,12,12,67479,0:0:0:0:
388,184,75479,5,10,0:0:0:0:
320,256,75812,1,0,0:0:0:0:
320,256,75979,1,0,0:0:0:0:
320,256,76146,2,0,P|275:278|225:278,1,100,8|8,0:0|0:0,0:0:0:0:
156,208,76812,2,0,P|110:168|59:157,1,100,2|10,0:0|0:0,0:0:0:0:
68,57,77479,5,10,0:0:0:0:
120,56,77646,1,0,0:0:0:0:
162,77,77812,1,2,0:0:0:0:
204,106,77979,1,0,0:0:0:0:
256,112,78146,1,2,0:0:0:0:
352,96,78479,1,0,0:0:0:0:
352,96,78646,1,0,0:0:0:0:
352,96,78812,2,0,P|408:88|448:72,1,100,8|8,0:0|0:0,0:0:0:0:
448,176,79479,6,0,B|432:224|432:224|464:264|448:322,1,150,2|0,0:0|0:0,0:0:0:0:
449,318,80146,1,8,0:0:0:0:
449,318,80479,1,8,0:0:0:0:
356,284,80812,6,0,B|316:308|244:300|244:300|156:336,1,200,10|8,0:0|0:0,0:0:0:0:
72,256,81812,1,8,0:0:0:0:
72,96,82146,1,2,0:0:0:0:
208,192,82479,1,10,0:0:0:0:
72,256,82812,1,8,0:0:0:0:
72,96,83146,1,0,0:0:0:0:
208,32,83479,5,2,0:0:0:0:
208,32,83812,1,0,0:0:0:0:
208,32,83979,1,0,0:0:0:0:
208,32,84146,2,0,P|264:40|304:72,1,100,8|0,0:0|0:0,0:0:0:0:
392,40,84812,2,0,P|435:119|445:230,1,200,2|8,0:0|0:0,0:0:0:0:
424,328,85812,1,8,0:0:0:0:
156,304,86146,5,10,0:0:0:0:
196,280,86312,1,0,0:0:0:0:
236,272,86479,1,0,0:0:0:0:
276,280,86646,1,0,0:0:0:0:
312,296,86812,5,10,0:0:0:0:
336,264,86979,1,0,0:0:0:0:
336,224,87146,1,0,0:0:0:0:
312,192,87312,1,0,0:0:0:0:
272,176,87479,5,2,0:0:0:0:
232,168,87646,1,0,0:0:0:0:
190,174,87812,1,0,0:0:0:0:
153,195,87979,1,0,0:0:0:0:
113,201,88146,5,10,0:0:0:0:
73,190,88312,1,0,0:0:0:0:
41,164,88479,1,2,0:0:0:0:
21,128,88646,1,0,0:0:0:0:
17,88,88812,5,10,0:0:0:0:
120,96,89146,1,0,0:0:0:0:
120,96,89312,1,0,0:0:0:0:
120,96,89479,2,0,P|208:48|324:48,1,200,8|2,0:0|0:0,0:0:0:0:
400,8,90479,1,10,0:0:0:0:
448,96,90812,2,0,B|463:132|463:132|461:168|461:168|473:197,1,100,8|0,0:0|0:0,0:0:0:0:
368,184,91479,6,0,B|408:232|360:288|400:328,1,150,10|0,0:0|0:0,0:0:0:0:
398,326,92146,1,8,0:0:0:0:
304,352,92479,1,8,0:0:0:0:
208,352,92812,1,2,0:0:0:0:
113,326,93146,1,2,0:0:0:0:
113,326,93312,1,0,0:0:0:0:
113,326,93479,2,0,P|70:296|47:245,1,100,8|0,0:0|0:0,0:0:0:0:
144,232,94146,5,10,0:0:0:0:
96,144,94479,1,0,0:0:0:0:
144,144,94646,1,0,0:0:0:0:
192,144,94812,2,0,B|296:144|296:144|344:128|360:64,1,200,8|2,0:0|0:0,0:0:0:0:
256,48,95812,1,10,0:0:0:0:
256,48,96146,2,0,L|152:48,1,100,8|8,0:0|0:0,0:0:0:0:
360,64,96812,6,0,L|408:24,1,50,10|0,0:0|0:0,0:0:0:0:
416,144,97146,2,0,L|472:128,1,50
416,240,97479,2,0,L|472:256,1,50,10|0,0:0|0:0,0:0:0:0:
360,320,97812,2,0,L|408:360,1,50,0|0,0:0|0:0,0:0:0:0:
320,232,98146,6,0,L|276:208,1,50,2|0,0:0|0:0,0:0:0:0:
148,192,98479,2,0,L|192:216,1,50
101,277,98812,1,10,0:0:0:0:
66,240,98979,1,0,0:0:0:0:
54,191,99146,1,2,0:0:0:0:
67,142,99312,1,0,0:0:0:0:
101,106,99479,1,10,0:0:0:0:
312,40,99812,5,0,0:0:0:0:
312,40,99979,1,0,0:0:0:0:
312,40,100146,2,0,B|352:96|424:112|424:112|464:176,1,200,8|2,0:0|0:0,0:0:0:0:
368,208,101146,1,10,0:0:0:0:
440,272,101479,2,0,P|404:300|352:304,1,100,8|8,0:0|0:0,0:0:0:0:
256,328,102146,6,0,B|208:312|208:312|144:312|144:312|96:296,1,150,10|0,0:0|0:0,0:0:0:0:
64,288,102812,1,8,0:0:0:0:
32,192,103146,1,8,0:0:0:0:
64,96,103479,2,0,P|160:80|256:16,1,200,2|8,0:0|0:0,0:0:0:0:
344,40,104479,1,0,0:0:0:0:
440,56,104812,5,10,0:0:0:0:
472,152,105146,1,0,0:0:0:0:
440,192,105312,1,0,0:0:0:0:
472,232,105479,1,8,0:0:0:0:
440,328,105812,1,8,0:0:0:0:
344,304,106146,2,0,B|304:268|256:260|256:260|208:268|168:304,1,200,2|8,0:0|0:0,0:0:0:0:
72,328,107146,1,8,0:0:0:0:
256,192,107479,12,8,109479,0:0:0:0:
256,192,110146,5,12,0:0:0:0:
232,308,110479,1,0,0:0:0:0:
186,291,110646,1,0,0:0:0:0:
160,248,110812,1,0,0:0:0:0:
152,128,111146,2,0,P|186:92|232:72,1,100,0|2,0:0|0:0,0:0:0:0:
282,72,111646,1,0,0:0:0:0:
330,81,111812,1,0,0:0:0:0:
436,40,112146,2,0,P|444:92|415:153,1,100,2|2,0:0|0:0,0:0:0:0:
408,252,112812,6,0,P|400:304|416:364,1,100,10|0,0:0|0:0,0:0:0:0:
280,328,113479,1,0,0:0:0:0:
152,280,113812,1,0,0:0:0:0:
24,328,114146,1,2,0:0:0:0:
64,192,114479,1,0,0:0:0:0:
24,56,114812,1,8,0:0:0:0:
152,104,115146,1,0,0:0:0:0:
399,30,115479,6,0,B|431:70|431:70|423:126|471:166,1,150,10|0,0:0|0:0,0:0:0:0:
463,159,116146,2,0,P|374:218|375:327,1,200,0|2,0:0|0:0,0:0:0:0:
472,272,117146,1,0,0:0:0:0:
365,304,117479,2,0,L|256:340,1,100,2|2,0:0|0:0,0:0:0:0:
172,352,118146,5,10,0:0:0:0:
80,312,118479,1,0,0:0:0:0:
80,312,118646,1,0,0:0:0:0:
80,312,118812,2,0,P|48:272|32:224,1,100
76,136,119479,2,0,B|84:104|84:104|100:80|100:80|108:40,1,100,2|0,0:0|0:0,0:0:0:0:
107,42,120146,1,8,0:0:0:0:
392,32,120812,5,10,0:0:0:0:
432,120,121146,1,0,0:0:0:0:
456,168,121312,1,0,0:0:0:0:
432,216,121479,1,0,0:0:0:0:
432,312,121812,1,0,0:0:0:0:
336,288,122146,1,2,0:0:0:0:
288,288,122312,1,0,0:0:0:0:
256,328,122479,1,0,0:0:0:0:
160,312,122812,2,0,P|112:304|64:264,1,100,2|2,0:0|0:0,0:0:0:0:
112,136,123479,6,0,L|48:56,2,100,10|0|0,0:0|0:0|0:0,0:0:0:0:
208,128,124479,1,0,0:0:0:0:
216,224,124812,2,0,B|287:216|303:142|303:142|379:94,1,200,2|8,0:0|0:0,0:0:0:0:
448,52,125812,1,0,0:0:0:0:
432,304,126146,5,10,0:0:0:0:
336,320,126479,1,0,0:0:0:0:
336,320,126646,1,0,0:0:0:0:
336,320,126812,2,0,L|232:336,1,100
160,272,127479,2,0,L|104:280,2,50,2|0|0,0:0|0:0|0:0,0:0:0:0:
148,172,128146,2,0,P|100:140|84:92,1,100,2|2,0:0|0:0,0:0:0:0:
184,84,128812,6,0,P|204:37|254:9,1,100,10|0,0:0|0:0,0:0:0:0:
280,108,129479,2,0,P|323:82|380:89,1,100
344,180,130146,2,0,P|394:182|438:219,1,100,2|0,0:0|0:0,0:0:0:0:
360,276,130812,1,12,0:0:0:0:
168,24,131479,5,8,0:0:0:0:
106,97,131812,1,0,0:0:0:0:
106,97,131979,1,0,0:0:0:0:
106,97,132146,2,0,B|86:132|48:153|28:188,1,100,8|8,0:0|0:0,0:0:0:0:
88,264,132812,2,0,L|48:304,2,50,2|0|0,0:0|0:0|0:0,0:0:0:0:
168,320,133479,2,0,B|192:336|192:336|232:336|232:336|261:350,1,100,8|8,0:0|0:0,0:0:0:0:
360,352,134146,5,10,0:0:0:0:
456,320,134479,1,0,0:0:0:0:
440,272,134646,1,0,0:0:0:0:
456,224,134812,1,8,0:0:0:0:
480,128,135146,1,8,0:0:0:0:
480,128,135479,2,0,P|468:80|408:40,1,100,2|0,0:0|0:0,0:0:0:0:
332,24,136146,1,8,0:0:0:0:
104,64,136812,5,10,0:0:0:0:
40,144,137146,1,0,0:0:0:0:
80,176,137312,1,0,0:0:0:0:
128,168,137479,2,0,P|184:168|224:200,1,100,8|8,0:0|0:0,0:0:0:0:
152,264,138146,1,2,0:0:0:0:
152,264,138312,1,0,0:0:0:0:
152,264,138479,1,0,0:0:0:0:
152,360,138812,2,0,B|184:352|184:352|208:336|208:336|248:330,1,100,8|8,0:0|0:0,0:0:0:0:
344,312,139479,5,10,0:0:0:0:
432,264,139812,1,0,0:0:0:0:
448,216,139979,1,0,0:0:0:0:
432,168,140146,2,0,P|384:144|368:88,1,100,8|8,0:0|0:0,0:0:0:0:
400,8,140812,2,0,P|344:0|304:24,1,100,2|0,0:0|0:0,0:0:0:0:
232,104,141479,5,8,0:0:0:0:
200,144,141646,1,2,0:0:0:0:
216,192,141812,1,0,0:0:0:0:
200,240,141979,1,2,0:0:0:0:
232,280,142146,1,12,0:0:0:0:
