osu file format v12

[General]
AudioFilename: Billow on the Eternal Peak(Short Ver.).mp3
AudioLeadIn: 2000
PreviewTime: 87061
Countdown: 0
SampleSet: Soft
StackLeniency: 0.7
Mode: 0
LetterboxInBreaks: 0
WidescreenStoryboard: 1

[Editor]
DistanceSpacing: 0.9
BeatDivisor: 4
GridSize: 4
TimelineZoom: 1

[Metadata]
Title:Lang Zhu Qian Qiu Feng
TitleUnicode:浪逐千秋峰
Artist:EBTC
ArtistUnicode:無非文化
Creator:Akabato
Version:Easy
Source:霹靂震寰宇之兵甲龍痕
Tags:pili 擎海潮 孫敬凡 eric sun billow on eternal peak everything but the culture chinese classical 古風 中國風 布袋戲
BeatmapID:339329
BeatmapSetID:135436

[Difficulty]
HPDrainRate:2
CircleSize:3
OverallDifficulty:2
ApproachRate:3
SliderMultiplier:1
SliderTickRate:2

[Events]
//Background and Video events
0,0,"haichao.jpg",0,0
//Break Periods
2,34011,38128
2,57038,59236
//Storyboard Layer 0 (Background)
//Storyboard Layer 1 (Fail)
//Storyboard Layer 2 (Pass)
//Storyboard Layer 3 (Foreground)
//Storyboard Sound Samples
//Background Colour Transformations
3,100,163,162,255

[TimingPoints]
1190,479.731350443752,4,2,2,65,1,0
3108,-100,4,2,1,65,0,0
8865,-100,4,2,1,75,0,0
16541,-100,4,2,2,85,0,0
17021,-100,4,2,1,85,0,0
23497,-100,4,2,1,60,0,0
23977,-100,4,2,1,85,0,0
30933,-100,4,2,2,85,0,0
31413,-100,4,2,1,85,0,0
56838,-100,4,2,2,85,0,0
60676,-100,4,2,1,75,0,0
61876,-100,4,2,1,55,0,0
62115,-100,4,2,1,75,0,0
69551,-100,4,2,1,55,0,0
69791,-100,4,2,1,75,0,0
72190,-100,4,2,2,75,0,0
72669,-100,4,2,1,75,0,0
77227,-100,4,2,1,55,0,0
77467,-100,4,2,1,75,0,0
87541,-100,4,2,2,85,0,1
88021,-100,4,2,1,85,0,1
88740,-100,4,2,1,60,0,1
88980,-100,4,2,1,85,0,1
96416,-100,4,2,1,60,0,1
96656,-100,4,2,1,85,0,1
99055,-100,4,2,2,85,0,1
99534,-100,4,2,1,85,0,1
102893,-100,4,2,2,85,0,1
104811,-100,4,2,1,85,0,1
108649,-100,4,2,1,85,0,0
112487,-100,4,2,2,85,0,0

[Colours]
Combo1 : 179,98,98
Combo2 : 255,174,64
Combo3 : 108,108,255

[HitObjects]
256,148,950,6,0,L|256:220,1,50,0|4,0:0|0:0,0:0:0:0:
256,148,3108,5,2,0:0:0:0:
304,308,4068,2,0,P|256:316|196:304,1,100,0|8,0:0|0:0,0:0:0:0:
148,236,5027,2,0,P|256:148|360:240,1,300,4|8,0:0|0:0,0:0:0:0:
436,188,6946,6,0,P|408:120|400:32,2,150,2|0|8,0:0|0:0|0:0,0:0:0:0:
464,224,8625,2,0,L|464:280,1,50,0|4,0:0|0:0,0:0:0:0:
372,260,9345,2,0,B|304:276|276:344|192:348,1,200,2|8,0:0|0:0,0:0:0:0:
200,256,10784,5,4,0:0:0:0:
128,200,11264,1,2,0:0:0:0:
40,221,11744,2,0,P|38:172|72:128,1,100,0|8,0:0|0:0,0:0:0:0:
256,192,12703,12,0,15581,0:0:0:0:
256,192,16541,5,4,0:0:0:0:
172,228,17021,1,2,0:0:0:0:
88,192,17500,2,0,L|48:240,2,50,0|0|8,0:0|0:0|0:0,0:0:0:0:
84,100,18460,1,4,0:0:0:0:
171,77,18940,2,0,P|255:33|347:81,1,200,2|8,0:0|0:0,0:0:0:0:
432,90,20379,6,0,L|432:202,1,100,4|2,0:0|0:0,0:0:0:0:
433,280,21338,2,0,P|397:316|337:320,1,100,0|8,0:0|0:0,0:0:0:0:
259,322,22298,2,0,L|223:322|199:322,1,50,4|0,0:0|0:0,0:0:0:0:
204,232,23017,2,0,L|104:232,1,100,2|8,0:0|0:0,0:0:0:0:
40,168,23977,6,0,L|52:112,1,50,0|4,0:0|0:0,0:0:0:0:
100,44,24696,1,2,0:0:0:0:
190,45,25176,2,0,L|298:45,1,100,0|8,0:0|0:0,0:0:0:0:
380,44,26136,2,0,P|424:64|460:112,1,100,4|2,0:0|0:0,0:0:0:0:
408,180,27095,2,0,L|440:264,2,75,4|8|8,0:0|0:0|0:0,0:0:0:0:
363,178,28054,6,0,P|267:210|223:298,1,200,4|0,0:0|0:0,0:0:0:0:
135,278,29494,2,0,P|147:226|175:178,1,100,8|4,0:0|0:0,0:0:0:0:
235,126,30453,2,0,P|279:99|343:94,1,100,2|4,0:0|0:0,0:0:0:0:
415,90,31413,1,8,0:0:0:0:
256,192,31652,12,4,33811,0:0:0:0:
256,52,39568,5,4,0:0:0:0:
304,128,40048,2,0,P|258:143|211:129,1,100,2|0,0:0|0:0,0:0:0:0:
132,84,41007,1,8,0:0:0:0:
88,164,41487,2,0,P|78:211|87:266,1,100,4|2,0:0|0:0,0:0:0:0:
176,264,42446,2,0,P|185:216|176:161,1,100,0|8,0:0|0:0,0:0:0:0:
240,100,43406,5,4,0:0:0:0:
328,83,43886,2,0,P|416:55|481:131,1,200,2|8,0:0|0:0,0:0:0:0:
392,151,45325,2,0,P|377:201|359:249,1,100,4|2,0:0|0:0,0:0:0:0:
324,328,46284,1,0,0:0:0:0:
256,268,46764,1,8,0:0:0:0:
188,328,47244,6,0,L|84:328,1,100,4|2,0:0|0:0,0:0:0:0:
56,244,48203,2,0,P|40:196|36:144,1,100,0|8,0:0|0:0,0:0:0:0:
92,76,49163,1,4,0:0:0:0:
176,44,49642,2,0,B|248:20|300:60|376:40,1,200,2|8,0:0|0:0,0:0:0:0:
431,110,51082,5,4,0:0:0:0:
447,198,51561,1,2,0:0:0:0:
399,274,52041,2,0,P|351:286|303:274,1,100,0|8,0:0|0:0,0:0:0:0:
212,272,53000,2,0,P|163:259|115:271,1,100,4|2,0:0|0:0,0:0:0:0:
65,198,53960,1,0,0:0:0:0:
124,132,54440,1,8,0:0:0:0:
212,112,54919,6,0,B|256:88|256:88|308:116,1,100,4|2,0:0|0:0,0:0:0:0:
316,200,55879,1,0,0:0:0:0:
256,268,56359,1,8,0:0:0:0:
196,200,56838,1,4,0:0:0:0:
228,56,60676,6,0,P|196:92|180:140,1,100,4|2,0:0|0:0,0:0:0:0:
128,216,61636,2,0,L|60:220,2,50,0|8|8,0:0|0:0|0:0,0:0:0:0:
192,280,62595,2,0,L|304:276,1,100,4|2,0:0|0:0,0:0:0:0:
376,244,63555,2,0,P|372:196|380:132,1,100,0|8,0:0|0:0,0:0:0:0:
408,60,64514,5,4,0:0:0:0:
320,48,64994,1,2,0:0:0:0:
232,36,65474,2,0,L|124:80,1,100,0|8,0:0|0:0,0:0:0:0:
80,144,66433,2,0,B|92:192|92:192|76:248,1,100,4|2,0:0|0:0,0:0:0:0:
148,300,67392,2,0,L|148:356,2,50,0|0|8,0:0|0:0|0:0,0:0:0:0:
224,252,68352,5,4,0:0:0:0:
300,300,68832,1,2,0:0:0:0:
376,252,69311,2,0,L|428:304,2,50,0|8|8,0:0|0:0|0:0,0:0:0:0:
424,176,70271,1,4,0:0:0:0:
468,96,70751,2,0,B|416:92|372:68|372:68|328:92|272:100,1,200,2|8,0:0|0:0,0:0:0:0:
212,40,72190,6,0,L|108:40,1,100,4|2,0:0|0:0,0:0:0:0:
80,64,72909,2,0,P|88:136|68:216,1,150,0|8,0:0|0:0,0:0:0:0:
116,288,74109,2,0,P|164:300|212:288,1,100,4|2,0:0|0:0,0:0:0:0:
248,268,74828,2,0,B|320:248|320:248|412:276,1,150,0|8,0:0|0:0,0:0:0:0:
464,216,76028,6,0,L|464:112,1,100,4|2,0:0|0:0,0:0:0:0:
384,72,76987,2,0,L|384:20,2,50,0|8|8,0:0|0:0|0:0,0:0:0:0:
296,84,77947,2,0,L|176:84,1,100,4|2,0:0|0:0,0:0:0:0:
131,148,78906,2,0,L|75:148,2,50,0|0|8,0:0|0:0|0:0,0:0:0:0:
160,232,79865,6,0,P|160:284|184:328,1,100,4|2,0:0|0:0,0:0:0:0:
224,324,80585,2,0,B|272:308|324:340|396:320,1,150,0|8,0:0|0:0,0:0:0:0:
416,244,81784,2,0,P|436:196|428:140,1,100,4|2,0:0|0:0,0:0:0:0:
408,112,82504,2,0,B|344:80|344:80|260:80,1,150,0|8,0:0|0:0,0:0:0:0:
256,192,83703,12,0,86582,0:0:0:0:
256,192,87541,5,4,0:0:0:0:
257,101,88021,1,2,0:0:0:0:
335,146,88501,2,0,L|401:146,2,50,0|8|8,0:0|0:0|0:0,0:0:0:0:
256,192,89460,2,0,L|316:268,2,75,4|2|0,0:0|0:0|0:0,0:0:0:0:
216,212,90420,2,0,P|180:245|129:270,1,100,0|8,0:0|0:0,0:0:0:0:
56,224,91379,6,0,P|40:184|48:124,1,100,4|2,0:0|0:0,0:0:0:0:
64,92,92099,2,0,B|116:88|116:88|160:72|160:72|224:64,1,150,0|8,0:0|0:0,0:0:0:0:
300,56,93298,2,0,L|408:64,1,100,4|2,0:0|0:0,0:0:0:0:
432,88,94018,2,0,P|416:148|408:240,1,150,0|8,0:0|0:0,0:0:0:0:
340,296,95217,6,0,P|292:308|244:288,1,100,4|2,0:0|0:0,0:0:0:0:
160,264,96176,2,0,L|120:300,2,50,0|8|8,0:0|0:0|0:0,0:0:0:0:
228,204,97136,1,4,0:0:0:0:
279,130,97616,2,0,P|321:59|359:140,1,200,2|8,0:0|0:0,0:0:0:0:
412,208,99055,6,0,B|432:256|432:256|432:324,1,100,4|2,0:0|0:0,0:0:0:0:
356,356,100014,2,0,L|256:356,1,100,0|8,0:0|0:0,0:0:0:0:
184,300,100974,2,0,L|84:300,1,100,4|2,0:0|0:0,0:0:0:0:
52,268,101693,2,0,P|40:200|56:120,1,150,0|8,0:0|0:0,0:0:0:0:
128,68,102893,1,4,0:0:0:0:
256,192,103132,12,4,104811,0:0:0:0:
300,64,105771,6,0,P|264:88|204:96,1,100,0|8,0:0|0:0,0:0:0:0:
124,128,106730,2,0,L|96:228,1,100,4|2,0:0|0:0,0:0:0:0:
140,304,107690,2,0,P|192:300|248:308,1,100,0|8,0:0|0:0,0:0:0:0:
284,228,108649,5,4,0:0:0:0:
372,248,109129,2,0,L|416:304,2,50,2|0|0,0:0|0:0|0:0,0:0:0:0:
348,160,110089,1,8,0:0:0:0:
256,192,110568,12,4,112487,0:0:0:0:
