osu file format v12

[General]
AudioFilename: beacon and balefire.mp3
AudioLeadIn: 2000
PreviewTime: 77160
Countdown: 0
SampleSet: Soft
StackLeniency: 0.7
Mode: 0
LetterboxInBreaks: 0
WidescreenStoryboard: 0

[Editor]
DistanceSpacing: 1
BeatDivisor: 4
GridSize: 4
TimelineZoom: 1

[Metadata]
Title:Feng Huo Lang Yan
TitleUnicode:烽火狼煙
Artist:EBTC
ArtistUnicode:無非文化
Creator:Akabato
Version:Normal
Source:霹靂兵燹之刀戟勘魔錄
Tags:pili 赦生童子 異度魔界 beacon and balefire everything but the culture chinese classical 古風 中國風 布袋戲
BeatmapID:352897
BeatmapSetID:140842

[Difficulty]
HPDrainRate:4
CircleSize:4
OverallDifficulty:3
ApproachRate:5
SliderMultiplier:1.3
SliderTickRate:2

[Events]
//Background and Video events
0,0,"shesheng.jpg",0,0
//Break Periods
2,62370,68470
2,107370,113470
//Storyboard Layer 0 (Background)
//Storyboard Layer 1 (Fail)
//Storyboard Layer 2 (Pass)
//Storyboard Layer 3 (Foreground)
//Storyboard Sound Samples
//Background Colour Transformations
3,100,163,162,255

[TimingPoints]
295,468.75,4,2,1,60,1,0
30295,-100,4,2,1,65,0,0
45295,-100,4,2,1,30,0,0
47170,-100,4,2,1,70,0,0
92170,-100,4,2,2,70,0,0
92638,-100,4,2,1,70,0,0
107170,-100,4,2,2,70,0,0
114670,-100,4,2,1,65,0,0
129670,-100,4,2,2,65,0,0
129904,-100,4,2,1,65,0,0
159670,-100,4,2,2,65,0,0

[Colours]
Combo1 : 255,128,64
Combo2 : 128,0,0
Combo3 : 255,255,102
Combo4 : 171,86,86

[HitObjects]
100,56,295,6,0,P|93:100|93:192,1,130,0|2,0:0|0:0,0:0:0:0:
192,268,1232,1,0,0:0:0:0:
192,268,1466,2,0,L|276:268,1,65,0|2,0:0|0:0,0:0:0:0:
336,164,2170,2,0,L|404:164,2,65,0|0|2,0:0|0:0|0:0,0:0:0:0:
257,164,2873,1,0,0:0:0:0:
160,76,3341,2,0,L|84:76,1,65,0|2,0:0|0:0,0:0:0:0:
96,208,4045,6,0,P|116:252|188:316,1,130,0|2,0:0|0:0,0:0:0:0:
244,272,4748,1,0,0:0:0:0:
316,304,4982,2,0,L|384:336,2,65,0|0|2,0:0|0:0|0:0,0:0:0:0:
348,176,5920,2,0,P|368:112|376:32,1,130,0|2,0:0|0:0,0:0:0:0:
244,56,6857,2,0,L|164:76,1,65
104,92,7326,1,2,0:0:0:0:
72,220,7795,6,0,P|132:244|200:252,1,130,0|2,0:0|0:0,0:0:0:0:
324,276,8732,2,0,L|372:324,2,65,0|0|2,0:0|0:0|0:0,0:0:0:0:
396,168,9670,1,0,0:0:0:0:
304,76,10138,2,0,L|224:88,1,65,2|0,0:0|0:0,0:0:0:0:
132,160,10841,2,0,L|196:150,1,65,0|2,0:0|0:0,0:0:0:0:
212,228,11310,1,2,0:0:0:0:
192,304,11545,6,0,P|256:316|320:312,1,130,0|2,0:0|0:0,0:0:0:0:
400,208,12482,1,0,0:0:0:0:
400,208,12716,2,0,L|436:132,1,65,0|2,0:0|0:0,0:0:0:0:
296,152,13420,2,0,L|324:24,1,130,0|2,0:0|0:0,0:0:0:0:
244,28,14123,1,0,0:0:0:0:
152,120,14591,2,0,L|144:52,1,65,0|2,0:0|0:0,0:0:0:0:
104,180,15295,6,0,L|111:244,1,65,0|0,0:0|0:0,0:0:0:0:
120,321,15763,1,2,0:0:0:0:
316,308,16466,2,0,L|456:276,1,130,0|2,0:0|0:0,0:0:0:0:
436,200,17170,2,0,P|414:137|367:80,1,130,0|2,0:0|0:0,0:0:0:0:
184,56,18341,2,0,L|116:52,1,65,0|2,0:0|0:0,0:0:0:0:
60,104,18810,1,0,0:0:0:0:
100,172,19045,6,0,L|252:184,1,130,0|2,0:0|0:0,0:0:0:0:
372,316,20216,2,0,P|398:292|444:266,1,65,0|2,0:0|0:0,0:0:0:0:
296,248,20920,2,0,P|307:214|334:169,2,65,0|0|2,0:0|0:0|0:0,0:0:0:0:
104,204,22091,2,0,P|124:172|164:72,1,130,0|2,0:0|0:0,0:0:0:0:
236,68,22795,6,0,P|299:80|374:108,1,130,0|2,0:0|0:0,0:0:0:0:
440,280,23966,1,0,0:0:0:0:
440,280,24201,2,0,L|372:312,1,65,2|0,0:0|0:0,0:0:0:0:
336,244,24670,1,0,0:0:0:0:
336,244,24904,2,0,L|264:244,1,65,0|2,0:0|0:0,0:0:0:0:
100,148,25841,2,0,L|165:148,1,65,0|2,0:0|0:0,0:0:0:0:
244,148,26310,1,0,0:0:0:0:
243,69,26545,6,0,P|299:94|320:158,1,130,0|2,0:0|0:0,0:0:0:0:
452,296,27716,2,0,L|388:328,1,65,0|2,0:0|0:0,0:0:0:0:
264,300,28420,2,0,L|322:270,2,65,0|0|2,0:0|0:0|0:0,0:0:0:0:
128,160,29591,1,0,0:0:0:0:
128,160,29826,2,0,P|116:132|120:92,1,65,2|0,0:0|0:0,0:0:0:0:
195,115,30295,6,0,B|257:94|257:94|325:118,1,130,4|2,0:0|0:0,0:0:0:0:
256,300,31466,2,0,L|256:228,2,65,0|2|0,0:0|0:0|0:0,0:0:0:0:
180,322,32170,2,0,P|116:314|60:278,1,130,0|2,0:0|0:0,0:0:0:0:
180,124,33341,1,0,0:0:0:0:
180,124,33576,2,0,L|248:124,1,65,2|4,0:0|0:0,0:0:0:0:
304,176,34045,6,0,L|372:176,2,65,4|0|2,0:0|0:0|0:0,0:0:0:0:
112,220,35216,1,0,0:0:0:0:
128,295,35451,1,2,0:0:0:0:
186,242,35685,1,0,0:0:0:0:
204,316,35920,2,0,P|272:324|344:316,1,130,0|2,0:0|0:0,0:0:0:0:
408,296,36623,1,2,0:0:0:0:
412,168,37091,2,0,L|412:96,1,65,0|2,0:0|0:0,0:0:0:0:
292,52,37795,6,0,L|292:117,2,65,4|0|2,0:0|0:0|0:0,0:0:0:0:
140,176,38966,1,0,0:0:0:0:
140,176,39201,2,0,L|140:252,1,65,2|0,0:0|0:0,0:0:0:0:
216,264,39670,2,0,L|216:199,2,65,0|0|2,0:0|0:0|0:0,0:0:0:0:
412,264,40841,1,0,0:0:0:0:
412,264,41076,2,0,P|448:236|464:208,1,65,2|4,0:0|0:0,0:0:0:0:
388,184,41545,6,0,P|400:124|396:52,1,130,4|2,0:0|0:0,0:0:0:0:
200,48,42716,2,0,L|128:48,2,65,0|2|0,0:0|0:0|0:0,0:0:0:0:
200,128,43420,2,0,B|240:128|240:128|288:116|288:116|344:116,1,130,0|2,0:0|0:0,0:0:0:0:
440,276,44591,1,0,0:0:0:0:
440,276,44826,2,0,L|372:276,1,65,6|0,0:0|0:0,0:0:0:0:
296,276,45295,5,2,0:0:0:0:
104,80,47170,6,0,P|172:76|240:80,1,130,4|8,0:0|0:0,0:0:0:0:
364,88,48107,2,0,L|364:160,1,65,4|2,0:0|0:0,0:0:0:0:
364,232,48576,1,8,0:0:0:0:
252,300,49045,2,0,P|188:304|120:300,1,130,4|8,0:0|0:0,0:0:0:0:
176,180,49982,2,0,L|112:180,2,65,4|2|8,0:0|0:0|0:0,0:0:0:0:
252,180,50685,1,8,0:0:0:0:
305,237,50920,6,0,P|328:178|304:120,1,130,4|8,0:0|0:0,0:0:0:0:
412,48,51857,1,4,0:0:0:0:
412,48,52091,2,0,L|472:96,1,65,2|8,0:0|0:0,0:0:0:0:
424,212,52795,2,0,L|484:260,2,65,4|2|8,0:0|0:0|0:0,0:0:0:0:
364,160,53498,1,2,0:0:0:0:
272,252,53966,2,0,L|221:211,1,65,10|8,0:0|0:0,0:0:0:0:
92,208,54670,6,0,P|109:141|159:97,1,130,4|8,0:0|0:0,0:0:0:0:
276,56,55607,2,0,L|348:56,1,65,4|2,0:0|0:0,0:0:0:0:
419,56,56076,1,8,0:0:0:0:
388,184,56545,1,4,0:0:0:0:
388,184,56779,2,0,L|388:260,1,65,0|8,0:0|0:0,0:0:0:0:
256,268,57482,2,0,L|256:344,2,65,4|2|8,0:0|0:0|0:0,0:0:0:0:
256,188,58185,1,8,0:0:0:0:
314,135,58420,6,0,P|256:109|196:137,1,130,4|8,0:0|0:0,0:0:0:0:
116,232,59357,1,4,0:0:0:0:
116,232,59591,2,0,L|76:284,1,65,2|8,0:0|0:0,0:0:0:0:
204,308,60295,2,0,L|276:292,1,65,4|2,0:0|0:0,0:0:0:0:
292,220,60763,2,0,L|360:236,1,65,8|2,0:0|0:0,0:0:0:0:
440,136,61466,2,0,L|396:76,1,65,10|8,0:0|0:0,0:0:0:0:
276,44,62170,5,4,0:0:0:0:
196,60,69670,6,0,P|264:52|328:52,1,130,4|8,0:0|0:0,0:0:0:0:
404,156,70607,2,0,L|480:136,2,65,4|2|8,0:0|0:0|0:0,0:0:0:0:
424,284,71545,1,4,0:0:0:0:
296,300,72013,2,0,L|232:284,1,65,8|8,0:0|0:0,0:0:0:0:
216,208,72482,2,0,B|152:216|152:216|88:204,1,130,4|8,0:0|0:0,0:0:0:0:
60,76,73420,6,0,B|124:68|124:68|188:80,1,130,4|8,0:0|0:0,0:0:0:0:
316,56,74357,1,4,0:0:0:0:
316,56,74591,2,0,L|384:36,1,65,2|8,0:0|0:0,0:0:0:0:
440,152,75295,2,0,L|378:170,1,65,4|8,0:0|0:0,0:0:0:0:
380,248,75763,2,0,L|318:266,1,65,8|2,0:0|0:0,0:0:0:0:
192,304,76466,1,2,0:0:0:0:
192,304,76701,1,8,0:0:0:0:
101,211,77170,6,0,B|101:163|101:163|109:131|109:131|109:71,1,130,4|8,0:0|0:0,0:0:0:0:
236,48,78107,1,4,0:0:0:0:
245,124,78341,1,2,0:0:0:0:
307,79,78576,1,8,0:0:0:0:
396,176,79045,2,0,L|476:160,2,65,4|0|8,0:0|0:0|0:0,0:0:0:0:
384,304,79982,2,0,L|321:316,1,65,4|2,0:0|0:0,0:0:0:0:
256,272,80451,2,0,L|193:284,1,65,8|8,0:0|0:0,0:0:0:0:
115,295,80920,6,0,P|95:229|87:163,1,130,4|8,0:0|0:0,0:0:0:0:
164,64,81857,1,4,0:0:0:0:
164,64,82091,2,0,L|241:46,1,65,2|8,0:0|0:0,0:0:0:0:
356,72,82795,2,0,B|359:124|401:143|406:203,1,130,4|8,0:0|0:0,0:0:0:0:
420,268,83498,1,2,0:0:0:0:
296,308,83966,2,0,P|264:320|232:324,1,65,2|8,0:0|0:0,0:0:0:0:
132,240,84670,6,0,P|99:244|69:255,2,65,4|0|8,0:0|0:0|0:0,0:0:0:0:
160,112,85607,2,0,L|232:92,1,65,4|2,0:0|0:0,0:0:0:0:
248,20,86076,2,0,L|320:36,1,65,8|8,0:0|0:0,0:0:0:0:
300,112,86545,1,4,0:0:0:0:
420,160,87013,1,8,0:0:0:0:
380,284,87482,2,0,L|324:324,1,65,4|2,0:0|0:0,0:0:0:0:
248,320,87951,1,8,0:0:0:0:
124,276,88420,6,0,B|124:208|124:208|100:144,1,130,4|8,0:0|0:0,0:0:0:0:
200,64,89357,1,4,0:0:0:0:
200,64,89591,2,0,L|268:36,1,65,2|8,0:0|0:0,0:0:0:0:
352,132,90295,2,0,L|420:104,2,65,4|2|8,0:0|0:0|0:0,0:0:0:0:
280,164,90998,1,2,0:0:0:0:
368,260,91466,1,6,0:0:0:0:
368,260,91701,2,0,L|332:320,1,65,12|4,0:0|0:0,0:0:0:0:
256,328,92170,5,4,0:0:0:0:
128,312,92638,1,8,0:0:0:0:
48,208,93107,2,0,P|51:159|48:68,1,130,4|8,0:0|0:0,0:0:0:0:
176,52,94045,2,0,L|244:52,1,65,4|2,0:0|0:0,0:0:0:0:
242,129,94513,2,0,L|242:201,1,65,8|2,0:0|0:0,0:0:0:0:
314,224,94982,1,4,0:0:0:0:
376,108,95451,1,8,0:0:0:0:
376,108,95920,5,4,0:0:0:0:
256,56,96388,1,8,0:0:0:0:
136,108,96857,1,4,0:0:0:0:
136,108,97091,2,0,L|72:156,1,65,2|8,0:0|0:0,0:0:0:0:
88,276,97795,2,0,L|140:237,1,65,4|2,0:0|0:0,0:0:0:0:
200,288,98263,2,0,L|148:327,2,65,8|2|4,0:0|0:0|0:0,0:0:0:0:
332,288,99201,1,8,0:0:0:0:
332,288,99670,6,0,P|396:268|448:224,1,130,4|8,0:0|0:0,0:0:0:0:
384,112,100607,2,0,L|428:32,2,65,4|2|8,0:0|0:0|0:0,0:0:0:0:
252,112,101545,2,0,L|296:32,2,65,4|2|8,0:0|0:0|0:0,0:0:0:0:
174,112,102248,2,0,L|138:172,1,65,2|4,0:0|0:0,0:0:0:0:
80,284,102951,1,8,0:0:0:0:
80,284,103420,5,4,0:0:0:0:
204,328,103888,1,8,0:0:0:0:
328,288,104357,2,0,P|379:290|464:287,1,130,4|8,0:0|0:0,0:0:0:0:
432,160,105295,1,4,0:0:0:0:
412,84,105529,1,2,0:0:0:0:
348,40,105763,2,0,P|292:36|207:38,1,130,8|4,0:0|0:0,0:0:0:0:
192,112,106466,2,0,L|120:112,1,65,6|0,0:0|0:0,0:0:0:0:
88,180,106935,1,4,0:0:0:0:
88,180,107170,5,4,0:0:0:0:
116,68,114670,5,4,0:0:0:0:
116,68,114904,2,0,L|188:40,1,65,0|2,0:0|0:0,0:0:0:0:
225,105,115373,1,0,0:0:0:0:
300,84,115607,2,0,P|354:109|432:113,1,130,0|8,0:0|0:0,0:0:0:0:
420,244,116545,2,0,L|376:300,1,65,4|0,0:0|0:0,0:0:0:0:
304,320,117013,2,0,L|240:320,1,65,2|0,0:0|0:0,0:0:0:0:
160,320,117482,1,0,0:0:0:0:
64,232,117951,2,0,L|64:160,1,65,8|8,0:0|0:0,0:0:0:0:
142,167,118420,6,0,B|142:103|142:103|158:71|158:39,1,130,4|2,0:0|0:0,0:0:0:0:
234,57,119123,1,0,0:0:0:0:
310,73,119357,2,0,L|381:89,2,65,0|0|8,0:0|0:0|0:0,0:0:0:0:
332,201,120295,2,0,L|395:215,1,65,4|0,0:0|0:0,0:0:0:0:
384,292,120763,2,0,L|447:306,1,65,2|0,0:0|0:0,0:0:0:0:
256,336,121701,2,0,L|184:348,1,65,8|8,0:0|0:0,0:0:0:0:
124,308,122170,6,0,L|76:364,2,65,4|0|2,0:0|0:0|0:0,0:0:0:0:
92,236,122873,1,0,0:0:0:0:
92,236,123107,2,0,L|92:100,1,130,0|8,0:0|0:0,0:0:0:0:
208,44,124045,2,0,P|240:48|276:44,1,65,4|0,0:0|0:0,0:0:0:0:
340,84,124513,1,2,0:0:0:0:
404,128,124748,2,0,P|436:124|472:128,1,65
440,256,125451,1,8,0:0:0:0:
440,256,125685,1,8,0:0:0:0:
400,324,125920,6,0,P|336:331|271:322,1,130,4|2,0:0|0:0,0:0:0:0:
193,327,126623,1,0,0:0:0:0:
115,329,126857,2,0,L|101:261,1,65
85,188,127326,1,8,0:0:0:0:
148,74,127795,2,0,L|224:51,1,65,4|0,0:0|0:0,0:0:0:0:
272,104,128263,2,0,L|348:81,1,65,2|0,0:0|0:0,0:0:0:0:
404,120,128732,2,0,P|428:164|452:244,1,130,0|8,0:0|0:0,0:0:0:0:
333,296,129670,5,4,0:0:0:0:
256,192,130138,1,2,0:0:0:0:
256,60,130607,2,0,L|336:60,2,65,0|0|8,0:0|0:0|0:0,0:0:0:0:
124,60,131545,2,0,P|60:76|12:124,1,130,4|2,0:0|0:0,0:0:0:0:
76,236,132482,2,0,L|76:312,1,65
148,332,132951,2,0,L|148:268,1,65,8|8,0:0|0:0,0:0:0:0:
220,296,133420,6,0,B|220:228|220:228|248:168,1,130,4|2,0:0|0:0,0:0:0:0:
344,257,134357,1,0,0:0:0:0:
421,257,134591,1,0,0:0:0:0:
382,189,134826,2,0,L|382:113,1,65,8|8,0:0|0:0,0:0:0:0:
382,45,135295,1,4,0:0:0:0:
252,45,135763,2,0,L|184:45,1,65,2|0,0:0|0:0,0:0:0:0:
84,124,136466,1,0,0:0:0:0:
84,124,136701,1,10,0:0:0:0:
84,256,137170,6,0,P|132:300|200:316,1,130,4|2,0:0|0:0,0:0:0:0:
324,316,138107,1,0,0:0:0:0:
324,316,138341,2,0,L|376:276,1,65,0|8,0:0|0:0,0:0:0:0:
377,198,138810,1,8,0:0:0:0:
377,119,139045,2,0,L|429:79,2,65,4|0|2,0:0|0:0|0:0,0:0:0:0:
248,104,139982,1,0,0:0:0:0:
182,62,140216,1,0,0:0:0:0:
179,139,140451,1,8,0:0:0:0:
92,236,140920,6,0,L|120:296,1,65,4|0,0:0|0:0,0:0:0:0:
196,308,141388,1,2,0:0:0:0:
324,324,141857,1,0,0:0:0:0:
324,324,142091,2,0,L|400:336,1,65,0|8,0:0|0:0,0:0:0:0:
436,272,142560,1,8,0:0:0:0:
404,200,142795,2,0,P|420:136|452:68,1,130,4|2,0:0|0:0,0:0:0:0:
320,44,143732,1,0,0:0:0:0:
244,64,143966,2,0,L|180:80,1,65,0|8,0:0|0:0,0:0:0:0:
56,112,144670,5,4,0:0:0:0:
80,240,145138,1,2,0:0:0:0:
188,312,145607,2,0,L|256:336,1,65
316,292,146076,2,0,L|388:280,1,65,8|8,0:0|0:0,0:0:0:0:
444,236,146545,2,0,L|492:280,2,65,4|0|2,0:0|0:0|0:0,0:0:0:0:
412,108,147482,2,0,P|352:88|300:44,1,130,0|8,0:0|0:0,0:0:0:0:
180,92,148420,6,0,P|128:132|64:156,1,130,4|2,0:0|0:0,0:0:0:0:
124,272,149357,2,0,L|96:340,2,65,0|0|8,0:0|0:0|0:0,0:0:0:0:
196,240,150060,1,8,0:0:0:0:
268,272,150295,2,0,B|312:272|312:272|352:256|352:256|396:256,1,130,4|2,0:0|0:0,0:0:0:0:
440,192,150998,1,0,0:0:0:0:
356,92,151466,2,0,L|356:20,1,65,0|10,0:0|0:0,0:0:0:0:
228,52,152170,5,4,0:0:0:0:
228,52,152404,2,0,L|228:128,1,65,0|2,0:0|0:0,0:0:0:0:
96,116,153107,2,0,B|96:180|96:180|72:248,1,130,0|8,0:0|0:0,0:0:0:0:
192,300,154045,1,4,0:0:0:0:
256,256,154279,1,0,0:0:0:0:
320,300,154513,1,2,0:0:0:0:
416,212,154982,2,0,P|427:181|429:145,1,65
434,71,155451,1,8,0:0:0:0:
304,60,155920,6,0,P|260:57|171:61,1,130,4|2,0:0|0:0,0:0:0:0:
121,118,156623,1,0,0:0:0:0:
153,190,156857,2,0,L|229:190,1,65
249,262,157326,2,0,L|329:262,1,65,8|8,0:0|0:0,0:0:0:0:
393,262,157795,5,4,0:0:0:0:
393,262,158029,1,4,0:0:0:0:
256,192,158263,12,4,159670,0:0:0:0:
