osu file format v12

[General]
AudioFilename: beacon and balefire.mp3
AudioLeadIn: 2000
PreviewTime: 77160
Countdown: 0
SampleSet: Soft
StackLeniency: 0.7
Mode: 0
LetterboxInBreaks: 0
WidescreenStoryboard: 0

[Editor]
DistanceSpacing: 1.5
BeatDivisor: 4
GridSize: 4
TimelineZoom: 1

[Metadata]
Title:Feng Huo Lang Yan
TitleUnicode:烽火狼煙
Artist:EBTC
ArtistUnicode:無非文化
Creator:Akabato
Version:Hard
Source:霹靂兵燹之刀戟勘魔錄
Tags:pili 赦生童子 異度魔界 beacon and balefire everything but the culture chinese classical 古風 中國風 布袋戲
BeatmapID:351567
BeatmapSetID:140842

[Difficulty]
HPDrainRate:6
CircleSize:4
OverallDifficulty:6
ApproachRate:8
SliderMultiplier:1.6
SliderTickRate:2

[Events]
//Background and Video events
0,0,"shesheng.jpg",0,0
//Break Periods
2,92370,98920
//Storyboard Layer 0 (Background)
//Storyboard Layer 1 (Fail)
//Storyboard Layer 2 (Pass)
//Storyboard Layer 3 (Foreground)
//Storyboard Sound Samples
//Background Colour Transformations
3,100,163,162,255

[TimingPoints]
295,468.75,4,2,1,60,1,0
30295,-100,4,2,1,65,0,0
45295,-100,4,2,1,30,0,0
47170,-100,4,2,1,70,0,0
92170,-100,4,2,2,70,0,0
99670,-100,4,2,1,70,0,0
107170,-100,4,2,2,70,0,0
107638,-100,4,2,1,60,0,0
114670,-100,4,2,1,65,0,0
129670,-100,4,2,2,65,0,0
129904,-100,4,2,1,65,0,0
159670,-100,4,2,2,65,0,0

[Colours]
Combo1 : 255,128,64
Combo2 : 128,0,0
Combo3 : 255,255,102
Combo4 : 171,86,86

[HitObjects]
84,88,295,6,0,L|204:72,1,120,2|0,0:0|0:0,0:0:0:0:
288,116,880,2,0,L|327:109,1,40,0|2,0:0|0:0,0:0:0:0:
207,168,1232,2,0,P|205:193|208:297,1,120,0|0,0:0|0:0,0:0:0:0:
308,292,1818,2,0,L|308:344,1,40,0|2,0:0|0:0,0:0:0:0:
404,148,2170,6,0,P|405:164|400:272,2,120,0|0|2,0:0|0:0|0:0,0:0:0:0:
352,68,3107,2,0,P|312:60|232:56,1,120,0|0,0:0|0:0,0:0:0:0:
148,104,3693,2,0,L|100:100,1,40,0|2,0:0|0:0,0:0:0:0:
228,152,4045,6,0,P|228:176|219:284,1,120,2|0,0:0|0:0,0:0:0:0:
124,284,4630,1,0,0:0:0:0:
121,287,4748,1,2,0:0:0:0:
221,272,4982,2,0,P|261:264|345:256,1,120,0|0,0:0|0:0,0:0:0:0:
412,184,5568,1,0,0:0:0:0:
416,184,5685,1,2,0:0:0:0:
324,160,5920,6,0,P|317:128|293:39,1,120,0|0,0:0|0:0,0:0:0:0:
200,60,6505,2,0,L|188:20,1,40,0|2,0:0|0:0,0:0:0:0:
116,112,6857,2,0,P|121:139|148:236,1,120,0|0,0:0|0:0,0:0:0:0:
240,248,7443,2,0,L|252:296,1,40,0|2,0:0|0:0,0:0:0:0:
200,60,7795,6,0,P|259:65|319:64,2,120,2|0|2,0:0|0:0|0:0,0:0:0:0:
116,112,8732,2,0,P|116:144|104:232,2,120,0|0|2,0:0|0:0|0:0,0:0:0:0:
208,344,9670,6,0,P|202:284|200:224,2,120,0|0|2,0:0|0:0|0:0,0:0:0:0:
276,164,10607,2,0,P|299:165|400:164,2,120,0|0|2,0:0|0:0|0:0,0:0:0:0:
208,232,11545,6,0,P|183:199|142:131,1,120,2|0,0:0|0:0,0:0:0:0:
232,72,12130,1,0,0:0:0:0:
236,72,12248,1,2,0:0:0:0:
276,164,12482,2,0,P|311:146|394:97,1,120,0|0,0:0|0:0,0:0:0:0:
424,192,13068,2,0,L|460:168,1,40,0|2,0:0|0:0,0:0:0:0:
340,244,13420,6,0,P|304:261|221:310,1,120,0|0,0:0|0:0,0:0:0:0:
148,260,14005,1,0,0:0:0:0:
144,260,14123,1,2,0:0:0:0:
224,196,14357,2,0,P|205:160|155:78,2,120,0|0|2,0:0|0:0|0:0,0:0:0:0:
424,192,15295,6,0,L|472:272,2,80,0|0|2,0:0|0:0|0:0,0:0:0:0:
372,112,15998,1,0,0:0:0:0:
184,64,16466,1,0,0:0:0:0:
184,64,16701,2,0,L|104:64,1,80,2|0,0:0|0:0,0:0:0:0:
216,160,17170,5,0,0:0:0:0:
120,160,17405,1,0,0:0:0:0:
40,160,17639,2,0,L|120:160,1,80,2|0,0:0|0:0,0:0:0:0:
392,236,18341,1,0,0:0:0:0:
392,236,18576,2,0,L|392:324,1,80,2|0,0:0|0:0,0:0:0:0:
304,292,19045,5,0,0:0:0:0:
304,196,19280,1,0,0:0:0:0:
304,116,19514,2,0,L|304:196,1,80,2|0,0:0|0:0,0:0:0:0:
112,308,20216,1,0,0:0:0:0:
112,308,20451,2,0,L|112:220,1,80,2|0,0:0|0:0,0:0:0:0:
40,164,20920,5,0,0:0:0:0:
112,104,21154,1,0,0:0:0:0:
188,164,21388,1,2,0:0:0:0:
112,228,21623,1,0,0:0:0:0:
416,156,22091,1,0,0:0:0:0:
416,156,22326,2,0,L|416:72,1,80,2|0,0:0|0:0,0:0:0:0:
328,200,22795,5,0,0:0:0:0:
328,200,23029,2,0,L|328:296|328:292,1,80,0|2,0:0|0:0,0:0:0:0:
232,284,23498,1,0,0:0:0:0:
232,188,23732,2,0,L|104:188,1,120
112,188,24201,1,2,0:0:0:0:
16,188,24435,1,0,0:0:0:0:
216,88,24670,6,0,L|296:88,1,80
392,88,25138,1,2,0:0:0:0:
392,88,25373,1,0,0:0:0:0:
392,184,25607,2,0,L|392:304,1,120
392,304,26076,1,2,0:0:0:0:
392,304,26310,1,0,0:0:0:0:
392,88,26545,6,0,L|304:88,2,80,0|0|2,0:0|0:0|0:0,0:0:0:0:
392,88,27248,1,0,0:0:0:0:
276,176,27482,2,0,L|156:176,1,120
156,176,27951,2,0,L|76:236,1,80,2|0,0:0|0:0,0:0:0:0:
156,60,28420,6,0,L|76:120,2,80,0|0|2,0:0|0:0|0:0,0:0:0:0:
156,60,29123,1,0,0:0:0:0:
252,60,29357,2,0,L|376:60,1,120
372,60,29826,2,0,L|372:144,1,80,2|0,0:0|0:0,0:0:0:0:
256,192,30295,5,4,0:0:0:0:
256,192,30529,2,0,L|256:288,1,80,0|2,0:0|0:0,0:0:0:0:
168,308,30998,1,0,0:0:0:0:
72,292,31232,2,0,P|70:252|72:208,1,80
72,172,31584,1,0,0:0:0:0:
76,132,31701,2,0,P|78:92|76:48,1,80,2|0,0:0|0:0,0:0:0:0:
256,52,32170,6,0,L|340:52,1,80
340,148,32638,2,0,L|424:148,1,80,2|0,0:0|0:0,0:0:0:0:
256,192,33107,2,0,P|255:215|256:312,1,120
256,312,33576,2,0,L|168:314,1,80,2|0,0:0|0:0,0:0:0:0:
256,192,34045,5,4,0:0:0:0:
256,192,34279,1,0,0:0:0:0:
256,96,34513,2,0,P|288:94|420:95,1,160,2|0,0:0|0:0,0:0:0:0:
256,192,35216,1,0,0:0:0:0:
256,288,35451,2,0,P|236:288|171:286,1,80,2|0,0:0|0:0,0:0:0:0:
124,200,35920,6,0,P|104:199|39:201,1,80,0|0,0:0|0:0,0:0:0:0:
153,102,36388,2,0,P|195:98|313:101,1,160,2|0,0:0|0:0,0:0:0:0:
408,104,37091,1,2,0:0:0:0:
408,104,37326,2,0,L|440:188,1,80,2|0,0:0|0:0,0:0:0:0:
360,244,37795,6,0,L|392:328,2,80,0|0|2,0:0|0:0|0:0,0:0:0:0:
324,156,38498,1,0,0:0:0:0:
225,154,38732,2,0,P|189:152|144:156,1,80
105,154,39084,1,0,0:0:0:0:
105,154,39201,2,0,L|52:88,1,80,2|0,0:0|0:0,0:0:0:0:
56,236,39670,6,0,L|116:313,1,80,0|0,0:0|0:0,0:0:0:0:
193,337,40138,2,0,P|223:339|357:338,1,160,2|0,0:0|0:0,0:0:0:0:
432,284,40841,1,0,0:0:0:0:
432,244,40959,1,0,0:0:0:0:
432,204,41076,2,0,L|432:112,1,80,2|0,0:0|0:0,0:0:0:0:
256,60,41545,5,4,0:0:0:0:
256,60,41779,2,0,L|256:148,1,80,0|2,0:0|0:0,0:0:0:0:
164,168,42248,1,0,0:0:0:0:
72,196,42482,2,0,P|70:235|72:300,1,80
71,315,42834,1,0,0:0:0:0:
71,315,42951,1,2,0:0:0:0:
168,300,43185,1,0,0:0:0:0:
168,300,43420,5,0,0:0:0:0:
264,312,43654,1,0,0:0:0:0:
360,304,43888,2,0,P|384:304|440:300,1,80,2|0,0:0|0:0,0:0:0:0:
356,204,44357,2,0,P|356:168|360:96,1,80
328,96,44709,1,0,0:0:0:0:
328,96,44826,2,0,L|320:12,1,80,6|0,0:0|0:0,0:0:0:0:
256,192,45295,5,2,0:0:0:0:
32,240,47170,6,0,P|71:243|190:243,1,160,4|8,0:0|0:0,0:0:0:0:
363,73,48107,2,0,L|449:84,1,80,4|2,0:0|0:0,0:0:0:0:
379,174,48576,2,0,L|458:185,1,80,8|8,0:0|0:0,0:0:0:0:
341,263,49045,6,0,P|301:257|178:249,1,160,4|8,0:0|0:0,0:0:0:0:
196,344,49748,1,2,0:0:0:0:
108,308,49982,2,0,P|67:305|20:296,1,80,4|2,0:0|0:0,0:0:0:0:
24,188,50451,2,0,P|64:190|111:199,1,80,8|8,0:0|0:0,0:0:0:0:
228,44,50920,6,0,P|304:60|381:93,1,160,4|8,0:0|0:0,0:0:0:0:
404,188,51623,1,2,0:0:0:0:
428,280,51857,2,0,P|366:274|324:236,1,120,4|0,0:0|0:0,0:0:0:0:
325,237,52326,2,0,L|250:273,1,80,8|8,0:0|0:0,0:0:0:0:
168,220,52795,6,0,L|84:260,2,80,4|2|8,0:0|0:0|0:0,0:0:0:0:
256,192,53498,1,2,0:0:0:0:
344,164,53732,2,0,L|428:124,2,80,4|2|8,0:0|0:0|0:0,0:0:0:0:
256,192,54435,1,8,0:0:0:0:
322,263,54670,6,0,B|283:302|227:286|227:286|172:316,1,160,4|8,0:0|0:0,0:0:0:0:
100,84,55607,2,0,P|70:96|16:123,1,80,4|2,0:0|0:0,0:0:0:0:
140,180,56076,1,8,0:0:0:0:
228,140,56310,1,8,0:0:0:0:
268,16,56545,6,0,P|238:28|184:55,1,80,4|2,0:0|0:0,0:0:0:0:
320,100,57013,1,8,0:0:0:0:
408,60,57248,1,2,0:0:0:0:
328,204,57482,2,0,P|292:221|255:237,2,80,4|2|8,0:0|0:0|0:0,0:0:0:0:
412,168,58185,1,8,0:0:0:0:
412,168,58420,6,0,P|454:237|486:309,1,160,4|8,0:0|0:0,0:0:0:0:
380,304,59123,1,2,0:0:0:0:
328,204,59357,2,0,P|289:220|198:268,1,120,4|0,0:0|0:0,0:0:0:0:
220,256,59826,1,8,0:0:0:0:
132,296,60060,1,8,0:0:0:0:
180,168,60295,6,0,L|148:80,2,80,4|0|8,0:0|0:0|0:0,0:0:0:0:
220,256,60998,1,2,0:0:0:0:
444,160,61466,2,0,L|472:235,1,80,10|8,0:0|0:0,0:0:0:0:
65,239,62170,6,0,P|141:263|225:255,1,160,4|8,0:0|0:0,0:0:0:0:
209,159,62873,1,2,0:0:0:0:
197,63,63107,2,0,P|121:39|37:47,1,160,4|8,0:0|0:0,0:0:0:0:
53,143,63810,1,0,0:0:0:0:
65,239,64045,6,0,P|141:263|225:255,1,160,4|8,0:0|0:0,0:0:0:0:
209,159,64748,1,2,0:0:0:0:
298,124,64982,2,0,L|326:36,2,80,4|2|8,0:0|0:0|0:0,0:0:0:0:
209,159,65685,1,8,0:0:0:0:
207,317,65920,6,0,P|197:235|209:159,1,160,4|8,0:0|0:0,0:0:0:0:
298,124,66623,1,2,0:0:0:0:
386,87,66857,2,0,P|397:166|386:245,1,160,4|8,0:0|0:0,0:0:0:0:
298,288,67560,1,0,0:0:0:0:
207,317,67795,6,0,P|197:235|209:159,1,160,4|8,0:0|0:0,0:0:0:0:
298,124,68498,2,0,P|298:92|306:37,1,80,2|4,0:0|0:0,0:0:0:0:
403,26,68966,2,0,P|397:66|397:106,1,80,2|8,0:0|0:0,0:0:0:0:
365,194,69435,1,8,0:0:0:0:
365,194,69670,5,4,0:0:0:0:
420,364,69904,1,0,0:0:0:0:
420,364,70021,1,0,0:0:0:0:
420,364,70138,2,0,L|383:266,1,80,8|8,0:0|0:0,0:0:0:0:
268,208,70607,2,0,L|296:283,1,80,4|2,0:0|0:0,0:0:0:0:
172,231,71076,2,0,L|135:133,1,80,8|2,0:0|0:0,0:0:0:0:
268,208,71545,6,0,P|340:172|396:160,1,120,4|0,0:0|0:0,0:0:0:0:
416,152,72013,2,0,L|430:50,1,80,8|8,0:0|0:0,0:0:0:0:
284,112,72482,2,0,L|296:28,2,80,4|2|8,0:0|0:0|0:0,0:0:0:0:
268,208,73185,1,0,0:0:0:0:
224,348,73420,6,0,P|172:320|136:272,1,120,4|0,0:0|0:0,0:0:0:0:
136,272,73888,2,0,L|56:243,1,80,8|8,0:0|0:0,0:0:0:0:
68,148,74357,2,0,L|36:116,1,40,4|8,0:0|0:0,0:0:0:0:
148,88,74709,2,0,L|132:32,1,40,0|8,0:0|0:0,0:0:0:0:
236,132,75060,1,8,0:0:0:0:
236,132,75295,5,4,0:0:0:0:
399,82,75763,2,0,L|456:20,1,80,8|2,0:0|0:0,0:0:0:0:
344,304,76466,2,0,L|291:364,1,80,2|8,0:0|0:0,0:0:0:0:
132,47,77170,5,4,0:0:0:0:
399,83,77638,1,8,0:0:0:0:
113,186,78107,1,4,0:0:0:0:
207,205,78341,1,2,0:0:0:0:
189,299,78576,1,8,0:0:0:0:
283,318,78810,1,8,0:0:0:0:
380,336,79045,6,0,P|398:289|420:173,1,160,4|8,0:0|0:0,0:0:0:0:
399,83,79748,1,2,0:0:0:0:
316,32,79982,2,0,L|238:12,1,80,4|2,0:0|0:0,0:0:0:0:
120,77,80451,2,0,L|197:96,1,80,8|8,0:0|0:0,0:0:0:0:
256,276,80920,5,4,0:0:0:0:
312,352,81154,1,0,0:0:0:0:
356,268,81388,1,8,0:0:0:0:
312,352,81623,1,2,0:0:0:0:
256,276,81857,1,4,0:0:0:0:
408,348,82091,1,2,0:0:0:0:
356,268,82326,2,0,L|452:244,1,80,8|2,0:0|0:0,0:0:0:0:
296,172,82795,6,0,P|337:164|465:129,1,160,4|8,0:0|0:0,0:0:0:0:
312,76,83498,1,2,0:0:0:0:
312,76,83732,1,4,0:0:0:0:
216,68,83966,2,0,L|133:51,1,80,2|8,0:0|0:0,0:0:0:0:
48,88,84435,1,8,0:0:0:0:
72,292,84670,6,0,P|120:304|240:308,1,160,4|8,0:0|0:0,0:0:0:0:
292,236,85373,1,2,0:0:0:0:
388,244,85607,2,0,P|392:194|389:122,1,120,4|0,0:0|0:0,0:0:0:0:
389,124,86076,2,0,L|448:56,1,80,8|8,0:0|0:0,0:0:0:0:
288,92,86545,6,0,L|354:23,2,80,4|2|8,0:0|0:0|0:0,0:0:0:0:
228,168,87248,1,2,0:0:0:0:
188,80,87482,2,0,P|146:62|106:61,1,80,4|2,0:0|0:0,0:0:0:0:
50,136,87951,2,0,P|87:152|127:156,1,80,8|8,0:0|0:0,0:0:0:0:
188,312,88420,6,0,P|268:304|356:260,1,160,4|8,0:0|0:0,0:0:0:0:
408,204,89123,1,2,0:0:0:0:
430,110,89357,2,0,P|396:84|318:54,1,120,4|0,0:0|0:0,0:0:0:0:
286,66,89826,2,0,B|250:74|250:74|206:66,1,80,8|2,0:0|0:0,0:0:0:0:
112,84,90295,5,4,0:0:0:0:
72,172,90529,1,0,0:0:0:0:
164,200,90763,1,8,0:0:0:0:
124,288,90998,1,2,0:0:0:0:
124,288,91232,2,0,P|160:312|200:324,1,80,4|6,0:0|0:0,0:0:0:0:
280,276,91701,2,0,L|328:264,1,40,6|4,0:0|0:0,0:0:0:0:
356,280,91935,2,0,L|400:288,1,40,4|4,0:0|0:0,0:0:0:0:
432,272,92170,1,4,0:0:0:0:
424,124,99670,5,4,0:0:0:0:
308,92,99904,1,2,0:0:0:0:
308,92,100021,1,0,0:0:0:0:
308,92,100138,2,0,L|232:116,1,80,8|2,0:0|0:0,0:0:0:0:
328,192,100607,2,0,L|267:244,1,80,4|0,0:0|0:0,0:0:0:0:
376,325,101076,2,0,L|408:252,1,80,8|2,0:0|0:0,0:0:0:0:
308,92,101545,6,0,P|252:64|192:44,1,120,4|0,0:0|0:0,0:0:0:0:
160,56,102013,2,0,L|76:92,2,80,8|2|4,0:0|0:0|0:0,0:0:0:0:
112,180,102716,1,0,0:0:0:0:
64,304,102951,2,0,L|137:272,1,80,8|8,0:0|0:0,0:0:0:0:
272,340,103420,5,4,0:0:0:0:
360,300,103654,1,2,0:0:0:0:
360,300,103771,1,0,0:0:0:0:
360,300,103888,1,8,0:0:0:0:
328,208,104123,1,2,0:0:0:0:
416,168,104357,1,4,0:0:0:0:
448,260,104591,1,0,0:0:0:0:
416,168,104826,2,0,L|376:88,1,80,8|2,0:0|0:0,0:0:0:0:
328,208,105295,6,0,P|304:156|256:64,1,160,4|8,0:0|0:0,0:0:0:0:
160,48,105998,1,2,0:0:0:0:
160,48,106232,2,0,L|80:80,1,80,4|4,0:0|0:0,0:0:0:0:
60,172,106701,1,4,0:0:0:0:
49,210,106818,1,4,0:0:0:0:
56,249,106935,1,4,0:0:0:0:
81,280,107052,1,4,0:0:0:0:
116,297,107169,1,4,0:0:0:0:
320,56,107638,6,0,L|408:56,1,80,2|0,0:0|0:0,0:0:0:0:
456,136,108107,1,2,0:0:0:0:
404,216,108341,1,0,0:0:0:0:
380,248,108459,1,0,0:0:0:0:
356,280,108576,2,0,L|268:280,1,80,0|2,0:0|0:0,0:0:0:0:
156,192,109045,5,4,0:0:0:0:
60,192,109279,2,0,L|60:108,2,80,0|2|0,0:0|0:0|0:0,0:0:0:0:
108,276,109982,1,2,0:0:0:0:
204,276,110216,1,0,0:0:0:0:
244,276,110334,1,0,0:0:0:0:
284,276,110451,2,0,L|368:276,1,80,0|4,0:0|0:0,0:0:0:0:
360,124,110920,6,0,L|456:124,1,80,4|0,0:0|0:0,0:0:0:0:
348,116,111388,2,0,L|348:16,1,80,2|0,0:0|0:0,0:0:0:0:
284,196,111857,2,0,L|284:280,1,80,2|0,0:0|0:0,0:0:0:0:
284,296,112209,1,0,0:0:0:0:
264,296,112326,2,0,L|180:296,1,80,0|2,0:0|0:0,0:0:0:0:
136,160,112795,6,0,L|48:160,1,80,4|0,0:0|0:0,0:0:0:0:
144,64,113263,2,0,L|144:164,1,80,2|0,0:0|0:0,0:0:0:0:
216,208,113732,1,2,0:0:0:0:
288,148,113966,1,0,0:0:0:0:
328,148,114084,1,0,0:0:0:0:
368,148,114201,2,0,L|452:148,1,80,0|4,0:0|0:0,0:0:0:0:
216,208,114670,6,0,P|180:192|144:168,1,80,4|0,0:0|0:0,0:0:0:0:
112,40,115138,2,0,P|148:56|184:80,1,80,2|0,0:0|0:0,0:0:0:0:
344,84,115607,2,0,P|308:68|272:44,1,80
432,132,116076,1,8,0:0:0:0:
432,132,116310,1,8,0:0:0:0:
369,235,116545,6,0,L|328:304,2,80,4|0|2,0:0|0:0|0:0,0:0:0:0:
194,321,117248,2,0,L|240:256,1,80
100,328,117716,1,0,0:0:0:0:
100,328,117834,1,0,0:0:0:0:
100,328,117951,1,8,0:0:0:0:
48,248,118185,1,8,0:0:0:0:
120,92,118420,6,0,L|44:46,1,80,4|0,0:0|0:0,0:0:0:0:
90,180,118888,2,0,L|46:252,1,80,2|0,0:0|0:0,0:0:0:0:
175,208,119357,2,0,L|243:249,1,80
204,120,119826,2,0,L|253:37,1,80,8|8,0:0|0:0,0:0:0:0:
428,188,120295,6,0,P|400:200|348:216,1,80,4|0,0:0|0:0,0:0:0:0:
220,318,120763,2,0,P|259:307|296:292,1,80,2|0,0:0|0:0,0:0:0:0:
344,176,121232,2,0,P|307:191|268:202,1,80
132,308,121701,2,0,P|170:296|207:281,1,80,8|8,0:0|0:0,0:0:0:0:
64,132,122170,5,4,0:0:0:0:
87,38,122404,1,0,0:0:0:0:
180,62,122638,1,2,0:0:0:0:
157,155,122873,1,0,0:0:0:0:
180,62,123107,2,0,P|208:69|275:81,1,80
298,85,123459,1,0,0:0:0:0:
337,93,123576,2,0,P|364:98|430:118,1,80,8|8,0:0|0:0,0:0:0:0:
420,352,124045,6,0,P|403:303|395:274,1,80,4|0,0:0|0:0,0:0:0:0:
296,290,124513,2,0,P|320:285|375:269,1,80,2|0,0:0|0:0,0:0:0:0:
236,204,124982,2,0,P|206:211|157:219,1,80
118,227,125334,1,0,0:0:0:0:
79,235,125451,1,8,0:0:0:0:
67,139,125685,1,8,0:0:0:0:
236,4,125920,5,4,0:0:0:0:
152,72,126154,1,0,0:0:0:0:
236,4,126388,2,0,L|258:88,1,80,2|0,0:0|0:0,0:0:0:0:
152,72,126857,2,0,L|174:156,1,80
182,188,127209,1,0,0:0:0:0:
191,226,127326,1,8,0:0:0:0:
214,320,127560,1,8,0:0:0:0:
360,172,127795,6,0,L|332:260,1,80,4|0,0:0|0:0,0:0:0:0:
433,247,128263,2,0,L|408:324,1,80,2|0,0:0|0:0,0:0:0:0:
256,192,128615,12,0,129435,0:0:0:0:
220,72,129670,6,0,P|196:112|141:160,1,120,4|0,0:0|0:0,0:0:0:0:
141,160,130138,2,0,L|120:256,1,80,2|0,0:0|0:0,0:0:0:0:
220,256,130607,2,0,L|198:351,1,80
202,334,130959,1,0,0:0:0:0:
202,334,131076,1,8,0:0:0:0:
296,312,131310,1,8,0:0:0:0:
424,280,131545,6,0,L|444:156,1,120,4|0,0:0|0:0,0:0:0:0:
443,161,132013,2,0,P|416:120|408:68,1,80,2|0,0:0|0:0,0:0:0:0:
340,160,132482,1,0,0:0:0:0:
236,156,132716,1,0,0:0:0:0:
236,156,132834,1,0,0:0:0:0:
236,156,132951,2,0,P|263:197|271:249,1,80,8|8,0:0|0:0,0:0:0:0:
140,148,133420,5,4,0:0:0:0:
140,148,133772,1,0,0:0:0:0:
140,148,133889,2,0,P|98:175|46:183,1,80,2|0,0:0|0:0,0:0:0:0:
188,56,134357,2,0,P|230:28|282:20,1,80,0|0,0:0|0:0,0:0:0:0:
298,22,134709,1,0,0:0:0:0:
336,30,134826,1,8,0:0:0:0:
284,112,135060,1,8,0:0:0:0:
468,128,135295,6,0,P|439:205|430:262,1,120,4|0,0:0|0:0,0:0:0:0:
419,279,135763,1,2,0:0:0:0:
340,332,135998,1,2,0:0:0:0:
340,332,136232,1,0,0:0:0:0:
244,340,136466,2,0,B|216:310|216:310|199:267,1,80,10|10,0:0|0:0,0:0:0:0:
60,120,137170,6,0,P|55:89|55:37,1,80,4|0,0:0|0:0,0:0:0:0:
54,40,137521,1,0,0:0:0:0:
54,40,137638,1,2,0:0:0:0:
146,76,137873,1,0,0:0:0:0:
232,32,138107,2,0,P|236:62|236:114,1,80
251,146,138459,1,0,0:0:0:0:
269,182,138576,2,0,P|273:212|273:264,1,80,8|8,0:0|0:0,0:0:0:0:
372,88,139045,6,0,P|368:141|371:226,1,120,4|0,0:0|0:0,0:0:0:0:
408,220,139513,2,0,B|401:258|401:258|408:304,1,80,2|0,0:0|0:0,0:0:0:0:
312,316,139982,1,0,0:0:0:0:
216,332,140216,1,0,0:0:0:0:
216,332,140334,1,0,0:0:0:0:
216,332,140451,2,0,P|192:336|126:346,1,80,8|8,0:0|0:0,0:0:0:0:
52,188,140920,6,0,P|57:165|65:99,1,80,4|0,0:0|0:0,0:0:0:0:
64,109,141271,1,0,0:0:0:0:
64,109,141388,1,2,0:0:0:0:
156,136,141623,1,0,0:0:0:0:
244,96,141857,1,0,0:0:0:0:
332,136,142091,1,0,0:0:0:0:
332,136,142209,1,0,0:0:0:0:
332,136,142326,2,0,P|337:113|345:47,1,80,8|8,0:0|0:0,0:0:0:0:
436,248,142795,6,0,L|315:238,1,120,4|0,0:0|0:0,0:0:0:0:
316,238,143263,1,2,0:0:0:0:
296,332,143498,1,0,0:0:0:0:
200,328,143732,2,0,P|178:325|113:325,1,80,0|0,0:0|0:0,0:0:0:0:
72,212,144201,1,8,0:0:0:0:
92,92,144435,1,8,0:0:0:0:
204,48,144670,6,0,P|248:44|368:49,1,160,4|2,0:0|0:0,0:0:0:0:
436,112,145373,1,0,0:0:0:0:
436,208,145607,2,0,L|353:207,1,80,0|0,0:0|0:0,0:0:0:0:
335,241,145959,1,0,0:0:0:0:
313,276,146076,2,0,L|230:275,1,80,8|8,0:0|0:0,0:0:0:0:
148,320,146545,5,4,0:0:0:0:
104,236,146779,1,0,0:0:0:0:
104,236,146896,1,0,0:0:0:0:
104,236,147013,2,0,P|74:191|64:168,1,80,2|0,0:0|0:0,0:0:0:0:
152,120,147482,2,0,L|168:24,1,80,0|0,0:0|0:0,0:0:0:0:
165,41,147951,1,8,0:0:0:0:
165,41,148185,1,8,0:0:0:0:
264,124,148420,6,0,P|303:122|436:125,1,160,4|2,0:0|0:0,0:0:0:0:
436,220,149123,1,0,0:0:0:0:
388,304,149357,2,0,P|356:305|303:302,1,80
136,340,149826,2,0,P|167:338|220:341,1,80,8|8,0:0|0:0,0:0:0:0:
72,264,150295,6,0,P|70:216|72:141,1,120,4|0,0:0|0:0,0:0:0:0:
71,144,150763,1,2,0:0:0:0:
136,72,150998,1,2,0:0:0:0:
228,44,151232,1,0,0:0:0:0:
228,44,151466,2,0,B|272:44|272:44|324:28,1,80,10|10,0:0|0:0,0:0:0:0:
428,208,152170,6,0,L|456:284,1,80,4|0,0:0|0:0,0:0:0:0:
336,240,152638,2,0,L|322:319,1,80,2|0,0:0|0:0,0:0:0:0:
236,244,153107,2,0,L|184:306,1,80
148,324,153459,1,0,0:0:0:0:
108,336,153576,2,0,P|72:336|24:340,1,80,8|8,0:0|0:0,0:0:0:0:
104,208,154045,6,0,P|100:160|100:48,1,160,4|2,0:0|0:0,0:0:0:0:
200,72,154748,1,0,0:0:0:0:
292,44,154982,2,0,L|392:36,1,80
464,64,155451,1,8,0:0:0:0:
464,64,155685,1,8,0:0:0:0:
408,196,155920,6,0,P|384:244|362:308,1,120,4|0,0:0|0:0,0:0:0:0:
362,306,156388,2,0,L|284:336,1,80,2|0,0:0|0:0,0:0:0:0:
165,280,156857,2,0,L|239:251,1,80
256,216,157209,1,0,0:0:0:0:
272,180,157326,2,0,L|346:151,1,80,8|8,0:0|0:0,0:0:0:0:
256,80,157795,5,4,0:0:0:0:
256,80,158029,1,4,0:0:0:0:
256,192,158263,12,4,159670,0:0:0:0:
