osu file format v12

[General]
AudioFilename: beacon and balefire.mp3
AudioLeadIn: 2000
PreviewTime: 77160
Countdown: 0
SampleSet: Soft
StackLeniency: 0.7
Mode: 0
LetterboxInBreaks: 0
WidescreenStoryboard: 0

[Editor]
DistanceSpacing: 1
BeatDivisor: 4
GridSize: 4
TimelineZoom: 1

[Metadata]
Title:Feng Huo Lang Yan
TitleUnicode:烽火狼煙
Artist:EBTC
ArtistUnicode:無非文化
Creator:Akabato
Version:Easy
Source:霹靂兵燹之刀戟勘魔錄
Tags:pili 赦生童子 異度魔界 beacon and balefire everything but the culture chinese classical 古風 中國風 布袋戲
BeatmapID:364876
BeatmapSetID:140842

[Difficulty]
HPDrainRate:2
CircleSize:3
OverallDifficulty:2
ApproachRate:3
SliderMultiplier:1
SliderTickRate:2

[Events]
//Background and Video events
0,0,"shesheng.jpg",0,0
//Break Periods
2,30495,32370
2,34244,36355
2,37995,39870
2,41744,43386
2,62370,68230
2,107369,113230
//Storyboard Layer 0 (Background)
//Storyboard Layer 1 (Fail)
//Storyboard Layer 2 (Pass)
//Storyboard Layer 3 (Foreground)
//Storyboard Sound Samples
//Background Colour Transformations
3,100,163,162,255

[TimingPoints]
295,468.75,4,2,1,60,1,0
1232,-100,4,2,1,20,0,0
2170,-100,4,2,1,60,0,0
4982,-100,4,2,1,20,0,0
5920,-100,4,2,1,60,0,0
8732,-100,4,2,1,20,0,0
9670,-100,4,2,1,60,0,0
12482,-100,4,2,1,20,0,0
13420,-100,4,2,1,60,0,0
30295,-100,4,2,1,65,0,0
45295,-100,4,2,1,30,0,0
47170,-100,4,2,1,70,0,0
92170,-100,4,2,2,70,0,0
92638,-100,4,2,1,70,0,0
107170,-100,4,2,2,70,0,0
114670,-100,4,2,1,65,0,0
129670,-100,4,2,2,65,0,0
129904,-100,4,2,1,65,0,0
159670,-100,4,2,2,65,0,0

[Colours]
Combo1 : 255,128,64
Combo2 : 128,0,0
Combo3 : 255,255,102
Combo4 : 171,86,86

[HitObjects]
256,192,295,12,0,1701,0:0:0:0:
256,192,3810,5,0,0:0:0:0:
256,192,4045,12,0,5451,0:0:0:0:
256,192,7795,12,0,9201,0:0:0:0:
256,192,11310,5,0,0:0:0:0:
256,192,11545,12,0,12951,0:0:0:0:
256,268,13888,5,0,0:0:0:0:
192,192,14357,1,0,0:0:0:0:
256,116,14826,1,2,0:0:0:0:
320,40,15295,6,0,P|368:40|424:64,1,100,0|2,0:0|0:0,0:0:0:0:
436,208,16466,2,0,L|408:308,1,100,0|2,0:0|0:0,0:0:0:0:
360,312,17170,2,0,P|308:316|264:296,1,100,0|2,0:0|0:0,0:0:0:0:
120,260,18341,2,0,B|120:228|120:228|104:192|104:192|104:144,1,100,0|2,0:0|0:0,0:0:0:0:
104,112,19045,5,0,0:0:0:0:
184,52,19513,1,2,0:0:0:0:
324,104,20216,2,0,P|372:96|424:108,1,100,0|2,0:0|0:0,0:0:0:0:
460,140,20920,2,0,L|428:244,1,100,0|2,0:0|0:0,0:0:0:0:
292,296,22091,2,0,P|220:316|178:316,1,100,0|2,0:0|0:0,0:0:0:0:
144,313,22795,5,0,0:0:0:0:
76,240,23263,1,2,0:0:0:0:
76,92,23966,2,0,P|120:68|172:64,1,100,0|2,0:0|0:0,0:0:0:0:
220,64,24670,2,0,L|280:64,2,50,0|0|2,0:0|0:0|0:0,0:0:0:0:
324,172,25841,2,0,L|424:172,1,100,0|2,0:0|0:0,0:0:0:0:
440,220,26545,6,0,P|428:268|440:320,1,100,0|2,0:0|0:0,0:0:0:0:
288,320,27716,2,0,B|240:320|240:320|188:336,1,100,0|2,0:0|0:0,0:0:0:0:
140,336,28420,1,0,0:0:0:0:
76,260,28888,1,2,0:0:0:0:
80,112,29591,2,0,B|132:112|132:112|180:92,1,100,0|2,0:0|0:0,0:0:0:0:
224,76,30295,5,4,0:0:0:0:
424,80,33810,6,0,L|424:136,1,50,4|4,0:0|0:0,0:0:0:0:
88,304,37795,5,4,0:0:0:0:
256,44,41310,6,0,L|256:104,1,50,4|4,0:0|0:0,0:0:0:0:
256,336,44826,6,0,L|256:224,1,100,4|2,0:0|0:0,0:0:0:0:
424,76,47170,6,0,L|324:76,1,100,4|8,0:0|0:0,0:0:0:0:
224,76,48107,2,0,P|184:108|136:120,1,100,4|8,0:0|0:0,0:0:0:0:
108,216,49045,1,4,0:0:0:0:
76,312,49513,1,8,0:0:0:0:
172,288,49982,2,0,B|208:288|208:288|240:284|240:284|284:284,1,100,4|8,0:0|0:0,0:0:0:0:
352,344,50920,6,0,P|372:296|359:238,1,100,4|8,0:0|0:0,0:0:0:0:
404,156,51857,1,4,0:0:0:0:
376,60,52326,2,0,L|320:60,1,50,8|8,0:0|0:0,0:0:0:0:
276,60,52795,2,0,P|192:68|132:96,1,150,4|2,0:0|0:0,0:0:0:0:
96,188,53966,2,0,L|80:252,1,50,10|8,0:0|0:0,0:0:0:0:
144,316,54670,6,0,P|192:324|252:320,1,100,4|8,0:0|0:0,0:0:0:0:
336,284,55607,2,0,L|372:324,2,50,4|2|8,0:0|0:0|0:0,0:0:0:0:
384,196,56545,2,0,L|350:158,2,50,4|0|8,0:0|0:0|0:0,0:0:0:0:
416,100,57482,2,0,P|380:72|328:72,1,100,4|8,0:0|0:0,0:0:0:0:
236,112,58420,5,4,0:0:0:0:
144,72,58888,1,8,0:0:0:0:
66,135,59357,2,0,P|62:187|82:243,1,100,4|8,0:0|0:0,0:0:0:0:
132,316,60295,2,0,B|180:316|180:316|232:304|232:304|296:304,1,150,4|2,0:0|0:0,0:0:0:0:
373,266,61466,2,0,L|423:266,1,50,10|8,0:0|0:0,0:0:0:0:
460,172,62170,5,4,0:0:0:0:
100,76,69670,5,4,0:0:0:0:
196,48,70138,1,8,0:0:0:0:
292,76,70607,1,4,0:0:0:0:
388,48,71076,1,8,0:0:0:0:
448,128,71545,2,0,P|418:168|400:220,1,100,4|8,0:0|0:0,0:0:0:0:
368,308,72482,2,0,L|400:360,2,50,4|8|8,0:0|0:0|0:0,0:0:0:0:
268,308,73420,6,0,L|156:308,1,100,4|8,0:0|0:0,0:0:0:0:
88,248,74357,2,0,P|72:204|72:140,1,100,4|8,0:0|0:0,0:0:0:0:
140,80,75295,2,0,B|185:65|203:42|203:42|228:48|280:32,1,150,4|2,0:0|0:0,0:0:0:0:
364,84,76466,2,0,L|420:68,1,50,10|8,0:0|0:0,0:0:0:0:
448,164,77170,6,0,P|448:216|424:268,1,100,4|8,0:0|0:0,0:0:0:0:
344,312,78107,1,4,0:0:0:0:
244,312,78576,2,0,L|180:312,1,50,8|8,0:0|0:0,0:0:0:0:
144,312,79045,2,0,P|119:265|79:226,1,100,4|8,0:0|0:0,0:0:0:0:
16,160,79982,2,0,P|60:136|120:140,1,100,4|8,0:0|0:0,0:0:0:0:
168,56,80920,5,4,0:0:0:0:
268,76,81388,1,8,0:0:0:0:
364,96,81857,2,0,L|476:88,1,100,4|8,0:0|0:0,0:0:0:0:
452,188,82795,1,4,0:0:0:0:
432,284,83263,2,0,L|420:340,1,50,8|2,0:0|0:0,0:0:0:0:
332,288,83966,2,0,L|342:239,1,50,10|8,0:0|0:0,0:0:0:0:
360,140,84670,6,0,P|340:92|336:40,1,100,4|8,0:0|0:0,0:0:0:0:
236,52,85607,2,0,P|192:72|136:64,1,100,4|8,0:0|0:0,0:0:0:0:
100,160,86545,2,0,L|44:160,2,50,4|2|8,0:0|0:0|0:0,0:0:0:0:
160,240,87482,1,4,0:0:0:0:
220,320,87951,1,8,0:0:0:0:
320,320,88420,6,0,B|348:320|348:320|392:308|392:308|432:308,1,100,4|8,0:0|0:0,0:0:0:0:
436,208,89357,2,0,P|456:160|464:104,1,100,4|8,0:0|0:0,0:0:0:0:
380,56,90295,2,0,B|332:68|280:36|228:48,1,150,4|2,0:0|0:0,0:0:0:0:
136,76,91466,2,0,P|84:136|84:208,1,150,2|4,0:0|0:0,0:0:0:0:
136,288,92638,5,8,0:0:0:0:
236,296,93107,2,0,L|352:308,1,100,4|8,0:0|0:0,0:0:0:0:
400,228,94045,1,4,0:0:0:0:
436,136,94513,2,0,L|480:108,2,50,8|2|4,0:0|0:0|0:0,0:0:0:0:
348,88,95451,1,8,0:0:0:0:
276,16,95920,6,0,P|248:60|248:108,1,100,4|8,0:0|0:0,0:0:0:0:
148,96,96857,2,0,L|48:84,1,100,4|8,0:0|0:0,0:0:0:0:
64,184,97795,1,4,0:0:0:0:
80,284,98263,2,0,L|24:276,2,50,8|2|4,0:0|0:0|0:0,0:0:0:0:
180,296,99201,1,8,0:0:0:0:
280,304,99670,6,0,P|332:304|396:284,1,100,4|8,0:0|0:0,0:0:0:0:
408,196,100607,1,4,0:0:0:0:
436,100,101076,1,8,0:0:0:0:
348,52,101545,2,0,B|288:64|228:32|228:32|160:72,1,200,4|4,0:0|0:0,0:0:0:0:
80,128,102951,1,8,0:0:0:0:
132,212,103420,6,0,L|40:268,1,100,4|8,0:0|0:0,0:0:0:0:
108,344,104357,2,0,L|193:292,1,100,4|8,0:0|0:0,0:0:0:0:
292,316,105295,2,0,B|368:268|368:268|396:232|392:160,1,200,4|4,0:0|0:0,0:0:0:0:
336,80,106701,2,0,L|240:52,1,100,12|4,0:0|0:0,0:0:0:0:
104,84,114670,6,0,L|212:84,1,100,4|2,0:0|0:0,0:0:0:0:
236,180,115607,2,0,P|276:156|300:108,1,100,0|8,0:0|0:0,0:0:0:0:
384,56,116545,1,4,0:0:0:0:
440,140,117013,2,0,B|440:176|440:176|448:204|448:204|448:256,1,100,2|0,0:0|0:0,0:0:0:0:
380,312,117951,2,0,L|320:312,1,50,8|8,0:0|0:0,0:0:0:0:
280,312,118420,6,0,P|228:312|184:288,1,100,4|2,0:0|0:0,0:0:0:0:
88,292,119357,1,0,0:0:0:0:
136,204,119826,1,8,0:0:0:0:
48,152,120295,2,0,P|102:106|184:112,1,150,4|2,0:0|0:0,0:0:0:0:
324,80,121701,2,0,L|384:80,1,50,8|8,0:0|0:0,0:0:0:0:
424,80,122170,6,0,P|432:128|424:180,1,100,4|2,0:0|0:0,0:0:0:0:
332,220,123107,2,0,P|324:268|332:320,1,100,0|8,0:0|0:0,0:0:0:0:
232,332,124045,2,0,L|132:332,1,100,4|2,0:0|0:0,0:0:0:0:
72,252,124982,1,0,0:0:0:0:
72,152,125451,2,0,L|72:92,1,50,8|8,0:0|0:0,0:0:0:0:
72,52,125920,6,0,B|144:40|192:84|192:84|252:108|328:80,1,250,4|2,0:0|0:0,0:0:0:0:
384,216,127795,1,4,0:0:0:0:
256,192,128029,12,4,129670,0:0:0:0:
256,224,130607,6,0,L|256:328,1,100,0|8,0:0|0:0,0:0:0:0:
352,352,131545,2,0,L|352:236,1,100,4|2,0:0|0:0,0:0:0:0:
432,192,132482,1,0,0:0:0:0:
460,96,132951,1,8,0:0:0:0:
360,112,133420,6,0,P|312:104|256:76,1,100,4|2,0:0|0:0,0:0:0:0:
168,60,134357,2,0,L|64:72,1,100,0|8,0:0|0:0,0:0:0:0:
56,172,135295,2,0,P|52:252|100:304,1,150,4|2,0:0|0:0,0:0:0:0:
192,328,136466,2,0,L|248:320,1,50,10|8,0:0|0:0,0:0:0:0:
316,252,137170,6,0,L|428:236,1,100,4|2,0:0|0:0,0:0:0:0:
436,140,138107,2,0,P|424:92|428:40,1,100,0|8,0:0|0:0,0:0:0:0:
328,36,139045,1,4,0:0:0:0:
228,32,139513,1,2,0:0:0:0:
128,28,139982,2,0,L|56:104,1,100,0|8,0:0|0:0,0:0:0:0:
100,192,140920,5,4,0:0:0:0:
28,264,141388,2,0,B|94:318|165:270|165:270|232:296,1,200,2|8,0:0|0:0,0:0:0:0:
308,320,142795,1,4,0:0:0:0:
408,336,143263,2,0,P|372:240|280:220,1,200,2|8,0:0|0:0,0:0:0:0:
184,220,144670,6,0,P|192:171|232:136,1,100,4|2,0:0|0:0,0:0:0:0:
324,104,145607,2,0,L|432:68,1,100,0|8,0:0|0:0,0:0:0:0:
468,160,146545,1,4,0:0:0:0:
464,260,147013,2,0,P|432:300|384:320,1,100,2|0,0:0|0:0,0:0:0:0:
288,320,147951,2,0,L|228:320,1,50,8|8,0:0|0:0,0:0:0:0:
196,292,148420,6,0,L|88:292,1,100,4|2,0:0|0:0,0:0:0:0:
56,200,149357,2,0,P|48:152|60:100,1,100,0|8,0:0|0:0,0:0:0:0:
144,48,150295,2,0,B|192:48|192:48|240:64|240:64|296:64,1,150,4|2,0:0|0:0,0:0:0:0:
392,64,151466,2,0,L|452:64,1,50,10|8,0:0|0:0,0:0:0:0:
440,164,152170,5,4,0:0:0:0:
432,264,152638,2,0,B|416:316|364:336|364:336|316:312|268:336,1,200,2|8,0:0|0:0,0:0:0:0:
172,312,154045,1,4,0:0:0:0:
72,324,154513,2,0,L|48:224,1,100,2|0,0:0|0:0,0:0:0:0:
84,132,155451,1,8,0:0:0:0:
120,40,155920,5,4,0:0:0:0:
184,116,156388,2,0,B|256:128|308:100|308:100|396:112,1,200,2|8,0:0|0:0,0:0:0:0:
380,212,157795,2,0,L|440:220,1,50,4|4,0:0|0:0,0:0:0:0:
256,192,158263,12,4,159670,0:0:0:0:
