osu file format v12

[General]
AudioFilename: Slit.mp3
AudioLeadIn: 0
PreviewTime: 85886
Countdown: 1
SampleSet: Normal
StackLeniency: 0.2
Mode: 0
LetterboxInBreaks: 1
WidescreenStoryboard: 1

[Editor]
Bookmarks: 16068,18613,27704,50977,62613,68432,74250,77159,80886,98977
DistanceSpacing: 0.6
BeatDivisor: 4
GridSize: 4
TimelineZoom: 2.599999

[Metadata]
Title:Slit
TitleUnicode:Ø
Artist:EBICO & jioyi
ArtistUnicode:EBICO & jioyi
Creator:wantuole
Version:111cs4
Source:Cytus
Tags:
BeatmapID:386518
BeatmapSetID:157639

[Difficulty]
HPDrainRate:5
CircleSize:4
OverallDifficulty:8
ApproachRate:9
SliderMultiplier:1.8
SliderTickRate:2

[Events]
//Background and Video events
0,0,"slit.jpg",0,0
//Break Periods
2,51177,62013
//Storyboard Layer 0 (Background)
//Storyboard Layer 1 (Fail)
//Storyboard Layer 2 (Pass)
//Storyboard Layer 3 (Foreground)
//Storyboard Sound Samples
//Background Colour Transformations
3,100,163,162,255

[TimingPoints]
1523,363.636363636364,4,1,0,65,1,0
3704,-50,4,1,0,65,0,0
5886,-133.333333333333,4,1,0,65,0,0
14613,-50,4,1,0,65,0,0
16068,-100,4,1,0,65,0,0
18523,-50,4,1,0,65,0,0
18977,-100,4,1,0,65,0,0
24795,-66.6666666666667,4,1,0,65,0,0
26250,-50,4,1,0,65,0,0
27704,-100,4,1,0,65,0,0
28068,-66.6666666666667,4,1,0,65,0,0
28613,-50,4,1,0,65,0,0
33523,-200,4,1,0,65,0,0
33843,-100,4,1,0,65,0,0
34250,-66.6666666666667,4,1,0,65,0,0
39341,-133.333333333333,4,1,0,65,0,0
43161,-66.6666666666667,4,1,0,65,0,0
43523,-50,4,1,0,65,0,0
45159,-133.333333333333,4,1,0,65,0,0
48068,-50,4,1,0,65,0,0
62613,-100,4,1,0,65,0,0
73159,-66.6666666666667,4,1,0,65,0,0
73523,-50,4,1,0,65,0,0
87341,-66.6666666666667,4,1,0,65,0,0
97523,-50,4,1,0,65,0,0
98977,-66.6666666666667,4,1,0,65,0,0
109432,-100,4,1,0,65,0,0

[Colours]
Combo1 : 21,172,230
Combo2 : 192,192,192
Combo3 : 255,0,0

[HitObjects]
87,40,1523,5,0,0:0:0:0:
64,120,1704,1,0,0:0:0:0:
40,200,1886,1,8,0:0:0:0:
196,344,2068,21,0,0:0:0:0:
196,344,2159,1,0,0:0:0:0:
196,344,2250,1,0,0:0:0:0:
176,156,2432,1,0,0:0:0:0:
40,200,2613,1,8,0:0:0:0:
320,296,2795,1,0,0:0:0:0:
388,320,2886,1,0,0:0:0:0:
460,336,2977,2,0,B|440:264|440:264|464:296|464:296|415:158|415:158|480:96,1,315,0|0,0:0|0:0,0:0:0:0:
356,64,3704,6,0,L|288:52,1,45,0|0,1:0|0:0,0:0:0:0:
0,108,3977,2,4,L|76:92,1,45,0|4,1:0|0:0,0:0:0:0:
220,320,4250,2,4,L|212:256,1,45,0|4,1:0|0:0,0:0:0:0:
60,256,4432,5,4,0:0:0:0:
320,340,4977,1,0,0:0:0:0:
320,340,5159,1,0,0:0:0:0:
408,80,5886,5,0,0:0:0:0:
408,80,6068,2,0,P|384:136|440:220,1,135
476,244,6613,1,0,0:0:0:0:
280,84,6977,1,0,0:0:0:0:
212,68,7159,1,0,0:0:0:0:
64,144,7341,6,0,L|88:264,1,118.125004506111
48,332,7886,1,0,0:0:0:0:
232,300,8613,1,0,0:0:0:0:
304,356,8795,6,0,P|376:368|444:340,1,135.000005149842
304,356,9341,1,0,0:0:0:0:
468,272,9523,2,0,B|460:204|460:204|472:204|472:204|460:124,1,135.000005149842
500,64,10068,1,0,0:0:0:0:
376,160,10250,5,0,0:0:0:0:
164,148,10795,1,0,0:0:0:0:
112,352,11341,1,0,0:0:0:0:
4,28,11704,5,0,0:0:0:0:
224,72,12250,1,0,0:0:0:0:
68,244,12795,1,0,0:0:0:0:
22,94,13159,2,0,L|224:72,1,202.500007724762
296,108,13886,1,0,0:0:0:0:
428,264,14613,2,0,L|361:276,1,67.5000025749208
256,192,14795,12,0,15886,0:0:0:0:
64,320,16068,5,2,0:0:0:0:
156,256,16250,1,2,0:0:0:0:
184,264,16341,1,0,0:0:0:0:
216,344,16523,1,0,0:0:0:0:
244,352,16614,1,2,0:0:0:0:
300,256,16795,1,2,0:0:0:0:
328,264,16886,1,0,0:0:0:0:
388,336,17068,1,0,0:0:0:0:
416,344,17159,1,8,0:0:0:0:
488,304,17250,5,0,0:0:0:0:
444,244,17341,1,2,0:0:0:0:
500,192,17432,1,0,0:0:0:0:
488,156,17523,5,0,0:0:0:0:
400,88,17704,1,2,0:0:0:0:
388,48,17795,1,0,0:0:0:0:
268,76,17977,1,0,0:0:0:0:
256,36,18068,1,2,0:0:0:0:
168,144,18250,1,0,0:0:0:0:
164,108,18341,1,2,0:0:0:0:
32,96,18523,1,2,0:0:0:0:
16,56,18613,2,0,L|4:164,1,90,8|0,0:0|0:0,0:0:0:0:
52,200,18795,2,0,L|40:324,1,90
128,320,18977,6,0,L|187:307,1,45,2|0,0:0|0:0,0:0:0:0:
216,248,19159,1,2,0:0:0:0:
252,264,19250,1,0,0:0:0:0:
312,328,19432,1,2,0:0:0:0:
356,316,19523,1,2,0:0:0:0:
464,268,19704,1,2,0:0:0:0:
492,288,19795,1,0,0:0:0:0:
456,152,19977,1,2,0:0:0:0:
460,116,20068,1,8,0:0:0:0:
464,76,20159,5,0,0:0:0:0:
380,88,20250,1,2,0:0:0:0:
296,100,20341,1,0,0:0:0:0:
212,116,20432,6,0,L|92:100,1,90,2|0,0:0|0:0,0:0:0:0:
8,164,20704,2,0,L|120:176,1,90
212,116,20977,1,0,0:0:0:0:
56,28,21159,1,2,0:0:0:0:
136,16,21250,1,0,0:0:0:0:
96,172,21432,1,0,0:0:0:0:
92,196,21523,1,8,0:0:0:0:
88,216,21613,5,0,0:0:0:0:
84,236,21704,1,0,0:0:0:0:
80,256,21795,1,0,0:0:0:0:
4,352,21886,6,0,L|64:340,1,45,2|0,0:0|0:0,0:0:0:0:
72,336,22068,2,0,L|132:324,1,45,0|0,0:0|0:0,0:0:0:0:
216,336,22250,2,0,L|276:324,1,45,8|0,0:0|0:0,0:0:0:0:
284,320,22432,2,0,L|344:308,1,45
512,240,22613,6,0,L|452:228,1,45
444,224,22795,2,0,L|384:212,1,45
360,124,22977,2,0,L|300:112,1,45,8|0,0:0|0:0,0:0:0:0:
292,108,23159,2,2,L|232:96,1,45
30,91,23341,6,0,L|92:106,1,45,2|0,0:0|0:0,0:0:0:0:
103,181,23523,2,0,L|33:164,1,45
150,120,23704,2,0,L|213:135,1,45,8|0,0:0|0:0,0:0:0:0:
224,210,23886,2,0,L|154:194,1,45
276,64,24068,6,0,L|338:51,1,45
381,115,24250,2,0,L|310:129,1,45
398,39,24431,2,0,L|460:26,1,45,8|0,0:0|0:0,0:0:0:0:
502,90,24613,2,2,L|431:104,1,45
408,336,24795,5,2,0:0:0:0:
448,244,24977,1,0,0:0:0:0:
416,244,25068,1,0,0:0:0:0:
384,244,25159,1,8,0:0:0:0:
352,244,25250,1,0,0:0:0:0:
320,244,25341,1,0,0:0:0:0:
288,244,25432,1,0,0:0:0:0:
216,260,25523,5,0,0:0:0:0:
216,208,25613,1,0,0:0:0:0:
212,156,25704,1,0,0:0:0:0:
12,192,25886,1,8,0:0:0:0:
12,248,25977,1,0,0:0:0:0:
16,300,26068,1,0,0:0:0:0:
20,352,26159,1,0,0:0:0:0:
148,328,26250,6,0,B|92:224|92:224|144:136,2,180,0|0|8,0:0|0:0|0:0,0:0:0:0:
56,108,26750,2,0,L|11:108,1,45
272,196,26977,1,8,0:0:0:0:
216,260,27068,1,0,0:0:0:0:
224,60,27250,1,2,0:0:0:0:
260,80,27341,1,8,0:0:0:0:
276,76,27432,1,0,0:0:0:0:
292,72,27523,1,0,0:0:0:0:
308,68,27613,1,0,0:0:0:0:
360,12,27704,6,0,L|472:32,1,90
508,140,27977,1,0,0:0:0:0:
508,140,28068,2,0,L|364:112,1,135
500,256,28432,1,0,0:0:0:0:
276,328,28613,6,2,P|244:335|214:322,1,67.5000025749208
356,188,28886,2,2,P|371:218|372:252,1,67.5000025749208
196,200,29159,5,0,0:0:0:0:
152,364,29341,1,0,0:0:0:0:
156,348,29432,1,0,0:0:0:0:
160,332,29523,1,8,0:0:0:0:
164,316,29613,1,0,0:0:0:0:
168,300,29704,1,0,0:0:0:0:
172,284,29795,1,0,0:0:0:0:
139,122,29886,6,0,L|92:296,1,180
72,360,30250,1,8,0:0:0:0:
64,132,30432,1,0,0:0:0:0:
140,124,30523,1,0,0:0:0:0:
92,60,30613,6,0,L|288:32,1,180
328,76,30886,1,0,0:0:0:0:
332,92,30977,1,8,0:0:0:0:
396,108,31068,1,0,0:0:0:0:
456,80,31159,1,0,0:0:0:0:
464,96,31250,1,0,0:0:0:0:
472,168,31341,5,0,0:0:0:0:
500,248,31462,1,0,0:0:0:0:
424,284,31583,1,0,0:0:0:0:
460,356,31704,1,8,0:0:0:0:
100,304,32068,5,0,0:0:0:0:
188,352,32189,1,0,0:0:0:0:
284,344,32310,1,0,0:0:0:0:
188,328,32432,1,0,0:0:0:0:
8,176,32704,5,0,0:0:0:0:
56,96,32795,2,0,B|84:60|84:60|88:208,1,180,2|0,0:0|0:0,0:0:0:0:
156,20,33068,1,0,0:0:0:0:
87,195,33159,2,0,P|173:182|225:112,1,180,2|0,0:0|0:0,0:0:0:0:
156,20,33523,6,0,L|236:16,1,67.5
288,52,33886,1,0,0:0:0:0:
416,40,34068,1,0,0:0:0:0:
440,160,34250,6,0,P|392:144|328:172,1,90.0000034332277,8|0,0:0|0:0,0:0:0:0:
300,204,34492,1,0,0:0:0:0:
440,304,34613,2,0,P|472:272|460:212,1,90.0000034332277,0|0,0:0|0:0,0:0:0:0:
440,160,34856,1,0,0:0:0:0:
241,268,34977,6,0,L|152:256,1,90.0000034332277,8|0,0:0|0:0,0:0:0:0:
112,176,35219,1,0,0:0:0:0:
36,324,35341,2,0,L|124:337,1,90.0000034332277,0|0,0:0|0:0,0:0:0:0:
240,268,35583,1,0,0:0:0:0:
40,148,35704,6,0,P|36:184|52:232,1,67.5000025749208
120,172,35886,1,2,0:0:0:0:
114,170,35977,1,0,0:0:0:0:
107,168,36068,1,8,0:0:0:0:
104,174,36159,1,0,0:0:0:0:
101,180,36250,1,2,0:0:0:0:
204,160,36432,5,0,0:0:0:0:
96,92,36613,1,0,0:0:0:0:
128,20,36795,5,0,0:0:0:0:
196,32,36977,1,0,0:0:0:0:
268,208,37159,6,0,L|387:143,1,135.000005149842
479,118,37432,2,0,L|343:187,1,135.000005149842
356,56,37704,2,0,P|400:56|440:100,1,67.5000025749208
472,192,37886,5,0,0:0:0:0:
460,216,37977,1,0,0:0:0:0:
440,232,38068,1,0,0:0:0:0:
416,244,38159,1,0,0:0:0:0:
388,244,38250,1,0,0:0:0:0:
280,84,38432,1,0,0:0:0:0:
296,280,38613,1,0,0:0:0:0:
282,280,38704,1,0,0:0:0:0:
268,278,38795,1,0,0:0:0:0:
254,276,38886,1,0,0:0:0:0:
200,340,38977,1,0,0:0:0:0:
186,344,39068,1,0,0:0:0:0:
172,346,39159,1,0,0:0:0:0:
158,350,39250,1,0,0:0:0:0:
64,140,39341,6,0,B|60:148|60:148|64:152|64:152|60:156|60:156|64:160|64:160|60:164|60:164|64:168|64:168|60:172|60:172|64:176|64:176|60:180|60:180|64:184|64:184|60:188|60:188|64:192|64:192|60:196|60:196|64:200|64:200|60:204|60:204|64:208|64:208|60:212|60:212|64:216|64:216|60:220|60:220|64:224|64:224|60:228|60:228|64:232|64:232|60:236|60:236|64:240|64:240|60:244|60:244|64:248|64:248|60:252|60:252|16:265|16:265|20:312|96:296,1,270.000010299683
136,264,40189,1,0,0:0:0:0:
136,188,40310,1,0,0:0:0:0:
64,140,40432,1,2,0:0:0:0:
144,168,40553,1,0,0:0:0:0:
200,92,40674,1,0,0:0:0:0:
256,68,40795,6,0,P|360:60|432:100,1,168.750006437302
496,116,41341,1,0,0:0:0:0:
484,124,41432,1,0,0:0:0:0:
400,172,41523,2,0,L|408:268,1,67.5000025749208,8|0,0:0|0:0,0:0:0:0:
332,236,41795,2,0,L|340:308,1,67.5000025749208
270,363,42068,1,0,0:0:0:0:
136,296,42250,5,2,0:0:0:0:
180,312,42310,2,0,L|164:308,7,11.2500004291535
152,172,42613,5,8,0:0:0:0:
160,360,42795,1,0,0:0:0:0:
104,96,42977,5,0,0:0:0:0:
0,336,43159,2,0,L|56:331,1,33.7500012874604,8|0,0:0|0:0,0:0:0:0:
32,256,43341,2,0,L|100:252,1,67.5000025749208,8|0,0:0|0:0,0:0:0:0:
60,180,43523,2,0,L|152:172,1,90,8|0,0:0|0:0,0:0:0:0:
232,144,43704,5,0,0:0:0:0:
272,68,43826,1,0,0:0:0:0:
200,24,43947,1,0,0:0:0:0:
272,68,44068,1,0,0:0:0:0:
340,68,44189,1,0,0:0:0:0:
384,52,44310,1,0,0:0:0:0:
404,24,44432,5,0,0:0:0:0:
68,32,44795,1,8,0:0:0:0:
48,32,44977,1,0,0:0:0:0:
0,328,45159,6,0,L|140:324,1,135.000005149842
224,168,45704,1,0,0:0:0:0:
248,236,45795,1,0,0:0:0:0:
276,300,45886,2,0,L|420:296,1,135.000005149842
224,352,46432,1,0,0:0:0:0:
432,208,46613,6,0,P|440:120|416:80,1,135.000005149842
328,40,47159,1,0,0:0:0:0:
200,80,47341,2,2,L|108:84,1,67.5000025749208
164,112,47613,2,2,L|84:116,1,67.5000025749208
128,144,47886,1,0,0:0:0:0:
32,308,48068,1,0,0:0:0:0:
40,304,48159,1,0,0:0:0:0:
48,300,48250,1,0,0:0:0:0:
56,296,48341,1,0,0:0:0:0:
133,259,48432,1,0,0:0:0:0:
144,264,48523,1,0,0:0:0:0:
156,270,48613,1,0,0:0:0:0:
170,277,48704,1,0,0:0:0:0:
244,344,48795,6,0,L|348:360,1,90
300,288,48977,2,0,L|388:302,1,90
368,224,49159,2,0,L|472:240,1,90
420,128,49341,2,0,L|536:144,1,90
460,44,49523,6,0,P|468:88|468:148,1,90
430,301,49704,2,0,P|428:264|428:212,1,90
344,36,49886,2,0,P|344:92|352:140,1,90
312,328,50067,2,0,P|320:280|316:208,1,90
212,72,50250,5,4,0:0:0:0:
220,72,50341,1,0,0:0:0:0:
228,72,50432,1,0,0:0:0:0:
272,52,50523,1,0,0:0:0:0:
216,152,50613,5,4,0:0:0:0:
208,152,50704,1,0,0:0:0:0:
200,152,50795,1,0,0:0:0:0:
160,184,50886,1,0,0:0:0:0:
160,232,50977,5,0,0:0:0:0:
200,40,62613,6,0,P|236:112|216:172,1,135
244,236,62977,1,8,0:0:0:0:
40,288,63159,1,0,0:0:0:0:
40,288,63250,1,0,0:0:0:0:
40,288,63341,1,0,0:0:0:0:
216,312,63523,1,0,0:0:0:0:
316,268,63704,1,8,0:0:0:0:
376,332,63886,1,0,0:0:0:0:
440,124,64068,6,0,P|460:212|436:280,1,135
376,332,64432,1,8,0:0:0:0:
440,124,64613,1,0,0:0:0:0:
216,92,64795,1,0,0:0:0:0:
232,88,64886,1,0,0:0:0:0:
248,84,64977,1,0,0:0:0:0:
264,80,65068,1,0,0:0:0:0:
280,76,65159,1,8,0:0:0:0:
360,16,65341,1,0,0:0:0:0:
336,168,65523,5,0,0:0:0:0:
176,172,65704,1,0,0:0:0:0:
160,164,65795,1,0,0:0:0:0:
144,156,65886,1,8,0:0:0:0:
0,212,66068,1,0,0:0:0:0:
116,64,66250,5,0,0:0:0:0:
144,156,66432,1,0,0:0:0:0:
172,248,66613,1,8,0:0:0:0:
200,340,66795,1,0,0:0:0:0:
456,284,66977,6,0,L|344:272,1,90
366,274,67250,1,0,0:0:0:0:
366,274,67341,1,8,0:0:0:0:
320,192,67523,1,0,0:0:0:0:
416,64,67704,5,0,0:0:0:0:
416,164,67886,1,0,0:0:0:0:
264,108,68068,1,8,0:0:0:0:
316,32,68250,1,0,0:0:0:0:
320,192,68432,5,0,0:0:0:0:
244,168,68613,1,0,0:0:0:0:
168,144,68795,1,8,0:0:0:0:
92,120,68977,1,0,0:0:0:0:
32,332,69159,5,0,0:0:0:0:
160,348,69341,1,0,0:0:0:0:
160,348,69432,1,0,0:0:0:0:
160,348,69523,1,8,0:0:0:0:
100,216,69704,1,0,0:0:0:0:
256,292,69886,5,0,0:0:0:0:
336,272,70068,1,0,0:0:0:0:
408,312,70250,1,8,0:0:0:0:
480,272,70432,1,0,0:0:0:0:
456,44,70613,5,0,0:0:0:0:
440,48,70704,1,0,0:0:0:0:
368,120,70886,1,0,0:0:0:0:
352,128,70977,1,8,0:0:0:0:
480,156,71159,1,0,0:0:0:0:
288,52,71341,2,0,L|204:60,1,45
164,28,71523,2,0,L|136:96,1,45
212,172,71704,6,0,L|144:160,1,45,8|0,0:0|0:0,0:0:0:0:
88,128,71886,2,0,L|64:184,1,45
32,276,72068,1,0,0:0:0:0:
52,284,72159,1,0,0:0:0:0:
72,288,72250,1,0,0:0:0:0:
96,288,72341,1,0,0:0:0:0:
120,284,72432,1,8,0:0:0:0:
140,280,72523,1,0,0:0:0:0:
160,272,72613,1,0,0:0:0:0:
180,260,72704,1,0,0:0:0:0:
264,320,72795,6,0,L|300:296,7,22.5
376,328,73159,2,0,L|420:320,7,33.7500012874604
468,184,73523,2,0,L|540:204,7,45
328,16,73886,2,0,L|280:40,7,45
372,64,74250,6,0,L|156:80,1,180,2|0,0:0|0:0,0:0:0:0:
112,8,74523,2,0,L|80:216,1,180
0,160,74795,2,0,L|220:144,1,180
260,216,75068,2,0,P|300:300|272:408,1,180
88,320,75341,1,0,0:0:0:0:
80,276,75432,1,0,0:0:0:0:
92,232,75523,1,0,0:0:0:0:
124,200,75613,1,0,0:0:0:0:
200,164,75704,5,0,0:0:0:0:
200,164,75795,1,0,0:0:0:0:
200,164,75886,1,0,0:0:0:0:
200,164,75977,1,0,0:0:0:0:
200,164,76068,2,0,L|216:60,1,90,0|0,0:0|0:0,0:0:0:0:
292,16,76250,1,0,0:0:0:0:
292,16,76341,1,0,0:0:0:0:
292,16,76432,1,0,0:0:0:0:
292,16,76523,1,0,0:0:0:0:
292,16,76613,2,0,L|280:128,1,90
396,128,76795,6,0,L|472:120,1,60
368,200,76916,2,0,L|444:192,1,60
340,272,77038,2,0,L|416:264,1,60
284,224,77159,6,0,P|180:224|96:280,1,180
344,148,77432,2,0,L|372:356,1,180
248,132,77704,2,0,P|312:56|448:44,1,180
180,196,77977,2,0,L|4:232,1,180
80,76,78250,1,0,0:0:0:0:
144,116,78341,1,0,0:0:0:0:
160,112,78432,1,0,0:0:0:0:
176,108,78523,1,0,0:0:0:0:
248,132,78613,6,0,P|276:192|252:288,1,120
273,244,78856,1,0,0:0:0:0:
44,232,78977,2,0,L|56:80,1,120
53,112,79219,1,0,0:0:0:0:
24,328,79341,2,0,P|104:296|132:248,1,120
122,270,79583,1,0,0:0:0:0:
128,60,79704,2,0,L|232:64,1,90
247,63,79886,1,0,0:0:0:0:
247,63,79977,1,0,0:0:0:0:
328,140,80068,6,0,P|432:136|508:64,1,180
408,164,80341,2,0,P|360:260|376:356,1,180
264,196,80613,2,0,L|84:168,1,180
0,336,80886,2,0,P|104:316|200:352,1,180
244,288,81159,1,0,0:0:0:0:
308,344,81250,1,0,0:0:0:0:
300,314,81341,1,0,0:0:0:0:
290,284,81432,1,0,0:0:0:0:
272,224,81523,6,0,L|320:192,1,45
432,144,81795,2,0,L|348:136,1,45
300,60,82068,2,0,L|304:124,1,45
420,336,82250,2,0,L|416:280,1,45
228,72,82613,5,0,0:0:0:0:
472,260,82795,1,0,0:0:0:0:
200,140,82977,6,0,L|420:112,1,180
376,320,83250,2,0,L|172:276,1,180
56,340,83523,1,0,0:0:0:0:
68,240,83613,1,0,0:0:0:0:
80,136,83704,6,0,P|152:112|260:136,1,180
432,248,83977,2,0,P|360:272|252:248,1,180
464,160,84250,2,0,L|424:60,1,90
344,80,84432,6,0,P|268:40|148:56,1,180
108,120,84704,1,0,0:0:0:0:
108,120,84795,2,0,L|72:216,1,90
168,204,84977,2,0,L|128:320,1,90
172,368,85159,1,0,0:0:0:0:
172,368,85250,1,0,0:0:0:0:
276,188,85432,1,0,0:0:0:0:
276,188,85523,2,0,P|322:196|372:252,2,90
256,192,85886,12,0,86977,0:0:0:0:
72,104,87341,6,0,L|228:112,1,135.000005149842
206,110,87613,1,0,0:0:0:0:
206,110,87704,1,8,0:0:0:0:
276,32,87886,1,0,0:0:0:0:
236,300,88068,1,2,0:0:0:0:
236,300,88159,1,8,0:0:0:0:
368,88,88341,5,0,0:0:0:0:
400,76,88432,1,8,0:0:0:0:
388,108,88523,1,0,0:0:0:0:
376,140,88613,1,0,0:0:0:0:
364,172,88704,1,0,0:0:0:0:
352,204,88795,6,0,P|360:240|436:304,1,135.000005149842
472,144,89068,1,0,0:0:0:0:
472,144,89159,2,0,L|320:220,1,135.000005149842,8|0,0:0|0:0,0:0:0:0:
84,84,89523,1,2,0:0:0:0:
84,84,89613,1,8,0:0:0:0:
384,284,89795,1,0,0:0:0:0:
344,312,89886,1,8,0:0:0:0:
312,308,89977,1,0,0:0:0:0:
280,304,90068,1,0,0:0:0:0:
244,300,90159,1,0,0:0:0:0:
176,328,90250,5,2,0:0:0:0:
128,200,90523,1,0,0:0:0:0:
128,200,90613,1,8,0:0:0:0:
84,84,90795,1,0,0:0:0:0:
40,296,90977,1,2,0:0:0:0:
40,296,91068,1,8,0:0:0:0:
128,200,91250,1,0,0:0:0:0:
128,200,91341,1,8,0:0:0:0:
216,104,91523,1,0,0:0:0:0:
164,28,91704,5,0,0:0:0:0:
24,200,91977,1,0,0:0:0:0:
24,200,92068,1,8,0:0:0:0:
232,256,92250,1,0,0:0:0:0:
308,200,92432,1,2,0:0:0:0:
308,200,92523,1,8,0:0:0:0:
488,328,92704,1,0,0:0:0:0:
460,296,92795,1,8,0:0:0:0:
464,264,92886,1,0,0:0:0:0:
468,232,92977,1,0,0:0:0:0:
472,200,93068,1,0,0:0:0:0:
476,168,93159,6,0,P|460:84|384:44,1,135.000005149842,0|0,0:0|0:0,0:0:0:0:
336,28,93432,1,0,0:0:0:0:
292,76,93523,2,0,L|148:72,1,135.000005149842,8|0,0:0|0:0,0:0:0:0:
32,116,93886,1,2,0:0:0:0:
32,116,93977,1,8,0:0:0:0:
36,316,94159,1,0,0:0:0:0:
67,335,94250,1,8,0:0:0:0:
72,304,94341,1,0,0:0:0:0:
76,272,94432,1,0,0:0:0:0:
80,240,94523,1,0,0:0:0:0:
148,184,94613,6,0,P|224:164|296:188,1,135.000005149842,0|0,0:0|0:0,0:0:0:0:
328,248,94886,1,0,0:0:0:0:
296,280,94977,1,8,0:0:0:0:
328,271,95068,1,0,0:0:0:0:
360,262,95159,1,0,0:0:0:0:
392,252,95250,1,0,0:0:0:0:
424,240,95341,6,0,P|440:152|416:104,1,135.000005149842,2|0,0:0|0:0,0:0:0:0:
424,36,95613,1,0,0:0:0:0:
392,40,95704,1,8,0:0:0:0:
320,92,95886,1,0,0:0:0:0:
180,64,96068,5,0,0:0:0:0:
100,120,96250,1,0,0:0:0:0:
68,112,96341,1,0,0:0:0:0:
36,104,96432,1,8,0:0:0:0:
144,212,96613,1,0,0:0:0:0:
320,184,96795,6,0,P|336:252|312:324,1,135.000005149842,2|0,0:0|0:0,0:0:0:0:
264,240,97068,1,0,0:0:0:0:
264,240,97159,2,0,P|328:252|408:220,1,135.000005149842,8|0,0:0|0:0,0:0:0:0:
440,24,97523,6,0,L|232:64,1,180
360,108,97795,2,0,L|132:80,1,180
104,72,98068,1,8,0:0:0:0:
264,240,98250,1,2,0:0:0:0:
264,240,98341,1,8,0:0:0:0:
32,272,98523,1,0,0:0:0:0:
52,312,98613,5,8,0:0:0:0:
48,320,98704,1,0,0:0:0:0:
44,328,98795,1,0,0:0:0:0:
40,336,98886,1,0,0:0:0:0:
128,336,98977,6,0,P|160:268|132:188,1,135.000005149842
104,148,99250,1,0,0:0:0:0:
104,148,99341,2,0,P|156:92|152:4,1,135.000005149842,8|0,0:0|0:0,0:0:0:0:
24,172,99704,1,2,0:0:0:0:
24,172,99795,1,0,0:0:0:0:
192,296,99977,1,0,0:0:0:0:
200,292,100068,1,8,0:0:0:0:
252,304,100159,1,0,0:0:0:0:
304,320,100250,1,0,0:0:0:0:
356,336,100341,1,0,0:0:0:0:
440,320,100432,6,0,P|480:232|468:168,1,135.000005149842
352,116,100704,2,0,L|440:132,1,67.5000025749208,0|8,0:0|0:0,0:0:0:0:
320,32,100886,1,0,0:0:0:0:
320,32,100977,1,0,0:0:0:0:
36,92,101159,1,2,0:0:0:0:
36,92,101250,1,0,0:0:0:0:
136,352,101523,2,0,L|184:252,1,67.5000025749208,8|0,0:0|0:0,0:0:0:0:
104,232,101704,2,0,L|148:140,1,67.5000025749208
200,64,101886,6,0,P|196:131|215:195,1,135.000005149842
450,241,102159,2,0,L|316:252,1,135.000005149842
316,252,102431,1,0,0:0:0:0:
384,48,102613,1,2,0:0:0:0:
384,48,102704,1,8,0:0:0:0:
348,320,102886,1,0,0:0:0:0:
340,324,102977,1,8,0:0:0:0:
288,328,103068,1,0,0:0:0:0:
236,332,103159,1,0,0:0:0:0:
180,336,103250,1,0,0:0:0:0:
128,280,103341,6,0,P|44:268|-4:296,1,135.000005149842
76,224,103613,2,0,P|36:172|52:64,1,135.000005149842
60,32,103886,1,8,0:0:0:0:
2,290,104068,1,2,0:0:0:0:
2,290,104159,1,8,0:0:0:0:
148,92,104341,1,0,0:0:0:0:
154,96,104432,1,8,0:0:0:0:
208,93,104523,1,0,0:0:0:0:
261,90,104613,1,0,0:0:0:0:
314,83,104704,1,0,0:0:0:0:
424,28,104795,6,0,L|396:100,1,67.5000025749208
427,206,104977,2,0,L|452:144,1,67.5000025749208,0|0,0:0|0:0,0:0:0:0:
348,176,105159,2,0,L|320:248,1,67.5000025749208,2|0,0:0|0:0,0:0:0:0:
351,354,105341,2,0,L|376:292,1,67.5000025749208,0|0,0:0|0:0,0:0:0:0:
264,272,105523,6,0,L|160:248,1,67.5000025749208
104,236,105704,2,0,L|0:212,1,67.5000025749208
32,140,105886,2,0,L|136:164,1,67.5000025749208,2|0,0:0|0:0,0:0:0:0:
188,172,106067,2,0,L|292:196,1,67.5000025749208
176,300,106250,6,0,L|188:380,1,67.5000025749208
116,188,106432,2,0,L|96:96,1,67.5000025749208
150,275,106613,2,0,L|141:355,1,67.5000025749208,2|0,0:0|0:0,0:0:0:0:
121,151,106795,2,0,L|126:57,1,67.5000025749208
284,284,106977,2,0,L|227:247,1,67.5000025749208
52,171,107159,2,0,L|105:211,1,67.5000025749208,2|0,0:0|0:0,0:0:0:0:
263,245,107341,2,0,L|198:224,1,67.5000025749208
9,196,107523,2,0,L|71:220,1,67.5000025749208
228,120,107704,5,0,0:0:0:0:
268,120,107795,1,0,0:0:0:0:
304,104,107886,1,0,0:0:0:0:
340,84,107977,1,0,0:0:0:0:
360,48,108068,1,2,0:0:0:0:
140,64,108250,1,0,0:0:0:0:
432,132,108432,5,0,0:0:0:0:
432,172,108523,1,0,0:0:0:0:
432,212,108613,1,0,0:0:0:0:
432,252,108704,1,0,0:0:0:0:
432,292,108795,1,2,0:0:0:0:
500,72,108977,1,0,0:0:0:0:
276,304,109159,6,2,P|256:216|180:168,1,135.000005149842
188,272,109432,6,2,P|126:233|73:243,1,90
140,336,109704,5,0,0:0:0:0:
180,64,109886,5,2,0:0:0:0:
116,92,109977,1,0,0:0:0:0:
84,136,110068,1,0,0:0:0:0:
68,180,110159,1,0,0:0:0:0:
64,216,110250,1,8,0:0:0:0:
64,248,110341,1,0,0:0:0:0:
68,268,110432,1,0,0:0:0:0:
72,280,110523,1,0,0:0:0:0:
140,336,110613,5,4,0:0:0:0:
