osu file format v14

[General]
AudioFilename: Slit.mp3
AudioLeadIn: 0
PreviewTime: 85886
Countdown: 0
SampleSet: Normal
StackLeniency: 0.7
Mode: 1
LetterboxInBreaks: 1
WidescreenStoryboard: 1

[Editor]
DistanceSpacing: 1
BeatDivisor: 6
GridSize: 4
TimelineZoom: 2

[Metadata]
Title:Slit
TitleUnicode:Ø
Artist:EBICO & jioyi
ArtistUnicode:EBICO & jioyi
Creator:senkai
Version:Taiko: Etude
Source:Cytus
Tags:EBICO & jioyi Cytus instrumental dubstep
BeatmapID:416880
BeatmapSetID:172505

[Difficulty]
HPDrainRate:6
CircleSize:6
OverallDifficulty:6
ApproachRate:6
SliderMultiplier:1.4
SliderTickRate:1

[Events]
//Background and Video events
0,0,"slit.jpg",0,0
//Break Periods
//Storyboard Layer 0 (Background)
//Storyboard Layer 1 (Fail)
//Storyboard Layer 2 (Pass)
//Storyboard Layer 3 (Foreground)
//Storyboard Sound Samples

[TimingPoints]
1523,363.636363636364,4,1,0,70,1,0
1523,-66.6666666666667,4,1,0,75,0,0
4795,-200,4,1,0,75,0,0
16068,-80,4,1,0,75,0,0
37159,-55.5555555555556,4,1,0,75,0,0
37886,-83.3333333333333,4,1,0,75,0,0
39341,-55.5555555555556,4,1,0,75,0,0
42250,-83.3333333333333,4,1,0,75,0,0
45159,-111.111111111111,4,1,0,75,0,0
47159,-55.5555555555556,4,1,0,75,0,0
52432,-125,4,1,0,70,0,0
62613,-111.111111111111,4,1,0,80,0,0
68432,-100,4,1,0,75,0,0
74250,-76.9230769230769,4,1,0,75,0,0
86977,-133.333333333333,4,1,0,75,0,0
87341,-83.3333333333333,4,1,0,75,0,1
98886,-100,4,1,0,75,0,0
98977,-80,4,1,0,80,0,1
106250,-76.9230769230769,4,1,0,80,0,1
107704,-74.0740740740741,4,1,0,80,0,1
110613,-100,4,1,0,50,0,0
116432,-100,4,1,0,20,0,0

[Colours]
Combo1 : 0,128,255
Combo2 : 238,81,47

[HitObjects]
252,192,1523,5,0,0:0:0:0:
252,192,1886,1,8,0:0:0:0:
252,192,2067,1,0,0:0:0:0:
252,192,2158,1,0,0:0:0:0:
252,192,2249,1,0,0:0:0:0:
252,192,2340,1,8,0:0:0:0:
252,192,2431,1,0,0:0:0:0:
252,192,2522,1,0,0:0:0:0:
252,192,2613,1,8,0:0:0:0:
256,192,2886,12,0,3523,0:0:0:0:
252,192,3704,5,4,0:0:0:0:
252,192,3977,1,4,0:0:0:0:
252,192,4250,1,4,0:0:0:0:
252,192,4432,1,12,0:0:0:0:
252,192,5886,1,0,0:0:0:0:
252,192,6432,1,8,0:0:0:0:
252,192,6795,1,0,0:0:0:0:
252,192,7159,1,8,0:0:0:0:
252,192,7341,1,0,0:0:0:0:
252,192,8613,1,8,0:0:0:0:
252,192,9523,1,0,0:0:0:0:
252,192,10250,1,8,0:0:0:0:
252,192,11704,1,0,0:0:0:0:
252,192,12250,1,0,0:0:0:0:
252,192,12795,1,8,0:0:0:0:
252,192,13159,1,0,0:0:0:0:
252,192,14613,1,0,0:0:0:0:
252,196,16068,1,4,0:0:0:0:
252,196,16250,1,0,0:0:0:0:
252,196,16341,1,8,0:0:0:0:
252,196,16432,1,0,0:0:0:0:
252,196,16523,1,0,0:0:0:0:
252,196,16613,1,8,0:0:0:0:
252,196,16704,1,0,0:0:0:0:
252,196,16795,1,0,0:0:0:0:
252,196,16886,1,8,0:0:0:0:
252,196,16977,1,0,0:0:0:0:
252,196,17068,1,0,0:0:0:0:
252,196,17159,1,8,0:0:0:0:
252,196,17250,1,0,0:0:0:0:
252,196,17341,1,8,0:0:0:0:
252,196,17432,1,0,0:0:0:0:
252,196,17523,1,0,0:0:0:0:
304,260,17613,1,0,0:0:0:0:
304,260,17704,1,0,0:0:0:0:
276,236,17795,1,8,0:0:0:0:
276,236,17886,1,0,0:0:0:0:
276,236,17977,1,0,0:0:0:0:
276,236,18068,1,8,0:0:0:0:
276,236,18159,1,0,0:0:0:0:
276,236,18250,1,0,0:0:0:0:
276,236,18341,1,8,0:0:0:0:
276,236,18432,1,0,0:0:0:0:
276,236,18523,1,0,0:0:0:0:
276,236,18613,1,8,0:0:0:0:
252,196,18704,1,8,0:0:0:0:
252,196,18795,1,8,0:0:0:0:
252,196,18886,1,8,0:0:0:0:
252,196,18977,1,8,0:0:0:0:
252,196,19068,1,0,0:0:0:0:
252,196,19159,1,8,0:0:0:0:
252,196,19250,1,8,0:0:0:0:
252,196,19341,1,0,0:0:0:0:
252,196,19432,1,8,0:0:0:0:
252,196,19523,1,8,0:0:0:0:
252,196,19614,1,0,0:0:0:0:
252,196,19705,1,8,0:0:0:0:
252,196,19795,1,8,0:0:0:0:
252,196,19886,1,0,0:0:0:0:
252,196,19977,1,8,0:0:0:0:
252,196,20068,1,8,0:0:0:0:
252,196,20159,1,8,0:0:0:0:
252,196,20250,1,8,0:0:0:0:
252,196,20341,1,0,0:0:0:0:
252,196,20432,1,8,0:0:0:0:
252,196,20523,1,0,0:0:0:0:
252,196,20613,1,0,0:0:0:0:
252,196,20704,1,8,0:0:0:0:
252,196,20795,1,0,0:0:0:0:
252,196,20886,1,0,0:0:0:0:
252,196,20977,1,8,0:0:0:0:
252,196,21068,1,0,0:0:0:0:
252,196,21158,1,8,0:0:0:0:
252,196,21250,1,8,0:0:0:0:
252,196,21341,1,0,0:0:0:0:
252,196,21432,1,8,0:0:0:0:
252,196,21523,1,0,0:0:0:0:
236,212,21704,1,0,0:0:0:0:
252,196,21886,1,4,0:0:0:0:
252,196,22068,1,0,0:0:0:0:
252,196,22250,1,0,0:0:0:0:
252,196,22432,1,0,0:0:0:0:
252,196,22613,1,0,0:0:0:0:
252,196,22795,1,0,0:0:0:0:
252,196,22977,1,0,0:0:0:0:
236,212,23159,1,0,0:0:0:0:
252,196,23341,1,4,0:0:0:0:
252,196,23523,1,0,0:0:0:0:
252,196,23704,1,0,0:0:0:0:
252,196,23886,1,0,0:0:0:0:
252,196,24068,1,0,0:0:0:0:
252,196,24250,1,0,0:0:0:0:
252,196,24432,1,0,0:0:0:0:
252,196,24613,1,0,0:0:0:0:
252,196,24795,1,0,0:0:0:0:
252,196,24886,1,0,0:0:0:0:
252,196,24977,1,0,0:0:0:0:
252,196,25068,1,0,0:0:0:0:
252,196,25159,1,0,0:0:0:0:
252,196,25250,1,0,0:0:0:0:
252,196,25341,1,0,0:0:0:0:
252,196,25432,1,0,0:0:0:0:
252,196,25523,1,0,0:0:0:0:
252,196,25613,1,0,0:0:0:0:
252,196,25704,1,0,0:0:0:0:
252,196,25795,1,0,0:0:0:0:
252,196,25886,1,0,0:0:0:0:
240,168,25977,1,0,0:0:0:0:
240,168,26068,1,0,0:0:0:0:
240,168,26159,1,0,0:0:0:0:
240,168,26250,1,0,0:0:0:0:
240,168,26341,1,0,0:0:0:0:
240,168,26432,1,0,0:0:0:0:
240,168,26492,1,0,0:0:0:0:
264,172,26553,1,0,0:0:0:0:
240,168,26613,1,8,0:0:0:0:
256,192,26704,12,0,27523,0:0:0:0:
240,168,27704,5,4,0:0:0:0:
240,168,27886,1,0,0:0:0:0:
216,184,28068,1,0,0:0:0:0:
240,168,28250,1,0,0:0:0:0:
240,168,28432,1,0,0:0:0:0:
240,168,28613,1,12,0:0:0:0:
240,168,28916,1,12,0:0:0:0:
240,168,29159,1,4,0:0:0:0:
240,168,29432,1,0,0:0:0:0:
240,168,29523,1,0,0:0:0:0:
240,168,29613,1,0,0:0:0:0:
240,168,29704,1,0,0:0:0:0:
240,168,29795,1,0,0:0:0:0:
240,168,29886,1,8,0:0:0:0:
240,168,30068,1,8,0:0:0:0:
240,168,30250,1,0,0:0:0:0:
240,168,30432,1,8,0:0:0:0:
240,168,30523,1,8,0:0:0:0:
240,168,30613,1,4,0:0:0:0:
248,196,30886,1,0,0:0:0:0:
240,168,31159,1,0,0:0:0:0:
240,168,31341,1,8,0:0:0:0:
240,168,31462,1,8,0:0:0:0:
240,168,31583,1,8,0:0:0:0:
240,168,31704,1,0,0:0:0:0:
240,168,32068,1,0,0:0:0:0:
240,168,32189,1,0,0:0:0:0:
240,168,32310,1,0,0:0:0:0:
248,196,32371,1,0,0:0:0:0:
240,168,32432,1,8,0:0:0:0:
240,168,32553,1,0,0:0:0:0:
240,168,32674,1,0,0:0:0:0:
240,168,32795,1,0,0:0:0:0:
240,168,32917,1,0,0:0:0:0:
240,168,33038,1,0,0:0:0:0:
240,168,33098,1,0,0:0:0:0:
248,196,33159,1,8,0:0:0:0:
240,168,33523,1,0,0:0:0:0:
240,168,33886,1,0,0:0:0:0:
240,168,34068,1,0,0:0:0:0:
240,168,34250,1,8,0:0:0:0:
240,168,34371,1,8,0:0:0:0:
240,168,34492,1,8,0:0:0:0:
240,168,34613,1,8,0:0:0:0:
240,168,34735,1,8,0:0:0:0:
240,168,34856,1,8,0:0:0:0:
240,168,34977,1,0,0:0:0:0:
240,168,35098,1,0,0:0:0:0:
240,168,35219,1,0,0:0:0:0:
240,168,35340,1,0,0:0:0:0:
240,168,35462,1,0,0:0:0:0:
240,168,35583,1,0,0:0:0:0:
240,168,35704,1,0,0:0:0:0:
240,168,35765,1,0,0:0:0:0:
240,168,35826,1,8,0:0:0:0:
240,168,35886,1,8,0:0:0:0:
240,168,35947,1,8,0:0:0:0:
240,168,36007,1,8,0:0:0:0:
240,168,36129,1,8,0:0:0:0:
240,168,36250,1,0,0:0:0:0:
240,168,36432,1,0,0:0:0:0:
240,168,36613,1,8,0:0:0:0:
240,168,36795,1,0,0:0:0:0:
240,168,36916,1,0,0:0:0:0:
240,168,37038,1,0,0:0:0:0:
240,168,37159,1,4,0:0:0:0:
240,168,37432,1,4,0:0:0:0:
240,168,37704,1,4,0:0:0:0:
240,168,37886,1,0,0:0:0:0:
240,168,38007,1,0,0:0:0:0:
240,168,38128,1,0,0:0:0:0:
248,196,38189,1,0,0:0:0:0:
240,168,38250,1,8,0:0:0:0:
240,168,38371,1,0,0:0:0:0:
240,168,38492,1,0,0:0:0:0:
240,168,38613,1,0,0:0:0:0:
240,168,38735,1,0,0:0:0:0:
240,168,38856,1,0,0:0:0:0:
240,168,38916,1,0,0:0:0:0:
248,196,38977,1,8,0:0:0:0:
240,168,39341,1,4,0:0:0:0:
240,168,39523,1,12,0:0:0:0:
240,168,40068,1,12,0:0:0:0:
240,168,40189,1,12,0:0:0:0:
240,168,40310,1,12,0:0:0:0:
240,168,40432,1,12,0:0:0:0:
240,168,40553,1,12,0:0:0:0:
240,168,40674,1,12,0:0:0:0:
240,168,40795,1,4,0:0:0:0:
240,168,41038,1,4,0:0:0:0:
240,168,41341,1,12,0:0:0:0:
240,168,41522,1,4,0:0:0:0:
240,168,41765,1,4,0:0:0:0:
240,168,42007,1,4,0:0:0:0:
240,168,42250,1,0,0:0:0:0:
240,168,42371,1,0,0:0:0:0:
240,168,42492,1,0,0:0:0:0:
244,144,42553,1,0,0:0:0:0:
244,144,42613,1,8,0:0:0:0:
240,168,42795,1,0,0:0:0:0:
240,168,42916,1,0,0:0:0:0:
240,168,43037,1,0,0:0:0:0:
244,144,43098,1,0,0:0:0:0:
244,144,43158,1,8,0:0:0:0:
240,168,43341,1,12,0:0:0:0:
244,144,43523,1,12,0:0:0:0:
240,168,43704,1,8,0:0:0:0:
240,168,43826,1,8,0:0:0:0:
240,168,43947,1,8,0:0:0:0:
240,168,44068,1,8,0:0:0:0:
240,168,44190,1,8,0:0:0:0:
240,168,44311,1,8,0:0:0:0:
240,168,44432,1,12,0:0:0:0:
240,168,44795,1,4,0:0:0:0:
240,168,45159,1,0,0:0:0:0:
240,168,45704,1,4,0:0:0:0:
240,168,45886,1,4,0:0:0:0:
256,184,46613,1,0,0:0:0:0:
240,168,47159,1,0,0:0:0:0:
240,168,47250,1,0,0:0:0:0:
240,168,47341,1,12,0:0:0:0:
240,168,47583,1,12,0:0:0:0:
256,184,47826,1,12,0:0:0:0:
256,184,48068,1,0,0:0:0:0:
256,184,48159,1,0,0:0:0:0:
256,184,48250,1,0,0:0:0:0:
256,184,48341,1,0,0:0:0:0:
240,168,48432,1,0,0:0:0:0:
240,168,48523,1,0,0:0:0:0:
240,168,48613,1,0,0:0:0:0:
240,168,48704,1,0,0:0:0:0:
256,184,48795,1,8,0:0:0:0:
256,184,48886,1,8,0:0:0:0:
256,184,48977,1,8,0:0:0:0:
256,184,49068,1,8,0:0:0:0:
240,168,49159,1,8,0:0:0:0:
240,168,49250,1,8,0:0:0:0:
240,168,49340,1,8,0:0:0:0:
240,168,49431,1,8,0:0:0:0:
256,184,49523,1,8,0:0:0:0:
256,184,49614,1,8,0:0:0:0:
256,184,49705,1,8,0:0:0:0:
256,184,49795,1,8,0:0:0:0:
240,168,49886,1,8,0:0:0:0:
240,168,49977,1,8,0:0:0:0:
240,168,50067,1,8,0:0:0:0:
240,168,50158,1,8,0:0:0:0:
256,184,50250,1,8,0:0:0:0:
256,184,50341,1,8,0:0:0:0:
256,184,50432,1,8,0:0:0:0:
256,184,50523,1,8,0:0:0:0:
240,168,50614,1,8,0:0:0:0:
240,168,50704,1,8,0:0:0:0:
240,168,50795,1,8,0:0:0:0:
240,168,50856,1,8,0:0:0:0:
240,168,50916,1,8,0:0:0:0:
240,168,50977,1,8,0:0:0:0:
240,168,52432,1,8,0:0:0:0:
240,168,52977,1,0,0:0:0:0:
240,168,53523,1,0,0:0:0:0:
240,168,53886,1,8,0:0:0:0:
240,168,54250,1,0,0:0:0:0:
240,168,54432,1,0,0:0:0:0:
240,168,55341,1,0,0:0:0:0:
240,168,56432,1,0,0:0:0:0:
240,168,56613,1,0,0:0:0:0:
240,168,56795,1,0,0:0:0:0:
240,168,58250,1,8,0:0:0:0:
240,168,58795,1,0,0:0:0:0:
240,168,59341,1,8,0:0:0:0:
240,168,59704,1,0,0:0:0:0:
240,168,61159,1,0,0:0:0:0:
240,168,62613,1,4,0:0:0:0:
240,168,62977,1,12,0:0:0:0:
240,168,63159,1,0,0:0:0:0:
240,168,63250,1,0,0:0:0:0:
240,168,63341,1,0,0:0:0:0:
240,168,63523,1,8,0:0:0:0:
240,168,63704,1,0,0:0:0:0:
240,168,63886,1,8,0:0:0:0:
240,168,64068,1,4,0:0:0:0:
240,168,64432,1,12,0:0:0:0:
240,168,64614,1,0,0:0:0:0:
240,168,64705,1,0,0:0:0:0:
240,168,64796,1,0,0:0:0:0:
240,168,64977,1,8,0:0:0:0:
240,168,65159,1,8,0:0:0:0:
240,168,65341,1,0,0:0:0:0:
240,168,65523,1,0,0:0:0:0:
240,168,65704,1,0,0:0:0:0:
240,168,65795,1,8,0:0:0:0:
240,168,65977,1,0,0:0:0:0:
240,168,66068,1,8,0:0:0:0:
240,168,66250,1,0,0:0:0:0:
240,168,66432,1,0,0:0:0:0:
240,168,66613,1,8,0:0:0:0:
240,168,66795,1,0,0:0:0:0:
240,168,66977,1,0,0:0:0:0:
240,168,67068,1,8,0:0:0:0:
240,168,67250,1,0,0:0:0:0:
240,168,67341,1,8,0:0:0:0:
240,168,67523,1,0,0:0:0:0:
240,168,67613,1,8,0:0:0:0:
240,168,67795,1,0,0:0:0:0:
240,168,67886,1,8,0:0:0:0:
240,168,68068,1,0,0:0:0:0:
240,168,68250,1,0,0:0:0:0:
240,168,68432,1,4,0:0:0:0:
240,168,68613,1,0,0:0:0:0:
240,168,68795,1,0,0:0:0:0:
240,168,68977,1,0,0:0:0:0:
240,168,69159,1,0,0:0:0:0:
240,168,69341,1,0,0:0:0:0:
240,168,69523,1,0,0:0:0:0:
240,168,69704,1,0,0:0:0:0:
240,168,69886,1,4,0:0:0:0:
240,168,70068,1,0,0:0:0:0:
240,168,70250,1,0,0:0:0:0:
240,168,70432,1,0,0:0:0:0:
240,168,70613,1,0,0:0:0:0:
240,168,70795,1,0,0:0:0:0:
240,168,70977,1,4,0:0:0:0:
240,168,71159,1,0,0:0:0:0:
240,168,71341,1,0,0:0:0:0:
240,168,71432,1,0,0:0:0:0:
240,168,71523,1,0,0:0:0:0:
240,168,71613,1,0,0:0:0:0:
240,168,71704,1,0,0:0:0:0:
240,168,71795,1,0,0:0:0:0:
240,168,71885,1,0,0:0:0:0:
240,168,71977,1,0,0:0:0:0:
240,168,72068,1,8,0:0:0:0:
240,168,72158,1,0,0:0:0:0:
240,168,72250,1,0,0:0:0:0:
240,168,72341,1,0,0:0:0:0:
240,168,72431,1,8,0:0:0:0:
240,168,72523,1,0,0:0:0:0:
240,168,72614,1,0,0:0:0:0:
240,168,72704,1,0,0:0:0:0:
240,168,72795,1,0,0:0:0:0:
240,168,72886,1,0,0:0:0:0:
240,168,72977,1,0,0:0:0:0:
240,168,73067,1,0,0:0:0:0:
240,168,73158,1,0,0:0:0:0:
240,168,73249,1,0,0:0:0:0:
240,168,73339,1,0,0:0:0:0:
240,168,73432,1,0,0:0:0:0:
240,168,73523,1,0,0:0:0:0:
240,168,73614,1,0,0:0:0:0:
240,168,73704,1,0,0:0:0:0:
240,168,73795,1,0,0:0:0:0:
240,168,73886,1,0,0:0:0:0:
240,168,73976,1,0,0:0:0:0:
232,160,74068,1,0,0:0:0:0:
240,168,74129,1,0,0:0:0:0:
240,168,74189,1,0,0:0:0:0:
240,168,74250,1,12,0:0:0:0:
240,168,74432,1,0,0:0:0:0:
240,168,74523,1,12,0:0:0:0:
240,168,74704,1,0,0:0:0:0:
240,168,74795,1,12,0:0:0:0:
240,168,74977,1,0,0:0:0:0:
240,168,75068,1,8,0:0:0:0:
240,168,75159,1,8,0:0:0:0:
240,168,75250,1,8,0:0:0:0:
240,168,75341,1,8,0:0:0:0:
240,168,75432,1,8,0:0:0:0:
240,168,75523,1,8,0:0:0:0:
240,168,75613,1,8,0:0:0:0:
240,168,75704,1,0,0:0:0:0:
240,168,75795,1,0,0:0:0:0:
240,168,75886,1,0,0:0:0:0:
240,168,75977,1,0,0:0:0:0:
240,168,76068,1,8,0:0:0:0:
240,168,76159,1,0,0:0:0:0:
240,168,76250,1,0,0:0:0:0:
240,168,76341,1,0,0:0:0:0:
240,168,76432,1,0,0:0:0:0:
240,168,76523,1,0,0:0:0:0:
240,168,76613,1,8,0:0:0:0:
240,168,76704,1,8,0:0:0:0:
240,168,76795,1,8,0:0:0:0:
240,168,76856,1,8,0:0:0:0:
240,168,76916,1,8,0:0:0:0:
240,168,76977,1,8,0:0:0:0:
240,168,77159,1,4,0:0:0:0:
240,168,77341,1,12,0:0:0:0:
240,168,77432,1,4,0:0:0:0:
240,168,77613,1,12,0:0:0:0:
240,168,77704,1,4,0:0:0:0:
240,168,77886,1,12,0:0:0:0:
240,168,77977,1,4,0:0:0:0:
240,168,78159,1,0,0:0:0:0:
240,168,78250,1,0,0:0:0:0:
240,168,78341,1,0,0:0:0:0:
240,168,78431,1,0,0:0:0:0:
240,168,78522,1,8,0:0:0:0:
240,168,78613,1,0,0:0:0:0:
240,168,78795,1,8,0:0:0:0:
240,168,78856,1,8,0:0:0:0:
240,168,78916,1,8,0:0:0:0:
240,168,78977,1,0,0:0:0:0:
240,168,79159,1,0,0:0:0:0:
240,168,79220,1,0,0:0:0:0:
240,168,79280,1,0,0:0:0:0:
240,168,79341,1,0,0:0:0:0:
240,168,79523,1,0,0:0:0:0:
240,168,79583,1,0,0:0:0:0:
240,168,79644,1,0,0:0:0:0:
240,168,79704,1,8,0:0:0:0:
240,168,79795,1,0,0:0:0:0:
240,168,79886,1,0,0:0:0:0:
240,168,79977,1,0,0:0:0:0:
240,168,80068,1,0,0:0:0:0:
240,168,80250,1,12,0:0:0:0:
240,168,80341,1,4,0:0:0:0:
240,168,80522,1,12,0:0:0:0:
240,168,80613,1,4,0:0:0:0:
240,168,80795,1,12,0:0:0:0:
240,168,80886,1,4,0:0:0:0:
240,168,81068,1,0,0:0:0:0:
240,168,81159,1,0,0:0:0:0:
240,168,81250,1,0,0:0:0:0:
240,168,81341,1,0,0:0:0:0:
240,168,81432,1,0,0:0:0:0:
240,168,81523,1,12,0:0:0:0:
240,168,81795,1,12,0:0:0:0:
240,168,82068,1,12,0:0:0:0:
240,168,82341,1,12,0:0:0:0:
240,168,82613,1,8,0:0:0:0:
240,168,82795,1,8,0:0:0:0:
240,168,82977,1,0,0:0:0:0:
240,168,83068,1,0,0:0:0:0:
240,168,83159,1,8,0:0:0:0:
240,168,83250,1,0,0:0:0:0:
240,168,83341,1,0,0:0:0:0:
240,168,83432,1,8,0:0:0:0:
240,168,83523,1,0,0:0:0:0:
240,168,83614,1,8,0:0:0:0:
240,168,83704,1,0,0:0:0:0:
240,168,83795,1,0,0:0:0:0:
240,168,83886,1,8,0:0:0:0:
240,168,83977,1,0,0:0:0:0:
240,168,84068,1,0,0:0:0:0:
240,168,84159,1,8,0:0:0:0:
240,168,84250,1,0,0:0:0:0:
240,168,84341,1,0,0:0:0:0:
240,168,84432,1,0,0:0:0:0:
240,168,84523,1,0,0:0:0:0:
240,168,84614,1,0,0:0:0:0:
240,168,84705,1,0,0:0:0:0:
240,168,84796,1,0,0:0:0:0:
240,168,84887,1,0,0:0:0:0:
240,168,84978,1,8,0:0:0:0:
240,168,85068,1,0,0:0:0:0:
240,168,85159,1,8,0:0:0:0:
240,168,85250,1,8,0:0:0:0:
240,168,85432,1,8,0:0:0:0:
240,168,85704,1,0,0:0:0:0:
240,168,86977,1,8,0:0:0:0:
252,196,87341,1,4,0:0:0:0:
252,196,87523,1,0,0:0:0:0:
252,196,87614,1,8,0:0:0:0:
252,196,87705,1,0,0:0:0:0:
252,196,87796,1,0,0:0:0:0:
252,196,87886,1,8,0:0:0:0:
252,196,87977,1,0,0:0:0:0:
252,196,88068,1,0,0:0:0:0:
252,196,88159,1,8,0:0:0:0:
252,196,88250,1,0,0:0:0:0:
252,196,88341,1,0,0:0:0:0:
252,196,88432,1,8,0:0:0:0:
252,196,88523,1,0,0:0:0:0:
252,196,88614,1,8,0:0:0:0:
252,196,88705,1,0,0:0:0:0:
252,196,88796,1,0,0:0:0:0:
304,260,88886,1,0,0:0:0:0:
304,260,88977,1,0,0:0:0:0:
276,236,89068,1,8,0:0:0:0:
276,236,89159,1,0,0:0:0:0:
276,236,89250,1,0,0:0:0:0:
276,236,89341,1,8,0:0:0:0:
276,236,89432,1,0,0:0:0:0:
276,236,89523,1,0,0:0:0:0:
276,236,89614,1,8,0:0:0:0:
276,236,89705,1,0,0:0:0:0:
276,236,89796,1,0,0:0:0:0:
276,236,89886,1,8,0:0:0:0:
252,196,89977,1,8,0:0:0:0:
252,196,90068,1,8,0:0:0:0:
252,196,90159,1,8,0:0:0:0:
252,196,90250,1,8,0:0:0:0:
252,196,90341,1,0,0:0:0:0:
252,196,90432,1,8,0:0:0:0:
252,196,90523,1,8,0:0:0:0:
252,196,90614,1,0,0:0:0:0:
252,196,90705,1,8,0:0:0:0:
252,196,90796,1,8,0:0:0:0:
252,196,90887,1,0,0:0:0:0:
252,196,90978,1,8,0:0:0:0:
252,196,91068,1,8,0:0:0:0:
252,196,91159,1,0,0:0:0:0:
252,196,91250,1,8,0:0:0:0:
252,196,91341,1,8,0:0:0:0:
252,196,91432,1,8,0:0:0:0:
252,196,91523,1,8,0:0:0:0:
252,196,91614,1,0,0:0:0:0:
252,196,91705,1,8,0:0:0:0:
252,196,91796,1,0,0:0:0:0:
252,196,91886,1,0,0:0:0:0:
252,196,91977,1,8,0:0:0:0:
252,196,92068,1,0,0:0:0:0:
252,196,92159,1,0,0:0:0:0:
252,196,92250,1,8,0:0:0:0:
252,196,92341,1,0,0:0:0:0:
252,196,92431,1,8,0:0:0:0:
252,196,92523,1,8,0:0:0:0:
252,196,92614,1,0,0:0:0:0:
252,196,92705,1,8,0:0:0:0:
252,196,92796,1,0,0:0:0:0:
252,196,92977,1,0,0:0:0:0:
252,196,93160,1,8,0:0:0:0:
252,196,93251,1,0,0:0:0:0:
252,196,93342,1,0,0:0:0:0:
252,196,93432,1,8,0:0:0:0:
252,196,93523,1,0,0:0:0:0:
252,196,93614,1,0,0:0:0:0:
252,196,93705,1,8,0:0:0:0:
252,196,93796,1,0,0:0:0:0:
252,196,93887,1,0,0:0:0:0:
252,196,93977,1,8,0:0:0:0:
252,196,94068,1,0,0:0:0:0:
252,196,94159,1,0,0:0:0:0:
252,196,94250,1,8,0:0:0:0:
252,196,94341,1,0,0:0:0:0:
304,260,94432,1,8,0:0:0:0:
304,260,94523,1,0,0:0:0:0:
276,236,94613,1,8,0:0:0:0:
276,236,94704,1,0,0:0:0:0:
276,236,94795,1,0,0:0:0:0:
276,236,94886,1,8,0:0:0:0:
276,236,94977,1,0,0:0:0:0:
276,236,95068,1,0,0:0:0:0:
276,236,95159,1,8,0:0:0:0:
276,236,95250,1,0,0:0:0:0:
276,236,95341,1,0,0:0:0:0:
276,236,95432,1,8,0:0:0:0:
276,236,95522,1,0,0:0:0:0:
252,196,95613,1,8,0:0:0:0:
252,196,95704,1,8,0:0:0:0:
252,196,95795,1,8,0:0:0:0:
252,196,95886,1,8,0:0:0:0:
252,196,95977,1,0,0:0:0:0:
252,196,96068,1,8,0:0:0:0:
252,196,96159,1,8,0:0:0:0:
252,196,96250,1,0,0:0:0:0:
252,196,96341,1,8,0:0:0:0:
252,196,96432,1,8,0:0:0:0:
252,196,96523,1,0,0:0:0:0:
252,196,96614,1,8,0:0:0:0:
252,196,96704,1,8,0:0:0:0:
252,196,96795,1,0,0:0:0:0:
252,196,96886,1,8,0:0:0:0:
252,196,96977,1,8,0:0:0:0:
252,196,97068,1,0,0:0:0:0:
252,196,97159,1,8,0:0:0:0:
252,196,97250,1,0,0:0:0:0:
252,196,97341,1,8,0:0:0:0:
252,196,97432,1,0,0:0:0:0:
252,196,97522,1,8,0:0:0:0:
252,196,97613,1,8,0:0:0:0:
252,196,97704,1,0,0:0:0:0:
252,196,97795,1,0,0:0:0:0:
252,196,97886,1,8,0:0:0:0:
252,196,97977,1,0,0:0:0:0:
252,196,98067,1,8,0:0:0:0:
252,196,98159,1,0,0:0:0:0:
252,196,98250,1,8,0:0:0:0:
252,196,98341,1,8,0:0:0:0:
252,196,98432,1,8,0:0:0:0:
252,196,98523,1,8,0:0:0:0:
252,196,98795,1,8,0:0:0:0:
252,196,98977,1,8,0:0:0:0:
252,196,99068,1,0,0:0:0:0:
252,196,99159,1,0,0:0:0:0:
252,196,99249,1,8,0:0:0:0:
252,196,99340,1,0,0:0:0:0:
252,196,99431,1,0,0:0:0:0:
252,196,99522,1,8,0:0:0:0:
252,196,99613,1,0,0:0:0:0:
252,196,99704,1,0,0:0:0:0:
252,196,99795,1,8,0:0:0:0:
252,196,99886,1,0,0:0:0:0:
252,196,99977,1,0,0:0:0:0:
252,196,100068,1,8,0:0:0:0:
252,196,100159,1,0,0:0:0:0:
304,260,100250,1,8,0:0:0:0:
304,260,100340,1,0,0:0:0:0:
276,236,100431,1,8,0:0:0:0:
276,236,100522,1,0,0:0:0:0:
276,236,100613,1,0,0:0:0:0:
276,236,100704,1,8,0:0:0:0:
276,236,100795,1,0,0:0:0:0:
276,236,100886,1,0,0:0:0:0:
276,236,100977,1,8,0:0:0:0:
276,236,101068,1,0,0:0:0:0:
276,236,101159,1,8,0:0:0:0:
276,236,101249,1,0,0:0:0:0:
252,196,101340,1,8,0:0:0:0:
252,196,101431,1,8,0:0:0:0:
252,196,101522,1,8,0:0:0:0:
252,196,101613,1,8,0:0:0:0:
252,196,101704,1,0,0:0:0:0:
252,196,101795,1,8,0:0:0:0:
252,196,101886,1,8,0:0:0:0:
252,196,101977,1,0,0:0:0:0:
252,196,102068,1,8,0:0:0:0:
252,196,102159,1,8,0:0:0:0:
252,196,102250,1,0,0:0:0:0:
252,196,102341,1,8,0:0:0:0:
252,196,102431,1,8,0:0:0:0:
252,196,102522,1,0,0:0:0:0:
252,196,102613,1,8,0:0:0:0:
252,196,102704,1,0,0:0:0:0:
252,196,102795,1,0,0:0:0:0:
252,196,102886,1,8,0:0:0:0:
252,196,102977,1,0,0:0:0:0:
252,196,103068,1,8,0:0:0:0:
252,196,103159,1,0,0:0:0:0:
252,196,103249,1,0,0:0:0:0:
252,196,103340,1,8,0:0:0:0:
252,196,103431,1,0,0:0:0:0:
252,196,103522,1,0,0:0:0:0:
252,196,103613,1,8,0:0:0:0:
252,196,103704,1,0,0:0:0:0:
252,196,103794,1,0,0:0:0:0:
252,196,103886,1,8,0:0:0:0:
252,196,103977,1,0,0:0:0:0:
252,196,104068,1,8,0:0:0:0:
252,196,104159,1,0,0:0:0:0:
252,196,104250,1,8,0:0:0:0:
252,196,104341,1,8,0:0:0:0:
252,196,104613,1,0,0:0:0:0:
228,193,104795,1,4,0:0:0:0:
252,196,104977,1,0,0:0:0:0:
252,196,105159,1,0,0:0:0:0:
252,196,105341,1,0,0:0:0:0:
252,196,105523,1,0,0:0:0:0:
252,196,105704,1,0,0:0:0:0:
252,196,105886,1,0,0:0:0:0:
252,196,106068,1,0,0:0:0:0:
228,193,106250,1,4,0:0:0:0:
252,196,106432,1,0,0:0:0:0:
252,196,106613,1,0,0:0:0:0:
252,196,106795,1,0,0:0:0:0:
252,196,106977,1,0,0:0:0:0:
252,196,107159,1,0,0:0:0:0:
252,196,107341,1,0,0:0:0:0:
252,196,107523,1,0,0:0:0:0:
228,193,107704,1,0,0:0:0:0:
228,193,107795,1,0,0:0:0:0:
252,196,107886,1,0,0:0:0:0:
252,196,107977,1,0,0:0:0:0:
252,196,108068,1,0,0:0:0:0:
252,196,108159,1,0,0:0:0:0:
252,196,108250,1,0,0:0:0:0:
252,196,108341,1,0,0:0:0:0:
228,193,108432,1,0,0:0:0:0:
228,193,108492,1,0,0:0:0:0:
228,193,108553,1,0,0:0:0:0:
228,193,108613,1,0,0:0:0:0:
228,193,108674,1,0,0:0:0:0:
228,193,108735,1,0,0:0:0:0:
228,193,108795,1,0,0:0:0:0:
228,193,108856,1,0,0:0:0:0:
228,193,108916,1,0,0:0:0:0:
228,193,108977,1,0,0:0:0:0:
228,193,109038,1,0,0:0:0:0:
228,193,109098,1,0,0:0:0:0:
228,193,109159,1,8,0:0:0:0:
228,193,109462,1,0,0:0:0:0:
252,196,109704,1,0,0:0:0:0:
252,196,109886,1,0,0:0:0:0:
228,193,109977,1,0,0:0:0:0:
228,193,110068,1,0,0:0:0:0:
228,193,110159,1,0,0:0:0:0:
228,193,110250,1,0,0:0:0:0:
228,193,110341,1,0,0:0:0:0:
228,193,110432,1,0,0:0:0:0:
228,193,110523,1,0,0:0:0:0:
228,193,110613,1,12,0:0:0:0:
228,193,110735,1,8,0:0:0:0:
228,193,110856,1,8,0:0:0:0:
228,193,110977,1,0,0:0:0:0:
228,193,111098,1,0,0:0:0:0:
228,193,111219,1,0,0:0:0:0:
228,193,111341,1,8,0:0:0:0:
228,193,111463,1,8,0:0:0:0:
228,193,111584,1,8,0:0:0:0:
228,193,111705,1,0,0:0:0:0:
228,193,111826,1,0,0:0:0:0:
228,193,111947,1,0,0:0:0:0:
228,193,112068,1,8,0:0:0:0:
228,193,112189,1,0,0:0:0:0:
228,193,112310,1,0,0:0:0:0:
228,193,112432,1,0,0:0:0:0:
228,193,112553,1,0,0:0:0:0:
228,193,112674,1,0,0:0:0:0:
228,193,112795,1,8,0:0:0:0:
228,193,112916,1,8,0:0:0:0:
228,193,113038,1,8,0:0:0:0:
228,193,113159,1,0,0:0:0:0:
228,193,113280,1,0,0:0:0:0:
228,193,113401,1,0,0:0:0:0:
228,193,113523,1,8,0:0:0:0:
228,193,113644,1,0,0:0:0:0:
228,193,113765,1,0,0:0:0:0:
228,193,113886,1,0,0:0:0:0:
228,193,114007,1,0,0:0:0:0:
228,193,114129,1,0,0:0:0:0:
228,193,114250,1,8,0:0:0:0:
228,193,114371,1,8,0:0:0:0:
228,193,114492,1,8,0:0:0:0:
228,193,114613,1,0,0:0:0:0:
228,193,114734,1,0,0:0:0:0:
228,193,114856,1,0,0:0:0:0:
228,193,114977,1,8,0:0:0:0:
228,193,115098,1,8,0:0:0:0:
228,193,115219,1,8,0:0:0:0:
228,193,115341,1,0,0:0:0:0:
228,193,115462,1,0,0:0:0:0:
228,193,115584,1,0,0:0:0:0:
228,193,115704,1,8,0:0:0:0:
228,193,115826,1,8,0:0:0:0:
228,193,115947,1,8,0:0:0:0:
228,193,116068,1,0,0:0:0:0:
228,193,116189,1,0,0:0:0:0:
228,193,116310,1,0,0:0:0:0:
228,193,116432,1,8,0:0:0:0:
228,193,116553,1,0,0:0:0:0:
228,193,116674,1,0,0:0:0:0:
228,193,116795,1,0,0:0:0:0:
228,193,116916,1,0,0:0:0:0:
228,193,117038,1,0,0:0:0:0:
228,193,117159,1,8,0:0:0:0:
228,193,117280,1,8,0:0:0:0:
228,193,117401,1,8,0:0:0:0:
228,193,117523,1,0,0:0:0:0:
228,193,117644,1,0,0:0:0:0:
228,193,117766,1,0,0:0:0:0:
228,193,117887,1,8,0:0:0:0:
228,193,118008,1,8,0:0:0:0:
228,193,118129,1,8,0:0:0:0:
228,193,118251,1,0,0:0:0:0:
228,193,118372,1,0,0:0:0:0:
228,193,118494,1,0,0:0:0:0:
228,193,118614,1,8,0:0:0:0:
228,193,118736,1,8,0:0:0:0:
228,193,118857,1,8,0:0:0:0:
228,193,118978,1,0,0:0:0:0:
228,193,119099,1,0,0:0:0:0:
228,193,119220,1,0,0:0:0:0:
228,193,119341,1,8,0:0:0:0:
228,193,119462,1,0,0:0:0:0:
228,193,119583,1,0,0:0:0:0:
228,193,119704,1,0,0:0:0:0:
228,193,119825,1,0,0:0:0:0:
228,193,119947,1,0,0:0:0:0:
228,193,120068,1,8,0:0:0:0:
228,193,120189,1,8,0:0:0:0:
228,193,120310,1,8,0:0:0:0:
228,193,120432,1,0,0:0:0:0:
228,193,120553,1,0,0:0:0:0:
228,193,120675,1,0,0:0:0:0:
228,193,120796,1,8,0:0:0:0:
228,193,120917,1,8,0:0:0:0:
228,193,121038,1,8,0:0:0:0:
228,193,121160,1,0,0:0:0:0:
228,193,121281,1,0,0:0:0:0:
228,193,121403,1,0,0:0:0:0:
228,193,121523,1,8,0:0:0:0:
228,193,121645,1,8,0:0:0:0:
228,193,121766,1,8,0:0:0:0:
228,193,121887,1,0,0:0:0:0:
228,193,122008,1,0,0:0:0:0:
228,193,122129,1,8,0:0:0:0:
