osu file format v14

[General]
AudioFilename: Slit.mp3
AudioLeadIn: 477
PreviewTime: 85886
Countdown: 0
SampleSet: Normal
StackLeniency: 0.4
Mode: 0
LetterboxInBreaks: 0
WidescreenStoryboard: 1

[Editor]
DistanceSpacing: 1
BeatDivisor: 4
GridSize: 4
TimelineZoom: 3.799999

[Metadata]
Title:Slit
TitleUnicode:Ø
Artist:EBICO & jioyi
ArtistUnicode:EBICO & jioyi
Creator:Megurine Luka
Version:Standard
Source:Cytus
Tags:G S X Deye Bakahuang judgment light jyc-Binggan
BeatmapID:675917
BeatmapSetID:301422

[Difficulty]
HPDrainRate:4
CircleSize:3.5
OverallDifficulty:4
ApproachRate:5
SliderMultiplier:0.8
SliderTickRate:1

[Events]
//Background and Video events
0,0,"slit.jpg",0,0
//Break Periods
//Storyboard Layer 0 (Background)
//Storyboard Layer 1 (Fail)
//Storyboard Layer 2 (Pass)
//Storyboard Layer 3 (Foreground)
//Storyboard Sound Samples

[TimingPoints]
1523,363.636363636364,4,1,0,30,1,0
4432,-100,4,1,0,30,0,1
4613,-100,4,1,0,30,0,0
5795,-100,4,2,0,60,0,0
21704,-100,4,1,0,70,0,0
28432,-100,4,1,0,60,0,0
39795,-100,4,2,0,60,0,0
39977,-100,4,1,0,60,0,0
52250,-100,4,2,0,60,0,0
62432,-100,4,1,1,50,0,0
68341,-100,4,1,0,60,0,0
86977,-100,4,1,0,60,0,1
110432,-100,4,1,0,70,0,0
110613,-100,4,1,0,70,0,1
110795,-100,4,1,0,70,0,0

[Colours]
Combo1 : 251,0,0
Combo2 : 192,192,192
Combo3 : 128,128,255

[HitObjects]
96,104,1523,5,0,0:0:0:0:
112,184,1886,1,0,0:0:0:0:
128,264,2250,2,0,L|176:264,1,40
256,192,2613,12,0,3704,2:0:0:0:
312,232,4432,5,6,0:0:0:0:
312,232,5886,2,0,P|304:296|256:336,2,120,2|2|0,0:0|0:0|0:0,0:0:0:0:
232,256,7341,1,2,0:0:0:0:
152,280,7704,2,0,L|144:336,1,40,0|0,0:0|0:0,0:0:0:0:
434,127,9886,6,0,L|440:88,2,40,0|0|2,0:0|0:0|0:0,0:0:0:0:
176,72,11704,2,0,P|144:128|168:192,2,120,2|0|0,0:0|0:0|0:0,0:0:0:0:
224,136,13159,1,2,0:0:0:0:
256,312,14613,5,2,0:0:0:0:
256,136,15341,1,4,0:0:0:0:
448,96,16068,6,0,P|484:140|480:200,2,120,2|0|8,0:0|0:0|0:0,0:0:0:0:
408,168,17523,1,2,0:0:0:0:
256,120,18250,1,2,0:0:0:0:
128,216,18977,6,0,P|74:183|74:119,2,120,2|0|8,0:0|0:0|0:0,0:0:0:0:
147,140,20432,2,0,P|167:81|226:67,2,120,0|0|8,0:0|0:0|0:0,0:0:0:0:
232,144,21886,6,0,L|400:152,1,160
435,230,22977,1,8,0:0:0:0:
435,230,23341,2,0,L|267:222,1,160
232,144,24432,1,8,0:0:0:0:
256,192,24795,12,0,27704,0:0:0:0:
160,176,28613,6,0,P|144:232|184:296,1,120,2|0,0:0|0:0,0:0:0:0:
224,224,29523,1,0,0:0:0:0:
288,272,29886,2,0,L|336:264,1,40,2|2,0:0|0:0,0:0:0:0:
352,152,30613,6,0,L|432:136,1,80
376,64,31341,2,0,L|296:80,1,80,2|0,0:0|0:0,0:0:0:0:
240,136,32068,6,0,L|160:152,1,80,0|0,0:0|0:0,0:0:0:0:
104,208,32795,1,8,0:0:0:0:
132,278,33159,1,8,0:0:0:0:
206,289,33523,5,4,0:0:0:0:
368,304,34250,2,0,P|352:232|416:176,2,160,2|2|2,0:2|0:2|0:2,0:0:0:0:
288,312,36068,1,0,0:0:0:0:
208,320,36432,5,0,0:0:0:0:
80,232,37159,1,2,0:0:0:0:
224,160,37886,5,2,0:0:0:0:
272,96,38250,1,0,0:0:0:0:
304,168,38613,1,2,0:0:0:0:
376,136,38977,1,0,0:0:0:0:
368,216,39341,6,0,P|312:248|312:304,1,120
256,320,40068,1,2,0:2:0:0:
256,320,40432,1,2,0:2:0:0:
202,298,40795,6,0,P|195:241|144:216,1,120,2|0,0:0|0:0,0:0:0:0:
104,216,41523,2,2,L|96:288,2,60,0|0|0,0:0|0:0|0:0,0:0:0:0:
120,96,42613,1,0,0:0:0:0:
200,104,42977,2,0,L|208:152,2,40,0|0|0,0:0|0:0|0:0,0:0:0:0:
272,72,43704,6,0,P|304:128|360:144,1,120,2|0,0:0|0:0,0:0:0:0:
392,136,44432,2,0,L|376:224,1,80,2|0,0:0|0:0,0:0:0:0:
304,248,45159,5,4,0:0:0:0:
232,288,45523,1,0,0:0:0:0:
88,184,46250,1,0,0:0:0:0:
160,152,46613,1,2,0:0:0:0:
160,152,46977,1,0,0:0:0:0:
304,88,47704,1,0,0:0:0:0:
256,192,48068,12,2,50977,0:2:0:0:
96,232,52432,6,0,P|88:288|136:336,2,120,2|0|0,0:0|0:0|0:0,0:0:0:0:
168,264,53886,1,2,0:0:0:0:
240,296,54250,2,0,L|296:288,1,40
192,112,55341,1,0,0:0:0:0:
344,72,56068,1,0,0:0:0:0:
416,136,56432,6,0,L|424:184,2,40,0|0|2,0:0|0:0|0:0,0:0:0:0:
416,136,58250,2,0,P|372:175|379:242,2,120,2|0|0,0:0|0:0|0:0,0:0:0:0:
448,208,59704,1,2,0:0:0:0:
64,216,61159,5,0,0:0:0:0:
256,192,61886,1,2,0:0:0:0:
448,176,62613,6,0,P|416:208|400:248,1,80,0|8,0:0|0:0,0:0:0:0:
320,240,63341,2,0,L|312:288,1,40,0|8,0:0|0:0,0:0:0:0:
120,312,64068,2,0,P|104:272|104:224,1,80,0|8,0:0|0:0,0:0:0:0:
56,168,64795,2,0,L|96:136,1,40,0|8,0:0|0:0,0:0:0:0:
280,56,65523,6,0,P|324:52|360:80,1,80,0|8,0:0|0:0,0:0:0:0:
304,136,66250,2,0,L|312:184,1,40,0|8,0:0|0:0,0:0:0:0:
272,192,66613,2,0,L|280:240,1,40,0|0,0:0|0:0,0:0:0:0:
240,248,66977,6,0,P|224:288|176:312,1,80,0|8,0:0|0:0,0:0:0:0:
120,272,67704,2,0,L|144:232,1,40,0|8,0:0|0:0,0:0:0:0:
112,208,68068,2,0,L|136:168,1,40,0|0,0:0|0:0,0:0:0:0:
104,144,68432,6,0,P|112:104|152:80,1,80,4|0,0:0|0:0,0:0:0:0:
224,64,69159,2,0,P|264:72|288:112,1,80
304,184,69886,6,0,P|296:224|256:248,1,80,4|0,0:0|0:0,0:0:0:0:
184,264,70613,2,0,P|144:256|120:216,1,80,0|4,0:0|0:0,0:0:0:0:
256,192,71341,12,0,73523,0:0:0:0:
488,140,74250,6,0,L|452:72,2,60
428,140,75068,2,0,L|368:147,1,60
292,168,75704,2,0,P|292:236|260:156,1,240,4|0,0:0|0:0,0:0:0:0:
220,84,77159,6,0,L|256:36,2,60
180,88,77886,2,0,L|128:152,1,80
60,188,78613,2,0,B|60:228|124:260|172:224|172:224|204:184|204:184|256:212,1,240
264,128,80068,6,0,L|316:156,1,60
376,148,80613,2,0,L|360:220,1,60
352,264,81159,1,0,0:0:0:0:
340,344,81523,6,0,L|412:336,1,60,2|0,0:0|0:0,0:0:0:0:
444,296,82068,2,0,L|492:256,1,60,2|0,0:0|0:0,0:0:0:0:
492,196,82613,1,2,0:0:0:0:
420,156,82977,6,0,L|360:162,2,60
452,132,83704,2,0,L|511:124,2,60
424,104,84432,2,0,L|360:72,1,60
276,44,85159,2,0,P|289:132|312:165,1,120
128,296,87341,5,6,0:0:0:0:
96,224,87704,1,8,0:0:0:0:
168,192,88068,1,0,0:0:0:0:
200,264,88432,1,8,0:0:0:0:
280,256,88795,5,2,0:0:0:0:
336,312,89159,1,8,0:0:0:0:
392,256,89523,1,0,0:0:0:0:
336,200,89886,1,8,0:0:0:0:
328,120,90250,6,0,L|232:144,1,80,2|8,0:0|0:0,0:0:0:0:
240,64,90977,2,0,L|144:88,1,80,0|8,0:0|0:0,0:0:0:0:
88,104,91704,5,2,0:0:0:0:
80,184,92068,1,8,0:0:0:0:
80,184,92250,2,0,L|72:264,1,80,0|8,0:0|0:0,0:0:0:0:
136,312,92977,1,0,0:0:0:0:
136,312,93159,5,6,0:0:0:0:
208,280,93523,1,8,0:0:0:0:
280,248,93886,1,0,0:0:0:0:
344,296,94250,1,8,0:0:0:0:
422,267,94613,6,0,L|430:171,1,80,2|8,0:0|0:0,0:0:0:0:
351,189,95341,2,0,L|359:93,1,80,0|8,0:0|0:0,0:0:0:0:
280,144,96068,5,2,0:0:0:0:
224,80,96432,1,8,0:0:0:0:
152,120,96795,1,0,0:0:0:0:
104,56,97159,1,8,0:0:0:0:
24,60,97523,6,0,P|32:28|48:-12,2,60,6|8|8,0:0|0:0|0:0,0:0:0:0:
32,96,98250,2,0,L|40:224,1,120,2|0,0:0|0:0,0:0:0:0:
39,215,98977,5,6,0:0:0:0:
32,296,99341,1,8,0:0:0:0:
112,304,99704,1,0,0:0:0:0:
120,224,100068,1,8,0:0:0:0:
200,232,100432,6,0,L|256:296,1,80,2|8,0:0|0:0,0:0:0:0:
320,248,101159,2,0,L|376:312,1,80,0|8,0:0|0:0,0:0:0:0:
448,272,101886,5,2,0:0:0:0:
392,216,102250,1,8,0:0:0:0:
336,160,102613,1,0,0:0:0:0:
280,104,102977,1,8,0:0:0:0:
280,104,103159,5,0,0:0:0:0:
208,144,103523,1,8,0:0:0:0:
136,184,103886,1,0,0:0:0:0:
64,224,104250,1,8,0:0:0:0:
136,320,104795,6,0,P|216:352|296:352,2,160,6|2|0,0:0|0:0|0:0,0:0:0:0:
160,264,106523,2,0,L|224:256,1,60,2|0,0:0|0:0,0:0:0:0:
264,216,107068,2,0,L|328:208,1,60,2|0,0:0|0:0,0:0:0:0:
400,200,107704,5,2,0:0:0:0:
400,200,108068,1,8,0:0:0:0:
408,120,108432,1,2,0:0:0:0:
408,120,108795,1,8,0:0:0:0:
416,40,109159,6,2,L|480:32,2,60,0|0|0,0:0|0:0|0:0,0:0:0:0:
416,40,109886,1,2,0:0:0:0:
336,48,110250,1,8,0:0:0:0:
256,56,110613,5,4,0:0:0:0:
