osu file format v14

[General]
AudioFilename: Slit.mp3
AudioLeadIn: 477
PreviewTime: 85886
Countdown: 0
SampleSet: Soft
StackLeniency: 0.2
Mode: 0
LetterboxInBreaks: 0
WidescreenStoryboard: 1

[Editor]
DistanceSpacing: 0.8
BeatDivisor: 4
GridSize: 4
TimelineZoom: 4.799998

[Metadata]
Title:Slit
TitleUnicode:Ø
Artist:EBICO & jioyi
ArtistUnicode:EBICO & jioyi
Creator:Megurine Luka
Version:Extra
Source:Cytus
Tags:G_S_X Deye Axey judgment light Jycool __Ag instrumental electronic video game
BeatmapID:4579540
BeatmapSetID:301422

[Difficulty]
HPDrainRate:6.5
CircleSize:5
OverallDifficulty:8
ApproachRate:9
SliderMultiplier:1.8
SliderTickRate:2

[Events]
//Background and Video events
0,0,"slit.jpg",0,0
//Break Periods
//Storyboard Layer 0 (Background)
//Storyboard Layer 1 (Fail)
//Storyboard Layer 2 (Pass)
//Storyboard Layer 3 (Foreground)
//Storyboard Layer 4 (Overlay)
//Storyboard Sound Samples

[TimingPoints]
1513,363.636363636364,4,1,0,40,1,0
2967,-200,4,1,0,50,0,0
3603,-200,4,1,0,70,0,0
4422,-100,4,2,0,60,0,1
4603,-200,4,2,0,60,0,0
5876,-200,4,2,0,60,0,0
8785,-200,4,2,0,60,0,0
15422,-200,4,2,0,5,0,0
16058,-100,4,1,0,60,0,0
21876,-100,4,1,0,70,0,0
23240,-100,4,1,0,60,0,0
26240,-80,4,1,0,60,0,0
26513,-100,4,1,0,60,0,0
26967,-100,4,1,0,80,0,0
27240,-66.6666666666667,4,1,0,80,0,0
27694,-100,4,1,0,60,0,0
28240,-100,4,1,0,60,0,0
28603,-80,4,1,0,60,0,0
29149,-100,4,1,0,50,0,0
29876,-66.6666666666667,4,1,0,50,0,0
30240,-100,4,1,0,60,0,0
30603,-100,4,1,0,60,0,0
31694,-66.6666666666667,4,1,0,60,0,0
32058,-100,4,1,0,60,0,0
33149,-66.6666666666667,4,1,0,60,0,0
33513,-100,4,1,0,60,0,0
33876,-133.333333333333,4,1,0,60,0,0
34240,-100,4,1,0,60,0,0
36513,-66.6666666666667,4,1,0,60,0,0
36876,-100,4,1,0,60,0,0
37058,-100,4,1,0,60,0,0
37876,-100,4,1,0,60,0,0
39331,-133.333333333333,4,1,0,40,0,0
40058,-66.6666666666667,4,1,0,50,0,0
40785,-100,4,1,0,50,0,0
41331,-100,4,1,0,50,0,0
42240,-100,4,1,0,60,0,0
42603,-100,4,1,0,50,0,0
42967,-100,4,1,0,70,0,0
43694,-133.333333333333,4,1,0,30,0,0
44058,-133.333333333333,4,1,0,70,0,0
44422,-133.333333333333,4,1,0,40,0,0
44785,-100,4,1,0,50,0,0
44967,-133.333333333333,4,1,0,50,0,0
47331,-100,4,1,0,50,0,0
48058,-66.6666666666667,4,1,0,50,0,0
48785,-66.6666666666667,4,1,0,50,0,0
50967,-66.6666666666667,4,1,0,30,0,0
52422,-66.6666666666667,4,2,0,30,0,0
61149,-200,4,2,0,30,0,0
61694,-200,4,2,0,30,0,0
61876,-100,4,2,0,30,0,0
62422,-66.6666666666667,4,2,0,50,0,0
62603,-100,4,1,1,60,0,0
65513,-133.333333333333,4,1,1,60,0,0
69149,-100,4,1,0,60,0,0
71694,-133.333333333333,4,1,0,50,0,0
71967,-100,4,1,0,50,0,0
72422,-80,4,1,0,50,0,0
73513,-200,4,1,0,50,0,0
74240,-100,4,1,0,50,0,0
75694,-100,4,1,0,40,0,0
76785,-100,4,2,0,50,0,0
77149,-100,4,1,0,50,0,0
79694,-133.333333333333,4,1,0,50,0,0
80058,-100,4,1,0,50,0,0
81513,-66.6666666666667,4,1,0,50,0,0
82967,-100,4,1,0,50,0,0
86876,-100,4,2,0,5,0,0
86967,-100,4,1,0,45,0,1
87331,-100,4,1,0,70,0,1
98876,-100,4,1,0,70,0,0
98967,-100,4,1,0,70,0,1
109149,-66.6666666666667,4,1,0,70,0,1
109422,-66.6666666666667,4,1,0,60,0,1
109694,-66.6666666666667,4,1,0,50,0,1
109967,-66.6666666666667,4,1,0,60,0,1
110331,-66.6666666666667,4,1,0,70,0,1
110513,-66.6666666666667,4,1,0,70,0,0
110603,-66.6666666666667,4,1,0,70,0,1
110694,-200,4,1,0,70,0,0

[Colours]
Combo1 : 251,0,0
Combo2 : 192,192,192
Combo3 : 128,128,255

[HitObjects]
136,216,1513,5,0,0:0:0:0:
164,284,1694,1,0,2:0:0:0:
180,152,1876,1,8,0:0:0:0:
64,204,2058,1,0,2:0:0:0:
57,208,2149,1,0,2:0:0:0:
49,212,2240,1,0,2:0:0:0:
41,216,2331,1,0,2:0:0:0:
34,220,2422,1,0,0:0:0:0:
92,280,2603,1,0,2:0:0:0:
99,276,2694,1,0,2:0:0:0:
107,272,2785,1,0,2:0:0:0:
115,268,2876,1,0,2:0:0:0:
124,264,2967,2,0,B|151:254|151:254|256:288,1,135,0|0,0:0|2:0,0:0:0:0:
380,352,3694,5,0,0:0:0:0:
348,268,3967,1,0,0:0:0:0:
312,184,4240,1,0,0:0:0:0:
452,48,4422,5,4,0:0:0:0:
408,152,4785,2,0,L|396:96,1,45,0|0,0:3|0:3,0:0:0:0:
184,144,5331,1,0,0:0:0:0:
256,108,5513,2,0,L|264:52,1,45,0|0,0:3|0:0,0:0:0:0:
352,208,5876,6,0,B|384:256|336:302,1,90,2|0,0:0|0:0,0:0:0:0:
200,248,6422,2,0,B|244:216|291:248,1,90,2|0,0:0|0:0,0:0:0:0:
235,351,6967,6,0,L|243:292,1,45,2|0,0:0|0:0,0:0:0:0:
111,163,7331,2,0,L|120:208,1,45,2|0,0:0|0:0,0:0:0:0:
188,60,7694,1,2,0:0:0:0:
188,60,7876,1,2,0:0:0:0:
376,108,8240,1,0,0:0:0:0:
460,100,8422,1,0,0:0:0:0:
400,188,8603,1,0,0:0:0:0:
292,32,8785,6,0,L|276:172,1,135
160,304,9513,2,0,L|140:208,1,90,0|2,0:0|0:0,0:0:0:0:
52,184,10058,5,2,0:0:0:0:
124,92,10240,1,2,0:0:0:0:
124,92,10603,1,0,0:0:0:0:
52,184,10785,1,0,0:0:0:0:
52,184,11149,5,0,0:0:0:0:
152,220,11331,1,0,0:0:0:0:
256,184,11513,1,0,0:0:0:0:
324,339,11694,6,0,B|352:292|324:243,1,90,2|0,0:0|0:0,0:0:0:0:
184,64,12240,2,0,B|155:101|183:153,1,90,2|0,0:0|0:0,0:0:0:0:
288,120,12785,2,0,L|376:148,1,90,2|2,0:0|0:0,0:0:0:0:
121,195,13513,5,0,0:0:0:0:
160,284,13694,1,0,0:0:0:0:
388,344,14058,1,0,0:0:0:0:
440,224,14240,1,0,0:0:0:0:
312,272,14422,1,0,0:0:0:0:
308,260,14513,1,0,0:0:0:0:
304,248,14603,1,2,0:0:0:0:
256,192,14694,12,0,15422,0:0:0:0:
96,148,16058,5,2,0:2:0:0:
64,76,16240,1,0,0:0:0:0:
64,76,16331,1,2,0:2:0:0:
52,212,16513,1,0,0:0:0:0:
52,212,16603,1,2,0:2:0:0:
176,156,16785,1,0,0:0:0:0:
176,156,16876,2,0,P|220:136|272:156,1,90,2|0,0:2|0:0,0:0:0:0:
308,196,17149,2,0,L|352:212,1,45,2|0,0:2|0:0,0:0:0:0:
448,152,17331,2,0,L|400:136,1,45,2|0,0:2|0:0,0:0:0:0:
332,112,17513,5,2,0:2:0:0:
276,40,17694,1,0,0:0:0:0:
276,40,17785,1,2,0:2:0:0:
424,92,17967,1,0,0:0:0:0:
424,92,18058,1,2,0:2:0:0:
308,192,18240,1,0,0:0:0:0:
308,192,18331,2,0,L|288:256,1,45,2|0,0:2|0:0,0:0:0:0:
424,192,18603,1,2,0:2:0:0:
448,176,18694,1,0,0:0:0:0:
440,200,18785,5,2,0:2:0:0:
432,224,18876,1,0,0:0:0:0:
424,248,18967,1,2,0:2:0:0:
188,360,19149,2,0,L|208:319,1,45,2|0,0:2|0:0,0:0:0:0:
368,304,19422,2,0,L|322:306,1,45,2|0,0:2|0:0,0:0:0:0:
220,184,19694,2,0,L|245:222,1,45,2|0,0:2|0:0,0:0:0:0:
260,284,19876,1,0,0:0:0:0:
140,332,20058,1,2,0:2:0:0:
116,344,20149,1,0,0:0:0:0:
124,320,20240,5,2,0:2:0:0:
132,296,20331,1,0,0:0:0:0:
140,272,20422,1,2,0:2:0:0:
252,148,20603,1,0,0:0:0:0:
260,172,20694,2,0,L|360:188,1,90,2|0,0:2|0:0,0:0:0:0:
348,186,20967,1,0,0:0:0:0:
173,154,21149,1,2,0:2:0:0:
181,182,21240,1,0,0:0:0:0:
193,62,21422,2,0,B|97:78,1,90
104,76,21694,1,0,0:0:0:0:
337,260,21876,5,4,0:0:0:0:
303,345,22058,1,0,0:0:0:0:
171,185,22240,1,8,0:0:0:0:
195,271,22422,1,0,0:0:0:0:
374,175,22603,1,0,0:0:0:0:
374,175,22694,1,0,0:0:0:0:
374,175,22785,1,0,0:0:0:0:
24,152,22967,2,0,L|40:220,1,45,8|0,0:0|0:0,0:0:0:0:
92,132,23149,2,0,L|108:196,1,45
132,56,23331,5,0,0:0:0:0:
176,208,23513,1,0,0:0:0:0:
328,164,23694,1,8,0:0:0:0:
284,16,23876,1,0,0:0:0:0:
252,104,24058,1,0,0:0:0:0:
280,112,24149,1,0,0:0:0:0:
304,120,24240,1,0,0:0:0:0:
428,368,24422,2,0,L|439:325,1,45,8|0,0:0|2:0,0:0:0:0:
371,305,24603,2,0,L|360:348,1,45,0|0,0:0|2:0,0:0:0:0:
428,244,24785,5,2,0:2:0:0:
428,244,24876,1,0,0:0:0:0:
428,244,24967,1,0,0:0:0:0:
428,244,25058,1,2,0:2:0:0:
496,224,25149,1,8,0:0:0:0:
484,184,25239,1,0,0:0:0:0:
472,148,25330,1,2,0:2:0:0:
436,140,25421,1,0,0:0:0:0:
434,70,25513,6,0,L|419:37,1,22.5
390,62,25604,2,0,L|379:37,1,22.5
348,56,25694,2,0,L|333:23,1,22.5
304,48,25785,2,0,L|293:23,1,22.5
326,117,25876,2,0,L|353:119,3,22.5
256,104,26058,2,0,L|239:126,3,22.5
224,144,26240,6,0,B|196:184|196:184|196:200|196:200|228:244,1,112.5,0|8,0:0|0:0,0:0:0:0:
292,192,26513,1,2,0:0:0:0:
320,192,26603,2,0,L|372:192,1,45,0|0,0:0|2:0,0:0:0:0:
436,192,26785,2,0,L|496:192,1,45,2|0,0:0|2:0,0:0:0:0:
208,72,26967,5,2,0:0:0:0:
224,144,27058,1,4,0:2:0:0:
256,348,27240,2,0,L|184:348,1,67.5000025749208,2|0,0:0|0:0,0:0:0:0:
332,348,27513,1,6,0:0:0:0:
468,152,27694,6,0,B|440:152|440:152|400:252|400:252|340:252|340:252,1,180,4|0,0:2|0:0,0:0:0:0:
312,144,28240,1,0,0:3:0:0:
300,168,28331,1,0,0:0:0:0:
288,192,28422,1,0,0:3:0:0:
172,68,28603,6,2,L|112:48,1,56.25,2|0,0:0|2:0,0:0:0:0:
172,316,28876,2,2,L|112:336,1,56.25,2|0,0:0|2:0,0:0:0:0:
8,192,29149,6,0,B|56:156|56:156|136:188,1,135,4|0,0:3|0:0,0:0:0:0:
196,188,29513,1,0,0:0:0:0:
200,168,29603,1,0,0:0:0:0:
264,196,29694,1,0,0:0:0:0:
268,176,29784,1,0,0:0:0:0:
344,168,29876,6,0,L|328:244,1,67.5000025749208,2|0,0:0|0:0,0:0:0:0:
388,324,30058,2,0,L|404:244,1,67.5000025749208
453,128,30240,2,0,B|475:142|475:142|489:220,1,90,2|0,0:0|0:0,3:0:0:0:
486,204,30513,1,0,0:0:0:0:
415,189,30603,5,4,0:3:0:0:
124,116,30876,1,4,0:3:0:0:
144,44,31058,1,4,0:3:0:0:
92,248,31240,1,4,0:3:0:0:
140,304,31331,2,0,L|148:344,4,30
28,256,31694,6,2,P|36:204|116:188,1,135.000005149842,2|0,0:0|2:0,0:0:0:0:
288,320,32058,5,4,0:3:0:0:
368,347,32179,1,4,0:3:0:0:
395,266,32300,1,4,0:3:0:0:
315,239,32422,2,0,L|288:225,3,30,4|0|0|0,0:3|2:0|2:0|2:0,0:0:0:0:
440,128,32694,1,0,0:0:0:0:
464,120,32785,2,2,B|476:148|476:148|452:224,1,90
400,40,33149,2,2,L|360:48,1,33.7500012874604,2|0,0:0|0:0,0:0:0:0:
363,48,33240,2,0,L|314:57,1,33.7500012874604
326,55,33331,2,2,L|281:64,1,33.7500012874604,2|0,0:0|0:0,0:0:0:0:
289,63,33422,2,2,L|239:74,1,33.7500012874604,2|0,0:0|0:0,0:0:0:0:
236,144,33513,6,0,B|301:132|301:132|380:164,1,135,4|0,0:0|0:0,0:0:0:0:
312,220,33876,2,0,L|320:260,1,33.7500012874604
400,300,34058,2,0,L|392:260,1,33.7500012874604
344,356,34240,5,2,0:0:0:0:
295,347,34361,1,0,0:0:0:0:
247,339,34482,1,2,0:0:0:0:
152,280,34603,5,0,0:0:0:0:
200,268,34724,1,2,0:0:0:0:
249,258,34845,1,0,0:0:0:0:
188,184,34967,6,0,L|168:116,1,60,4|0,0:3|0:0,0:0:0:0:
171,126,35209,1,4,0:3:0:0:
324,132,35331,2,0,L|344:64,1,60,0|4,0:0|0:3,0:0:0:0:
340,74,35573,1,0,0:0:0:0:
256,24,35694,5,0,0:0:0:0:
248,40,35785,1,0,0:0:0:0:
256,56,35876,1,2,0:0:0:0:
264,72,35967,1,0,0:0:0:0:
256,88,36058,2,2,L|256:120,3,30,2|2|2|2,2:0|2:0|2:0|2:0,2:0:0:0:
48,148,36422,5,4,0:3:0:0:
148,84,36603,2,2,B|132:92|132:92|68:72,1,67.5000025749208,2|4,0:0|0:3,0:0:0:0:
120,236,36876,2,0,L|108:188,1,45,8|0,0:3|0:2,0:0:0:0:
224,252,37058,5,4,0:3:0:0:
224,252,37149,2,2,P|268:240|304:284,1,90,0|0,0:3|2:0,0:0:0:0:
288,344,37422,2,2,P|248:356|204:312,1,90,0|0,0:3|2:0,0:0:0:0:
299,266,37694,2,2,L|352:248,1,45,0|0,0:0|0:0,0:0:0:0:
480,252,37876,5,2,0:0:0:0:
456,187,37967,1,0,0:0:0:0:
431,121,38058,1,0,0:0:0:0:
406,57,38149,2,0,L|397:35,2,22.5,2|0|0,0:0|0:0|0:0,0:0:0:0:
283,133,38422,5,2,0:0:0:0:
256,203,38513,1,0,0:0:0:0:
228,272,38603,1,2,0:0:0:0:
120,124,38876,5,4,0:3:0:0:
140,88,38967,5,0,0:0:0:0:
134,73,39058,1,0,0:0:0:0:
127,57,39149,1,0,0:0:0:0:
120,41,39240,1,0,0:0:0:0:
56,72,39331,1,4,0:0:0:0:
56,72,39513,6,0,P|16:132|72:228,1,168.750006437302,0|0,2:0|0:0,0:0:0:0:
155,356,40058,6,0,L|148:312,1,45.0000017166138,2|0,0:0|0:0,0:0:0:0:
164,348,40179,2,0,L|157:304,1,45.0000017166138
172,340,40300,2,0,L|165:296,1,45.0000017166138,2|0,0:0|0:0,0:0:0:0:
216,176,40422,2,0,L|224:221,1,45.0000017166138,2|0,0:0|0:0,0:0:0:0:
208,184,40543,2,0,L|215:228,1,45.0000017166138
200,192,40664,2,0,L|208:237,1,45.0000017166138,2|0,0:0|0:0,0:0:0:0:
300,220,40785,6,0,B|336:348|336:348|456:348,1,225,4|0,0:3|0:0,0:0:0:0:
432,272,41331,5,0,0:0:0:0:
452,272,41422,1,0,0:0:0:0:
468,272,41513,2,2,B|481:251|481:251|464:176,1,90,0|0,0:0|0:0,0:0:0:0:
392,44,41785,2,2,B|347:55|347:55|337:98,1,90
410,117,42058,2,0,L|468:130,1,45,2|0,0:0|2:0,0:0:0:0:
315,236,42240,5,0,0:0:0:0:
309,233,42300,1,0,0:0:0:0:
303,230,42361,1,0,0:0:0:0:
296,227,42422,2,0,L|279:198,2,30,2|2|2,2:0|2:0|2:0,0:0:0:0:
240,236,42603,2,0,L|216:216,2,30,8|2|2,2:0|2:0|2:0,0:0:0:0:
195,268,42785,2,0,L|150:273,2,30,0|2|2,1:0|2:0|2:0,0:0:0:0:
144,312,42967,5,2,0:3:0:0:
88,160,43149,1,0,0:0:0:0:
328,244,43331,5,2,0:3:0:0:
388,56,43513,1,0,0:0:0:0:
200,54,43694,6,0,L|148:64,2,45.0000017166138,4|4|0,0:3|0:3|0:3,0:0:0:0:
324,120,44058,2,2,B|374:130,2,45.0000017166138,2|2|2,0:2|0:2|0:2,0:0:0:0:
156,132,44422,2,2,B|184:164|184:164|260:140,1,112.500004291535,6|0,0:2|0:0,0:0:0:0:
300,208,44785,2,2,L|282:262,1,45,2|0,0:0|0:0,0:0:0:0:
215,304,44967,1,0,0:0:0:0:
220,325,45058,1,0,0:0:0:0:
224,344,45149,5,4,0:3:0:0:
72,272,45513,1,2,0:0:0:0:
231,152,45694,1,0,0:0:0:0:
231,152,45785,1,0,0:0:0:0:
231,152,45876,5,2,0:3:0:0:
96,52,46240,1,2,0:0:0:0:
16,192,46603,5,4,0:3:0:0:
163,105,46785,1,0,0:0:0:0:
165,274,46967,1,2,0:2:0:0:
115,194,47149,1,4,0:3:0:0:
328,72,47331,6,2,P|371:60|405:98,1,90,4|0,0:3|0:0,0:0:0:0:
407,66,47603,2,2,P|373:38|332:50,1,90,4|0,0:3|0:0,0:0:0:0:
328,152,47876,2,2,L|377:164,1,45,2|0,0:0|0:0,0:0:0:0:
437,256,48058,6,0,L|395:260,1,33.7500012874604,4|0,0:3|0:0,0:0:0:0:
400,260,48149,2,0,L|353:263,1,33.7500012874604
363,264,48240,2,0,L|318:267,1,33.7500012874604
325,268,48331,2,0,L|270:272,1,33.7500012874604
255,208,48422,6,0,L|213:203,1,33.7500012874604,4|0,0:3|0:0,0:0:0:0:
218,204,48513,2,0,L|171:200,1,33.7500012874604
181,200,48604,2,0,L|136:196,1,33.7500012874604
143,196,48695,2,0,L|88:191,1,33.7500012874604
84,256,48785,6,0,L|68:304,6,33.7500012874604,0|0|0|0|0|0|0,0:3|0:0|0:0|0:0|0:0|0:0|0:0,0:0:0:0:
124,128,49149,2,0,L|136:80,6,33.7500012874604,4|0|0|0|0|0|0,0:3|0:0|0:0|0:0|0:0|0:0|0:0,0:0:0:0:
180,192,49513,6,0,B|159:260,1,67.5000025749208
32,196,49694,2,0,B|58:114,1,67.5000025749208
124,128,49876,2,0,L|204:112,1,67.5000025749208
84,256,50058,2,0,L|16:268,1,67.5000025749208
172,216,50240,5,0,0:0:0:0:
200,224,50331,1,0,0:0:0:0:
228,232,50422,1,0,0:0:0:0:
276,176,50513,5,0,0:3:0:0:
304,172,50603,1,0,0:0:0:0:
332,168,50694,1,0,0:0:0:0:
380,224,50785,5,0,0:0:0:0:
404,236,50876,1,0,0:3:0:0:
428,248,50967,1,4,0:0:0:0:
448,260,52422,5,2,0:0:0:0:
320,200,52967,1,2,0:0:0:0:
212,272,53513,1,0,0:0:0:0:
316,72,53876,1,2,0:0:0:0:
400,112,54240,1,2,0:0:0:0:
400,112,54421,1,0,0:0:0:0:
384,200,55331,1,0,0:0:0:0:
40,96,56422,5,0,0:0:0:0:
108,140,56603,1,0,0:0:0:0:
64,208,56785,1,2,0:0:0:0:
128,244,58240,5,2,0:0:0:0:
292,176,58785,1,0,0:0:0:0:
476,244,59331,1,2,0:0:0:0:
432,148,59694,1,2,0:0:0:0:
412,152,61149,6,0,L|276:172,1,135,2|0,0:0|0:0,0:0:0:0:
272,182,61876,2,0,L|260:210,12,22.5,2|0|0|0|0|0|0|0|0|0|0|0|0,0:0|0:0|0:0|0:0|0:0|0:0|0:0|0:0|0:0|0:0|0:0|0:0|0:0,0:0:0:0:
312,56,62603,5,4,0:0:0:0:
96,80,62967,1,8,0:0:0:0:
176,108,63149,1,0,0:0:0:0:
176,108,63240,1,0,0:0:0:0:
176,108,63331,1,0,0:0:0:0:
144,192,63513,1,8,0:0:0:0:
64,160,63694,1,0,0:0:0:0:
424,132,64058,5,0,0:0:0:0:
488,264,64331,1,0,0:0:0:0:
488,264,64422,1,8,0:0:0:0:
408,216,64603,1,0,0:0:0:0:
360,292,64785,1,0,0:0:0:0:
360,292,64876,1,0,0:0:0:0:
360,292,64967,1,8,0:0:0:0:
440,344,65149,1,0,0:0:0:0:
408,216,65331,1,0,0:0:0:0:
232,96,65513,6,0,L|224:168,1,67.5000025749208
224,163,65785,1,0,0:0:0:0:
224,163,65876,1,8,0:0:0:0:
308,215,66059,1,0,0:0:0:0:
309,223,66150,1,0,0:0:0:0:
311,232,66241,1,0,0:0:0:0:
208,272,66423,1,8,0:0:0:0:
300,332,66603,2,0,L|336:352,2,33.7500012874604
96,320,66967,6,0,L|84:244,1,67.5000025749208
85,253,67240,1,0,0:0:0:0:
85,253,67331,1,8,0:0:0:0:
208,272,67513,1,0,0:0:0:0:
68,180,67695,1,0,0:0:0:0:
64,160,67785,1,8,0:0:0:0:
232,204,67967,1,8,0:0:0:0:
240,184,68058,1,0,0:0:0:0:
48,88,68240,1,0,0:2:0:0:
144,296,68422,5,4,0:2:0:0:
233,312,68603,1,0,0:0:0:0:
321,328,68785,1,0,0:0:0:0:
409,342,68967,1,0,0:0:0:0:
316,156,69149,6,0,L|332:200,1,45,0|0,0:0|2:0,0:0:0:0:
416,244,69331,2,0,L|468:224,1,45,0|0,0:0|2:0,0:0:0:0:
504,144,69513,2,0,L|488:96,1,45,0|0,0:0|2:0,0:0:0:0:
400,52,69694,2,0,L|348:68,1,45,0|0,0:0|2:0,0:0:0:0:
312,172,69876,5,4,0:2:0:0:
228,180,70057,1,0,0:0:0:0:
139,187,70239,1,0,0:0:0:0:
54,194,70421,1,0,0:0:0:0:
152,44,70603,6,0,L|148:96,1,45,0|0,0:0|2:0,0:0:0:0:
196,260,70785,2,0,L|204:172,1,45,0|0,0:0|2:0,0:0:0:0:
272,88,70967,2,0,L|268:140,1,45,0|0,0:0|2:0,0:0:0:0:
328,240,71149,2,0,L|336:176,1,45,0|0,0:0|2:0,0:0:0:0:
400,52,71331,6,0,B|448:44|448:44|496:72,1,90,4|0,0:2|0:0,0:0:0:0:
432,140,71603,1,0,0:0:0:0:
433,127,71694,2,0,L|421:211,1,67.5000025749208,0|2,0:0|0:0,0:0:0:0:
324,355,72059,2,0,L|304:243,1,90,4|0,0:2|0:0,0:0:0:0:
244,208,72331,1,0,0:0:0:0:
230,204,72422,2,0,B|192:192|192:192|114:224,1,112.5,4|2,0:2|0:0,0:0:0:0:
28,28,72785,5,4,0:2:0:0:
64,244,73058,1,2,0:0:0:0:
240,116,73331,1,2,0:0:0:0:
142,21,73513,6,0,B|130:61|130:61|172:158,1,135,0|0,0:0|2:0,0:0:0:0:
200,220,74240,5,4,0:0:0:0:
316,164,74422,1,4,0:3:0:0:
336,172,74513,1,0,0:0:0:0:
436,140,74694,1,4,0:3:0:0:
416,132,74785,1,0,0:0:0:0:
320,24,74967,1,4,0:3:0:0:
344,32,75058,1,0,0:0:0:0:
436,140,75240,1,4,0:3:0:0:
436,140,75331,2,0,L|452:196,1,45
452,340,75513,2,0,L|436:284,1,45
385,252,75694,5,4,0:3:0:0:
359,233,75785,1,4,0:3:0:0:
327,228,75876,1,4,0:3:0:0:
297,240,75967,1,4,0:3:0:0:
244,300,76058,5,8,0:3:0:0:
231,329,76149,1,8,0:3:0:0:
204,346,76240,1,8,0:3:0:0:
172,349,76331,1,8,0:3:0:0:
98,333,76422,5,4,0:3:0:0:
79,308,76513,1,4,0:3:0:0:
74,277,76603,1,4,0:3:0:0:
83,247,76694,1,4,0:3:0:0:
105,224,76785,6,0,L|130:197,7,22.5,2|0|2|0|2|0|0|2,0:0|0:0|0:0|0:0|0:0|0:0|0:0|0:0,0:0:0:0:
158,274,77149,5,0,0:0:0:0:
61,163,77331,1,4,0:3:0:0:
41,153,77422,1,0,0:0:0:0:
160,132,77603,1,4,0:3:0:0:
180,141,77694,1,0,0:0:0:0:
76,27,77876,1,4,0:3:0:0:
56,18,77967,1,0,0:0:0:0:
160,132,78149,1,4,0:3:0:0:
160,132,78240,2,0,L|172:200,1,45
100,324,78422,2,0,L|84:260,1,45
60,172,78603,5,4,0:3:0:0:
184,240,78785,1,0,0:0:0:0:
184,246,78846,1,0,0:0:0:0:
184,251,78906,1,0,0:0:0:0:
184,257,78967,1,2,0:0:0:0:
256,128,79149,1,0,0:0:0:0:
256,122,79210,1,0,0:0:0:0:
256,117,79270,1,0,0:0:0:0:
256,111,79331,1,2,0:0:0:0:
376,192,79512,1,0,0:0:0:0:
376,198,79573,1,0,0:0:0:0:
376,203,79633,1,0,0:0:0:0:
376,209,79694,2,0,L|376:260,3,33.7500012874604,2|2|2|2,0:0|0:3|0:3|0:3,0:3:0:0:
438,289,80058,5,0,0:0:0:0:
481,159,80240,2,0,L|465:215,1,45,4|0,0:3|0:0,0:0:0:0:
408,60,80513,2,0,L|450:75,1,45,4|0,0:3|0:0,0:0:0:0:
308,132,80785,2,0,L|324:89,1,45,4|0,0:3|0:0,0:0:0:0:
384,228,81058,1,4,0:3:0:0:
384,228,81149,1,0,0:0:0:0:
384,228,81240,2,0,L|368:272,2,45
284,236,81513,6,2,P|216:240|176:308,1,135.000005149842,2|0,0:0|0:0,0:0:0:0:
220,368,81785,2,2,P|288:364|328:296,1,135.000005149842,2|0,0:0|0:0,0:0:0:0:
280,228,82058,6,2,P|212:232|172:300,1,135.000005149842,2|0,0:0|0:0,0:0:0:0:
224,376,82331,2,2,P|292:372|332:304,1,135.000005149842,2|0,0:0|0:0,0:0:0:0:
308,156,82603,5,4,0:3:0:0:
252,300,82785,1,4,0:0:0:0:
44,144,82967,5,0,0:0:0:0:
180,88,83149,1,0,0:0:0:0:
196,80,83240,2,0,B|212:112|212:112|192:172,1,90,0|0,0:0|0:0,0:0:0:0:
172,228,83513,1,0,0:0:0:0:
196,80,83694,5,0,0:0:0:0:
96,212,83876,1,0,0:0:0:0:
80,204,83967,2,0,B|64:236|64:236|84:296,1,90
104,356,84240,1,0,0:0:0:0:
288,316,84422,1,0,0:0:0:0:
288,316,84513,2,0,B|384:332,1,90
444,344,84785,1,0,0:0:0:0:
220,344,84967,1,0,0:0:0:0:
220,48,85149,6,0,L|232:104,1,45
256,192,85422,1,0,0:0:0:0:
288,316,85694,1,0,0:0:0:0:
256,192,85785,12,0,86876,0:0:0:0:
256,192,86967,5,8,0:0:0:0:
64,36,87331,5,4,0:2:0:0:
60,180,87513,1,0,0:0:0:0:
72,156,87603,2,0,B|96:116|96:116|148:108,1,90,2|0,0:2|0:0,0:0:0:0:
136,176,87876,1,2,0:2:0:0:
212,100,88058,1,0,0:0:0:0:
200,76,88149,1,2,0:2:0:0:
44,156,88331,1,0,0:0:0:0:
32,180,88422,1,8,0:0:0:0:
40,204,88513,5,0,0:0:0:0:
48,228,88603,1,0,0:0:0:0:
72,236,88694,1,0,0:0:0:0:
100,244,88785,1,2,0:2:0:0:
196,360,88967,1,0,0:0:0:0:
176,340,89058,2,0,B|152:304|152:304|176:240,1,90,2|0,0:2|0:0,0:0:0:0:
152,192,89331,1,2,0:2:0:0:
256,268,89512,1,0,0:0:0:0:
264,292,89603,1,2,0:2:0:0:
324,144,89785,1,0,0:0:0:0:
348,132,89876,1,8,0:0:0:0:
372,144,89967,5,0,0:0:0:0:
396,156,90057,1,0,0:0:0:0:
420,168,90148,1,0,0:0:0:0:
444,160,90239,1,2,0:2:0:0:
448,288,90422,2,0,L|432:344,1,45,0|2,0:0|0:2,0:0:0:0:
364,276,90603,1,0,0:0:0:0:
356,252,90694,2,0,L|340:196,1,45,0|2,0:0|0:2,0:0:0:0:
492,100,90967,1,0,0:0:0:0:
492,100,91058,2,0,B|460:72|460:72|392:72,1,90,2|0,0:2|0:0,0:0:0:0:
324,136,91331,2,0,L|344:204,1,45,8|0,0:0|0:0,0:0:0:0:
304,248,91513,2,0,L|316:296,1,45
288,360,91694,5,2,0:2:0:0:
124,272,91876,1,0,0:0:0:0:
148,260,91967,1,2,0:2:0:0:
172,248,92058,1,8,0:0:0:0:
200,256,92149,1,0,0:0:0:0:
224,268,92240,1,2,0:2:0:0:
128,348,92422,1,0,0:0:0:0:
128,348,92513,1,8,0:0:0:0:
28,260,92694,2,0,B|40:232|40:232|20:160,1,90,8|0,0:0|0:0,0:0:0:0:
72,120,92967,5,0,0:3:0:0:
112,128,93058,1,0,0:3:0:0:
152,136,93149,1,4,0:2:0:0:
224,28,93331,2,0,L|172:40,1,45,0|2,0:0|0:2,0:0:0:0:
284,80,93513,1,0,0:0:0:0:
284,80,93603,2,0,L|332:68,1,45,0|2,0:0|0:2,0:0:0:0:
296,208,93876,2,0,L|308:260,1,45,0|2,0:0|0:2,0:0:0:0:
184,360,94149,1,0,0:0:0:0:
184,360,94240,2,0,L|200:296,1,45,8|0,0:0|0:0,0:0:0:0:
132,288,94422,2,0,L|148:224,1,45,0|0,0:0|0:0,0:0:0:0:
60,168,94603,6,0,P|96:140|160:144,1,90,2|0,0:2|0:0,0:0:0:0:
152,112,94876,2,0,L|254:131,1,90,2|0,0:2|0:0,0:0:0:0:
304,108,95149,1,2,0:2:0:0:
220,276,95331,1,0,0:0:0:0:
220,276,95422,1,2,0:2:0:0:
220,276,95513,1,0,0:0:0:0:
440,336,95694,6,0,L|428:292,1,45,8|0,0:0|0:0,0:0:0:0:
452,224,95876,2,0,L|436:168,1,45,2|0,0:2|0:2,0:0:0:0:
420,108,96058,1,2,0:2:0:0:
280,36,96240,2,0,L|273:91,1,45,0|2,0:0|0:2,0:0:0:0:
308,140,96422,2,0,P|269:149|212:112,1,90,8|2,0:0|0:2,0:0:0:0:
112,40,96785,1,0,0:0:0:0:
100,64,96876,1,2,0:2:0:0:
140,184,97058,1,0,0:0:0:0:
156,204,97149,6,0,L|164:252,1,45,8|0,0:0|0:0,0:0:0:0:
104,344,97331,2,0,L|88:284,1,45
24,224,97513,5,4,0:0:0:0:
404,328,97785,1,4,0:0:0:0:
140,100,98058,1,4,0:0:0:0:
324,24,98240,5,8,0:0:0:0:
324,24,98331,1,0,0:0:0:0:
264,116,98513,1,8,0:0:0:0:
296,288,98785,1,4,0:2:0:0:
432,184,98967,5,4,0:2:0:0:
285,200,99149,1,0,0:0:0:0:
312,196,99240,1,2,0:2:0:0:
340,192,99331,1,8,0:0:0:0:
356,212,99422,1,0,0:0:0:0:
372,232,99513,1,2,0:2:0:0:
456,360,99694,1,0,0:0:0:0:
440,340,99785,2,0,B|424:312|424:312|440:236,1,90,2|0,0:2|0:0,0:0:0:0:
448,104,100058,2,0,L|488:136,1,45,8|0,0:0|0:0,0:0:0:0:
372,136,100240,2,0,L|328:104,1,45,2|0,0:2|0:2,0:0:0:0:
236,32,100422,6,0,B|196:48|196:48|144:32,1,90,2|0,0:2|0:0,0:0:0:0:
148,108,100694,1,2,0:2:0:0:
124,100,100785,2,0,B|84:88|84:88|28:120,1,90,8|2,0:0|0:2,0:0:0:0:
216,188,101149,1,0,0:0:0:0:
224,212,101240,1,2,0:2:0:0:
232,236,101331,1,0,0:0:0:0:
70,352,101513,6,0,L|50:288,1,45,8|0,0:0|0:0,0:0:0:0:
138,280,101694,2,0,L|154:224,1,45,2|0,0:2|0:0,0:0:0:0:
216,188,101876,1,2,0:2:0:0:
35,163,102058,1,0,0:0:0:0:
56,144,102149,1,2,0:2:0:0:
77,125,102240,1,8,0:0:0:0:
105,126,102331,1,0,0:0:0:0:
132,128,102422,1,2,0:2:0:0:
128,272,102603,1,0,0:0:0:0:
116,300,102694,1,2,0:2:0:0:
232,234,102876,1,0,0:0:0:0:
244,206,102967,2,0,L|296:194,1,45,8|0,0:0|0:0,0:0:0:0:
392,260,103149,2,0,L|332:272,1,45
236,348,103331,5,2,0:2:0:0:
231,337,103422,1,0,0:0:0:0:
230,325,103513,1,0,0:0:0:0:
234,313,103603,1,2,0:2:0:0:
256,278,103694,5,8,0:0:0:0:
293,263,103785,1,0,0:0:0:0:
333,265,103876,1,2,0:2:0:0:
368,288,103967,1,0,0:0:0:0:
400,308,104058,2,0,L|459:319,1,45,0|8,0:0|0:0,0:0:0:0:
512,212,104240,1,0,0:0:0:0:
484,192,104331,2,0,L|428:203,1,45,8|0,0:0|0:0,0:0:0:0:
372,212,104513,1,0,0:0:0:0:
372,212,104603,1,4,0:2:0:0:
388,64,104785,6,0,B|344:52|344:52|292:76,1,90,4|0,0:2|0:0,0:0:0:0:
293,108,105058,2,0,L|309:200,1,90,2|0,0:2|0:0,0:0:0:0:
321,264,105331,1,2,0:2:0:0:
40,352,105513,2,0,L|56:300,1,45,0|2,0:0|0:2,0:0:0:0:
100,156,105694,1,0,0:0:0:0:
60,68,105876,5,0,0:0:0:0:
92,48,105967,1,2,0:2:0:0:
128,45,106058,1,0,0:0:0:0:
163,52,106149,1,2,0:2:0:0:
192,72,106240,2,0,L|306:90,1,90,4|0,0:2|0:0,0:0:0:0:
312,56,106513,2,0,B|358:49|358:49|400:64,1,90,2|0,0:2|0:0,0:0:0:0:
476,48,106785,1,2,0:2:0:0:
304,356,106967,2,0,L|292:304,1,45,0|2,0:0|0:2,0:0:0:0:
264,176,107149,1,0,0:2:0:0:
431,173,107331,5,6,0:2:0:0:
401,151,107422,1,0,0:0:0:0:
364,143,107513,1,0,0:0:0:0:
328,144,107603,1,2,0:2:0:0:
294,157,107694,1,4,0:2:0:0:
140,80,107876,2,0,L|197:66,1,45,0|2,0:0|0:2,0:0:0:0:
264,52,108058,1,0,0:0:0:0:
236,264,108240,1,2,0:2:0:0:
40,186,108422,5,0,0:0:0:0:
52,219,108513,1,2,0:2:0:0:
64,252,108603,1,0,0:0:0:0:
76,285,108694,1,0,0:0:0:0:
90,317,108785,2,0,L|84:349,6,22.5
156,332,109149,6,2,B|204:344|204:344|296:316,1,135.000005149842,4|0,0:2|0:0,0:0:0:0:
388,356,109422,2,2,B|396:280|396:280|360:224,1,135.000005149842,2|0,0:0|0:0,0:0:0:0:
396,140,109694,2,2,B|348:84,1,67.5000025749208,2|0,0:0|0:0,0:0:0:0:
268,56,109876,5,0,0:0:0:0:
260,80,109967,1,0,0:0:0:0:
252,104,110058,1,0,0:0:0:0:
244,128,110149,1,0,0:0:0:0:
284,196,110240,1,0,0:0:0:0:
292,220,110331,1,0,0:0:0:0:
300,244,110422,1,0,0:0:0:0:
308,268,110513,1,0,0:0:0:0:
368,328,110603,5,4,0:0:0:0:
