osu file format v14

[General]
AudioFilename: Slit.mp3
AudioLeadIn: 477
PreviewTime: 85886
Countdown: 0
SampleSet: Normal
StackLeniency: 0.4
Mode: 0
LetterboxInBreaks: 0
WidescreenStoryboard: 0

[Editor]
DistanceSpacing: 0.7
BeatDivisor: 4
GridSize: 4
TimelineZoom: 3.799999

[Metadata]
Title:Slit
TitleUnicode:Ø
Artist:EBICO & jioyi
ArtistUnicode:EBICO & jioyi
Creator:Megurine Luka
Version:Another
Source:Cytus
Tags:G S X Deye Axey judgment light Jycool __Ag
BeatmapID:675913
BeatmapSetID:301422

[Difficulty]
HPDrainRate:7
CircleSize:4
OverallDifficulty:7
ApproachRate:8.5
SliderMultiplier:2
SliderTickRate:1

[Events]
//Background and Video events
0,0,"slit.jpg",0,0
//Break Periods
//Storyboard Layer 0 (Background)
//Storyboard Layer 1 (Fail)
//Storyboard Layer 2 (Pass)
//Storyboard Layer 3 (Foreground)
//Storyboard Layer 4 (Overlay)
//Storyboard Sound Samples

[TimingPoints]
1523,363.636363636364,4,1,0,30,1,0
2977,-200,4,1,0,50,0,0
3613,-200,4,1,0,5,0,0
3704,-200,4,1,0,70,0,0
4432,-100,4,2,0,60,0,1
4613,-200,4,2,0,60,0,0
5886,-200,4,2,0,60,0,0
8795,-200,4,2,0,60,0,0
15523,-200,4,2,0,5,0,0
16068,-100,4,1,0,60,0,0
21886,-100,4,1,0,70,0,0
23250,-100,4,1,0,60,0,0
27704,-100,4,1,0,70,0,0
28613,-133.333333333333,4,1,0,50,0,0
29159,-100,4,1,0,50,0,0
29886,-76.9230769230769,4,1,0,50,0,0
30250,-100,4,1,0,50,0,0
30613,-100,4,1,0,50,0,0
31341,-76.9230769230769,4,1,0,50,0,0
31704,-133.333333333333,4,1,0,50,0,0
32068,-100,4,1,0,50,0,0
33159,-66.6666666666667,4,1,0,50,0,0
33523,-100,4,1,0,50,0,0
33886,-76.9230769230769,4,1,0,50,0,0
34250,-100,4,1,0,50,0,0
37159,-133.333333333333,4,1,0,50,0,0
37886,-100,4,1,0,50,0,0
39341,-133.333333333333,4,1,0,40,0,0
40068,-100,4,1,0,50,0,0
40795,-100,4,1,0,50,0,0
41341,-100,4,1,0,50,0,0
47341,-133.333333333333,4,1,0,50,0,0
48068,-100,4,1,0,50,0,0
48795,-76.9230769230769,4,1,0,50,0,0
49523,-76.9230769230769,4,1,0,70,0,0
50250,-100,4,1,0,70,0,0
50977,-100,4,1,0,40,0,0
52432,-100,4,2,0,30,0,0
61159,-100,4,2,0,40,0,0
61886,-100,4,2,0,50,0,0
62613,-100,4,1,1,50,0,0
68432,-166.666666666667,4,1,0,50,0,0
69159,-125,4,1,0,60,0,0
69886,-100,4,1,0,70,0,0
70613,-83.3333333333333,4,1,0,80,0,0
71523,-83.3333333333333,4,1,0,60,0,0
72795,-83.3333333333333,4,1,0,40,0,0
73523,-83.3333333333333,4,1,0,50,0,0
74250,-100,4,1,0,70,0,0
75704,-100,4,1,0,70,0,0
76795,-100,4,2,0,50,0,0
77159,-100,4,1,0,70,0,0
80068,-100,4,1,0,70,0,0
81523,-133.333333333333,4,1,0,70,0,0
81704,-133.333333333333,4,1,0,20,0,0
81795,-133.333333333333,4,1,0,70,0,0
81977,-133.333333333333,4,1,0,20,0,0
82068,-133.333333333333,4,1,0,70,0,0
82250,-133.333333333333,4,1,0,20,0,0
82341,-133.333333333333,4,1,0,70,0,0
82523,-133.333333333333,4,1,0,20,0,0
82613,-100,4,1,0,70,0,0
82977,-100,4,1,0,70,0,0
86886,-100,4,2,0,5,0,0
86977,-100,4,1,0,55,0,1
87341,-100,4,1,0,60,0,1
98886,-100,4,1,0,60,0,0
98977,-100,4,1,0,60,0,1
102977,-100,4,1,0,70,0,1
103068,-100,4,1,0,20,0,1
103341,-100,4,1,0,70,0,1
103613,-100,4,1,0,20,0,1
103886,-100,4,1,0,70,0,1
103977,-100,4,1,0,20,0,1
104250,-100,4,1,0,70,0,1
104341,-100,4,1,0,20,0,1
104432,-100,4,1,0,60,0,1
109159,-100,4,1,0,70,0,1
110523,-66.6666666666667,4,1,0,70,0,0
110613,-66.6666666666667,4,1,0,70,0,1
110704,-200,4,1,0,70,0,0

[Colours]
Combo1 : 251,0,0
Combo2 : 192,192,192
Combo3 : 128,128,255

[HitObjects]
319,259,1523,21,0,0:0:0:0:
381,113,1704,1,0,0:0:0:0:
464,288,1886,1,2,0:3:0:0:
350,186,2068,1,0,0:0:0:0:
331,169,2159,1,0,0:0:0:0:
312,152,2250,1,0,0:0:0:0:
293,134,2341,1,0,0:0:0:0:
274,116,2432,1,2,0:3:0:0:
236,240,2613,2,0,L|216:357,1,100,0|2,0:0|0:3,0:0:0:0:
19,229,2977,22,0,P|95:175|183:203,1,175
237,240,3704,21,0,0:0:0:0:
506,180,3977,1,0,0:0:0:0:
389,314,4250,1,0,0:0:0:0:
356,124,4432,21,4,1:2:0:0:
100,235,5886,1,2,0:0:0:0:
334,193,6432,1,2,0:0:0:0:
173,80,6977,1,2,0:0:0:0:
222,211,7341,1,2,0:0:0:0:
270,341,7704,1,2,0:0:0:0:
270,341,7886,1,2,0:0:0:0:
95,287,9886,5,2,0:0:0:0:
193,276,10068,1,2,0:0:0:0:
264,340,10250,1,2,0:0:0:0:
396,245,11704,1,2,0:0:0:0:
274,69,12250,1,2,0:0:0:0:
252,240,12795,2,0,L|233:351,1,100,2|2,0:0|0:0,0:0:0:0:
234,342,14613,1,2,0:0:0:0:
256,192,14704,12,0,15523,0:0:0:0:
296,157,16068,6,0,B|359:139|359:139|405:164,1,100,2|0,0:0|0:0,0:0:0:0:
351,222,16341,2,0,B|369:285|369:285|344:331,1,100,2|0,0:0|0:0,0:0:0:0:
276,276,16613,2,0,B|213:294|213:294|167:269,1,100,2|0,0:0|0:0,0:0:0:0:
224,209,16886,2,0,B|206:146|206:146|231:100,1,100,2|0,0:0|0:0,0:0:0:0:
288,67,17159,1,0,0:0:0:0:
288,67,17250,1,2,0:0:0:0:
426,193,17432,5,0,0:0:0:0:
426,193,17523,2,0,P|422:257|390:298,1,100,2|0,0:0|0:0,0:0:0:0:
312,350,17795,2,0,P|262:357|212:335,1,100,2|0,0:0|0:0,0:0:0:0:
153,254,18068,2,0,P|143:199|161:155,1,100,2|0,0:0|0:0,0:0:0:0:
208,90,18341,1,2,0:0:0:0:
465,178,18613,2,0,L|530:157,1,50,0|2,0:0|0:0,0:0:0:0:
347,207,18886,5,0,0:0:0:0:
347,207,18977,2,0,L|239:235,1,100,2|0,0:0|0:0,0:0:0:0:
345,290,19250,2,0,L|423:369,1,100,2|0,0:0|0:0,0:0:0:0:
420,253,19523,2,0,L|449:145,1,100,2|0,0:0|0:0,0:0:0:0:
353,195,19795,1,2,0:0:0:0:
215,121,20068,2,0,L|234:54,1,50,0|2,0:0|0:0,0:0:0:0:
154,217,20341,1,0,0:0:0:0:
154,217,20432,2,0,B|64:192|0:272|0:272,2,150,2|2|2,0:0|0:0|0:0,0:0:0:0:
341,202,21159,5,0,0:0:0:0:
341,202,21250,1,2,0:0:0:0:
214,343,21432,1,2,0:0:0:0:
50,125,21704,1,2,0:0:0:0:
194,219,21886,5,0,0:0:0:0:
120,174,22068,1,0,0:0:0:0:
258,155,22250,1,8,0:0:0:0:
323,93,22432,1,0,0:0:0:0:
345,310,22613,1,0,0:0:0:0:
266,265,22795,1,0,0:0:0:0:
414,258,22977,1,8,0:0:0:0:
485,202,23159,1,0,0:0:0:0:
485,202,23250,1,0,0:0:0:0:
485,203,23341,5,0,0:0:0:0:
460,65,23523,1,0,0:0:0:0:
358,191,23704,1,8,0:0:0:0:
321,326,23886,1,0,0:0:0:0:
233,201,24068,1,0,0:0:0:0:
190,67,24250,1,0,0:0:0:0:
116,204,24432,1,8,0:0:0:0:
78,339,24614,1,0,0:0:0:0:
219,301,24795,5,0,0:0:0:0:
248,308,24886,1,0,0:0:0:0:
276,314,24977,1,0,0:0:0:0:
305,320,25068,1,0,0:0:0:0:
334,326,25159,1,8,0:0:0:0:
363,332,25250,1,0,0:0:0:0:
392,338,25341,1,0,0:0:0:0:
421,346,25432,1,0,0:0:0:0:
451,351,25523,5,0,0:0:0:0:
427,307,25613,1,0,0:0:0:0:
403,262,25704,1,0,0:0:0:0:
379,217,25795,1,0,0:0:0:0:
354,172,25886,2,0,L|336:136,8,25,8|0|0|0|0|0|0|0|0,0:0|0:0|0:0|0:0|0:0|0:0|0:0|0:0|0:0,0:0:0:0:
256,192,26341,12,0,27704,0:0:0:0:
81,223,27977,5,0,0:0:0:0:
81,223,28068,2,0,L|151:213,1,50
157,132,28250,2,0,L|227:122,1,50
256,44,28432,1,0,0:0:0:0:
452,72,28613,6,0,L|429:151,1,75.0000028610231,2|0,0:0|0:0,0:0:0:0:
344,116,28886,2,0,L|320:215,1,75.0000028610231,2|0,0:0|0:0,0:0:0:0:
396,256,29159,1,0,0:0:0:0:
228,328,29341,6,0,L|172:348,1,50
72,304,29523,1,0,0:0:0:0:
79,290,29613,1,0,0:0:0:0:
89,277,29704,1,0,0:0:0:0:
96,265,29795,1,0,0:0:0:0:
104,254,29886,6,2,L|228:208,2,129.999994049073
108,64,30432,1,0,0:0:0:0:
108,64,30523,1,0,0:0:0:0:
108,64,30613,5,0,0:0:0:0:
228,116,30886,2,0,B|196:164|230:213,1,100
404,284,31250,1,0,0:0:0:0:
415,297,31341,6,0,B|432:316|432:316|464:324|464:324|484:336,2,64.9999970245363
311,331,31704,6,0,L|340:218,1,112.500004291535
364,131,32068,6,0,L|381:64,2,66.6666666666667
268,154,32432,1,0,0:0:0:0:
435,208,32704,1,0,0:0:0:0:
435,208,32795,2,0,L|464:228,4,25
332,208,33159,1,0,0:0:0:0:
452,88,33341,1,0,0:0:0:0:
284,48,33523,1,4,0:3:0:0:
456,66,33795,1,0,0:0:0:0:
452,88,33886,6,0,L|466:171,1,64.9999970245363
388,212,34068,2,0,L|312:200,1,64.9999970245363
276,288,34250,6,0,L|315:354,2,66.6666666666667,2|0|0,0:2|0:0|0:0,0:0:0:0:
256,144,34613,2,0,L|276:76,2,66.6666666666667,2|0|0,0:2|0:0|0:0,0:0:0:0:
152,236,34977,2,0,L|68:260,2,66.6666666666667,2|0|0,0:2|0:0|0:0,0:0:0:0:
276,288,35341,2,0,L|315:354,2,66.6666666666667,2|0|0,0:2|0:0|0:0,0:0:0:0:
198,304,35704,5,2,1:2:0:0:
200,264,35795,1,0,0:0:0:0:
192,224,35886,1,2,1:2:0:0:
174,188,35977,1,0,0:0:0:0:
151,155,36068,2,0,L|120:124,3,33.3333333333333,0|2|0|2,0:0|0:2|0:0|0:2,0:0:0:0:
328,164,36432,5,0,0:0:0:0:
188,24,36613,1,2,0:0:0:0:
248,120,36795,5,0,0:0:0:0:
276,88,36886,1,0,0:0:0:0:
316,76,36977,1,0,0:0:0:0:
356,76,37068,1,0,0:0:0:0:
388,88,37159,2,0,L|476:68,1,75.0000028610231
472,176,37432,2,0,L|448:248,1,75.0000028610231
344,272,37704,1,0,0:0:0:0:
192,344,37886,5,0,0:0:0:0:
152,336,37977,1,0,0:0:0:0:
112,328,38068,1,0,0:0:0:0:
72,320,38159,1,0,0:0:0:0:
180,208,38432,5,0,0:0:0:0:
220,202,38523,1,0,0:0:0:0:
264,198,38613,2,0,L|287:227,4,25
136,92,38977,2,0,L|160:60,6,25
176,48,39341,1,2,0:2:0:0:
176,48,39523,6,2,B|256:40|304:76|320:144,1,187.500007152558,2|0,0:0|0:0,0:0:0:0:
276,232,40068,6,0,L|199:261,2,66.6666666666667
360,264,40432,2,0,L|388:335,2,66.6666666666667
464,136,40795,6,0,P|376:92|304:152,1,200
280,216,41250,1,0,0:0:0:0:
280,216,41341,1,0,0:0:0:0:
48,240,41523,2,0,P|120:252|176:188,2,150
239,44,42250,5,0,0:0:0:0:
241,58,42341,1,0,0:0:0:0:
244,72,42432,1,0,0:0:0:0:
247,86,42523,1,0,0:0:0:0:
250,100,42613,2,0,L|230:160,3,50
336,108,42977,6,0,L|394:115,1,50
441,207,43159,2,0,L|391:199,1,50
245,247,43341,2,0,L|308:240,1,50
208,344,43523,2,0,L|155:354,1,50
91,238,43704,6,0,L|41:328,2,66.6666666666667,0|0|0,0:0|0:0|0:0,0:0:0:0:
68,147,44068,2,0,L|35:72,2,66.6666666666667
145,316,44432,2,0,P|204:347|296:306,1,150
292,244,44795,2,0,L|277:175,1,50
347,125,44977,2,0,L|364:201,1,50
387,315,45159,1,4,0:0:0:0:
178,212,45523,5,2,0:0:0:0:
315,278,45704,1,0,0:0:0:0:
349,295,45795,1,0,0:0:0:0:
384,310,45886,1,0,0:0:0:0:
175,204,46250,5,2,0:0:0:0:
308,275,46613,1,0,0:0:0:0:
172,198,46977,5,2,0:0:0:0:
259,306,47158,1,0,0:0:0:0:
418,283,47341,2,0,P|460:272|476:224,1,75.0000028610231
440,144,47613,2,0,P|403:158|387:202,1,75.0000028610231
418,283,47886,1,0,0:0:0:0:
315,98,48068,5,0,0:0:0:0:
284,80,48159,1,0,0:0:0:0:
253,62,48250,1,0,0:0:0:0:
222,44,48341,1,0,0:0:0:0:
197,95,48432,5,0,0:0:0:0:
162,105,48523,1,0,0:0:0:0:
130,115,48613,1,0,0:0:0:0:
97,125,48704,1,0,0:0:0:0:
93,183,48795,6,0,P|68:209|71:243,3,64.9999970245363,2|0|2|0,0:2|0:0|0:2|0:0,0:0:0:0:
141,275,49159,2,0,P|168:245|165:218,3,64.9999970245363,2|0|2|0,0:2|0:0|0:2|0:0,0:0:0:0:
244,248,49523,6,0,L|308:286,1,64.9999970245363
360,356,49704,2,0,L|394:299,1,64.9999970245363
470,231,49886,2,0,L|405:196,1,64.9999970245363
316,184,50068,2,0,L|346:126,1,64.9999970245363
406,65,50250,5,0,0:0:0:0:
438,77,50340,1,0,0:0:0:0:
464,99,50431,1,0,0:0:0:0:
479,130,50522,1,0,0:0:0:0:
481,164,50613,1,0,0:0:0:0:
467,196,50704,1,0,0:0:0:0:
434,209,50795,1,0,0:0:0:0:
400,220,50886,1,0,0:0:0:0:
367,232,50977,5,6,1:2:0:0:
289,123,52432,5,2,0:0:0:0:
453,276,52977,1,2,0:0:0:0:
234,329,53523,1,2,0:0:0:0:
119,231,53886,1,2,0:0:0:0:
259,178,54250,1,2,0:0:0:0:
259,178,54432,1,2,0:0:0:0:
292,206,55341,1,0,0:0:0:0:
329,234,56068,1,0,0:0:0:0:
368,261,56432,5,2,0:0:0:0:
262,179,56613,1,2,0:0:0:0:
245,317,56795,1,2,0:0:0:0:
30,209,58250,5,2,0:0:0:0:
272,138,58795,1,2,0:0:0:0:
365,337,59341,1,2,0:0:0:0:
236,261,59704,1,2,0:0:0:0:
499,170,61159,5,2,0:0:0:0:
297,41,61886,1,2,0:0:0:0:
232,195,62613,6,0,L|250:309,1,100,4|0,0:0|0:0,0:0:0:0:
367,168,62977,1,8,0:0:0:0:
194,104,63159,1,0,0:0:0:0:
171,93,63250,1,0,0:0:0:0:
148,82,63341,1,0,0:0:0:0:
340,30,63523,1,8,0:0:0:0:
236,206,63704,1,0,0:0:0:0:
128,73,63886,1,8,0:0:0:0:
296,120,64068,6,0,L|413:79,1,100
146,181,64431,1,8,0:0:0:0:
325,231,64613,1,0,0:0:0:0:
349,236,64704,1,0,0:0:0:0:
373,241,64795,1,0,0:0:0:0:
217,133,64977,1,8,0:0:0:0:
339,44,65159,1,0,0:0:0:0:
176,158,65341,1,8,0:0:0:0:
255,347,65523,5,0,0:0:0:0:
148,279,65704,1,0,0:0:0:0:
148,279,65795,1,0,0:0:0:0:
148,279,65886,2,0,L|7:291,1,100,8|0,0:0|0:0,0:0:0:0:
131,102,66250,1,0,0:0:0:0:
225,220,66432,1,8,0:0:0:0:
253,10,66613,1,0,0:0:0:0:
253,10,66795,1,8,0:0:0:0:
332,131,66977,5,0,0:0:0:0:
412,257,67159,1,0,0:0:0:0:
412,257,67250,1,0,0:0:0:0:
412,257,67341,2,0,L|527:244,1,100,8|0,0:0|0:0,0:0:0:0:
454,83,67704,1,0,0:0:0:0:
332,264,67886,1,8,0:0:0:0:
174,151,68068,1,0,0:0:0:0:
174,151,68250,1,8,0:0:0:0:
173,317,68432,6,0,L|105:326,1,59.9999981689454,4|0,0:0|0:0,0:0:0:0:
43,252,68795,2,0,L|102:244,1,59.9999981689454,0|0,0:0|0:0,0:0:0:0:
268,224,69159,6,0,L|177:236,1,80
94,162,69523,2,0,L|173:151,1,80
312,75,69886,6,0,L|428:89,1,100,4|0,0:0|0:0,0:0:0:0:
496,192,70250,2,0,L|396:179,1,100,0|0,0:0|0:0,0:0:0:0:
200,150,70613,6,0,L|318:165,1,119.999996337891
432,272,70977,2,0,L|308:255,1,119.999996337891,4|0,0:0|0:0,0:0:0:0:
96,264,71341,6,0,L|72:200,1,59.9999981689454,4|0,0:0|0:0,0:0:0:0:
71,177,71523,1,0,0:0:0:0:
80,148,71613,1,0,0:0:0:0:
95,122,71704,1,0,0:0:0:0:
117,101,71795,1,0,0:0:0:0:
143,87,71886,1,0,0:0:0:0:
172,79,71977,1,0,0:0:0:0:
201,81,72068,2,0,L|270:93,3,59.9999981689454,4|0|0|0,0:0|0:0|0:0|0:0,0:0:0:0:
238,170,72432,2,0,L|307:182,3,59.9999981689454,4|0|0|0,0:0|0:0|0:0|0:0,0:0:0:0:
287,264,72795,6,0,L|332:273,6,29.9999990844727
345,248,73159,2,0,L|390:257,6,29.9999990844727
402,229,73523,2,0,L|447:238,6,29.9999990844727
458,209,73886,2,0,L|503:218,6,29.9999990844727
506,193,74250,5,0,0:0:0:0:
373,142,74432,1,0,0:0:0:0:
373,142,74523,2,0,L|251:181,1,100,0|0,0:0|0:0,0:0:0:0:
176,267,74795,2,0,L|203:141,1,100,0|0,0:0|0:0,0:0:0:0:
169,40,75068,2,0,L|263:126,1,100,0|0,0:0|0:0,0:0:0:0:
272,134,75341,1,0,0:0:0:0:
302,160,75432,1,0,0:0:0:0:
332,186,75523,1,0,0:0:0:0:
362,211,75613,1,0,0:0:0:0:
392,237,75704,5,4,0:2:0:0:
256,192,75795,12,2,76795,0:0:0:0:
189,152,77159,5,0,0:0:0:0:
255,295,77341,1,0,0:0:0:0:
255,295,77432,2,0,L|282:169,1,100
245,61,77704,2,0,L|339:147,1,100
445,169,77977,2,0,L|323:208,1,100
306,211,78250,1,0,0:0:0:0:
267,222,78341,1,0,0:0:0:0:
228,233,78432,1,0,0:0:0:0:
189,244,78523,1,0,0:0:0:0:
151,255,78613,5,4,0:3:0:0:
13,294,78795,1,2,0:0:0:0:
46,137,78977,1,0,0:0:0:0:
151,257,79159,1,2,0:0:0:0:
169,97,79341,1,0,0:0:0:0:
267,223,79523,1,2,0:0:0:0:
285,64,79704,6,0,L|289:23,6,25
276,144,80068,5,0,0:0:0:0:
139,121,80250,1,0,0:0:0:0:
139,121,80341,2,0,L|233:207,1,100
347,229,80613,2,0,L|225:268,1,100
153,348,80886,2,0,L|180:222,1,100
187,207,81159,1,0,0:0:0:0:
197,168,81250,1,0,0:0:0:0:
206,128,81341,1,0,0:0:0:0:
216,89,81432,1,0,0:0:0:0:
226,51,81523,6,0,L|319:43,1,75.0000028610231
288,118,81795,2,0,L|381:110,1,75.0000028610231
341,184,82068,2,0,L|434:176,1,75.0000028610231
394,250,82341,2,0,L|487:242,1,75.0000028610231
454,317,82613,2,0,L|493:314,2,25,2|0|0,0:0|0:0|0:0,0:0:0:0:
376,354,82795,2,0,L|337:357,2,25,2|0|0,0:0|0:0|0:0,0:0:0:0:
312,285,82977,6,0,L|212:295,1,100
78,235,83250,2,0,L|252:217,1,150
263,146,83613,1,0,0:0:0:0:
263,146,83704,2,0,L|397:131,1,100
452,206,83977,2,0,L|352:217,1,100
254,146,84250,2,0,L|120:131,1,100
65,206,84523,2,0,L|164:217,1,100
224,288,84795,1,0,0:0:0:0:
328,220,84977,5,0,0:0:0:0:
328,220,85068,1,0,0:0:0:0:
328,220,85159,2,0,L|408:227,1,50
485,312,85432,2,0,L|449:188,1,100
409,148,85704,1,4,0:3:0:0:
256,192,85795,12,0,86886,0:0:0:0:
256,192,86977,5,8,0:0:0:0:
403,110,87341,5,2,0:0:0:0:
405,257,87523,1,0,0:0:0:0:
405,257,87613,2,0,B|395:337|395:337|356:312,1,100,2|0,0:0|0:0,0:0:0:0:
274,265,87886,2,0,B|209:216|209:216|250:195,1,100,2|0,0:0|0:0,0:0:0:0:
328,139,88159,2,0,B|402:107|402:107|400:153,1,100,2|0,0:0|0:0,0:0:0:0:
337,214,88432,1,0,0:0:0:0:
337,214,88523,1,2,0:0:0:0:
166,130,88704,5,0,0:0:0:0:
166,130,88795,2,0,P|100:157|84:195,1,100,2|0,0:0|0:0,0:0:0:0:
174,242,89068,2,0,P|235:279|272:275,1,100,2|0,0:0|0:0,0:0:0:0:
261,185,89341,2,0,P|277:134|255:83,1,100,2|0,0:0|0:0,0:0:0:0:
182,44,89613,1,2,0:0:0:0:
402,113,89886,2,0,L|461:127,1,50,0|2,0:0|0:0,0:0:0:0:
378,309,90159,1,0,0:0:0:0:
378,309,90250,6,0,L|251:331,1,100,2|0,0:0|0:0,0:0:0:0:
214,277,90523,2,0,L|87:299,1,100,2|0,0:0|0:0,0:0:0:0:
48,250,90795,1,2,0:0:0:0:
135,84,90977,1,0,0:0:0:0:
135,84,91068,1,2,0:0:0:0:
343,206,91250,1,0,0:0:0:0:
343,206,91341,2,0,L|397:238,1,50,0|2,0:0|0:0,0:0:0:0:
355,94,91613,1,0,0:0:0:0:
355,94,91704,6,0,L|232:145,1,100,2|0,0:0|0:0,0:0:0:0:
225,149,91977,1,2,0:0:0:0:
188,164,92068,1,4,0:0:0:0:
290,267,92250,1,2,0:0:0:0:
448,176,92432,1,0,0:0:0:0:
460,136,92523,1,2,0:0:0:0:
304,296,92704,1,0,0:0:0:0:
292,336,92795,1,2,0:0:0:0:
448,176,92977,2,0,L|392:184,1,50,6|0,0:0|0:0,0:0:0:0:
264,216,93159,5,2,0:0:0:0:
179,67,93341,1,0,0:0:0:0:
179,67,93432,2,0,P|129:71|101:131,1,100,2|0,0:0|0:0,0:0:0:0:
188,257,93704,2,0,P|238:253|266:193,1,100,2|0,0:0|0:0,0:0:0:0:
118,193,93977,2,0,L|26:248,1,100,2|0,0:0|0:0,0:0:0:0:
194,156,94250,1,2,0:0:0:0:
194,156,94341,1,0,0:0:0:0:
333,67,94523,5,0,0:0:0:0:
333,67,94614,2,0,P|383:71|411:131,1,100,2|0,0:0|0:0,0:0:0:0:
324,257,94886,2,0,P|274:253|246:193,1,100,2|0,0:0|0:0,0:0:0:0:
394,193,95159,2,0,L|486:248,1,100,2|0,0:0|0:0,0:0:0:0:
318,156,95432,1,2,0:0:0:0:
134,301,95704,5,0,0:0:0:0:
160,332,95795,1,2,0:0:0:0:
200,340,95886,1,0,0:0:0:0:
240,328,95977,1,0,0:0:0:0:
264,296,96068,2,0,L|219:189,1,100,2|0,0:0|0:0,0:0:0:0:
156,76,96341,2,0,L|84:176,1,100,2|0,0:0|0:0,0:0:0:0:
52,224,96613,1,2,0:0:0:0:
241,119,96795,1,0,0:0:0:0:
278,105,96886,1,2,0:0:0:0:
327,204,97068,5,0,0:0:0:0:
362,222,97159,1,0,0:0:0:0:
377,258,97250,1,0,0:0:0:0:
382,297,97341,1,0,0:0:0:0:
362,332,97432,1,0,0:0:0:0:
325,349,97523,2,0,P|280:326|216:334,1,100,6|0,0:0|0:0,0:0:0:0:
188,340,97795,2,0,L|136:216,1,100,6|0,0:0|0:0,0:0:0:0:
115,170,98068,1,6,0:0:0:0:
276,82,98250,5,0,0:0:0:0:
276,82,98341,2,0,L|405:66,1,100,4|2,0:0|0:0,0:0:0:0:
445,149,98613,2,0,L|460:204,1,50,4|0,0:0|0:0,0:0:0:0:
349,249,98795,2,0,L|351:316,1,50,6|0,0:0|0:0,0:0:0:0:
215,271,98977,6,0,L|76:295,1,100,2|0,0:0|0:0,0:0:0:0:
178,194,99250,2,0,L|154:55,1,100,2|0,0:0|0:0,0:0:0:0:
258,160,99523,2,0,L|397:136,1,100,2|0,0:0|0:0,0:0:0:0:
299,235,99795,2,0,L|323:374,1,100,2|0,0:0|0:0,0:0:0:0:
457,289,100068,2,0,L|377:271,1,50,2|2,0:0|0:0,0:0:0:0:
449,168,100250,2,0,L|514:159,1,50,0|2,0:0|0:0,0:0:0:0:
387,71,100432,6,0,P|344:49|272:73,1,100,2|0,0:0|0:0,0:0:0:0:
154,150,100704,2,0,L|269:140,1,100,2|0,0:0|0:0,0:0:0:0:
328,137,100977,1,2,0:0:0:0:
179,301,101159,1,0,0:0:0:0:
179,301,101250,1,2,0:0:0:0:
297,240,101432,1,0,0:0:0:0:
334,227,101523,1,0,0:0:0:0:
373,230,101613,1,2,0:0:0:0:
406,252,101704,1,0,0:0:0:0:
439,274,101795,1,2,0:0:0:0:
478,271,101886,6,0,L|504:148,1,100,2|0,0:0|0:0,0:0:0:0:
443,56,102159,2,0,L|422:153,1,100,2|0,0:0|0:0,0:0:0:0:
406,252,102432,1,2,0:0:0:0:
260,182,102613,1,0,0:0:0:0:
221,169,102704,1,2,0:0:0:0:
180,170,102795,1,0,0:0:0:0:
141,182,102886,1,2,0:0:0:0:
109,207,102977,2,0,L|119:285,1,50,6|0,1:2|2:0,0:0:0:0:
361,302,103341,5,0,0:0:0:0:
434,217,103523,2,0,L|512:211,1,50,6|0,0:2|2:0,0:0:0:0:
275,129,103886,2,0,L|210:135,1,50,6|0,0:2|2:0,0:0:0:0:
438,49,104250,2,0,L|492:43,1,50,6|0,0:2|2:0,0:0:0:0:
271,269,104613,5,0,0:0:0:0:
271,269,104704,1,0,0:0:0:0:
271,269,104795,1,4,0:2:0:0:
163,179,104977,1,0,0:0:0:0:
88,297,105159,1,8,0:0:0:0:
207,369,105341,1,0,0:0:0:0:
285,231,105523,1,0,0:0:0:0:
393,141,105705,1,0,0:0:0:0:
468,259,105887,1,8,0:0:0:0:
359,346,106068,1,0,0:0:0:0:
359,346,106159,1,0,0:0:0:0:
359,346,106250,5,4,0:2:0:0:
381,214,106432,1,0,0:0:0:0:
212,320,106613,1,8,0:0:0:0:
190,188,106795,1,0,0:0:0:0:
363,341,106977,1,0,0:0:0:0:
385,209,107159,1,0,0:0:0:0:
207,316,107340,1,8,0:0:0:0:
185,184,107522,1,0,0:0:0:0:
345,91,107704,6,0,B|405:82|405:82|452:104,1,100,4|0,0:2|0:0,0:0:0:0:
465,124,107977,1,0,0:0:0:0:
478,156,108068,2,0,L|448:274,1,100,8|0,0:0|0:0,0:0:0:0:
296,332,108432,2,0,L|227:325,1,50
113,290,108613,2,0,L|182:283,1,50
289,231,108795,2,0,L|220:224,1,50,8|0,0:0|0:0,0:0:0:0:
91,171,108977,2,0,L|160:164,1,50
243,99,109159,6,0,L|401:75,2,150,2|2|2,0:0|0:0|0:0,0:0:0:0:
61,159,109886,5,0,0:0:0:0:
41,187,109977,1,0,0:0:0:0:
32,220,110068,1,0,0:0:0:0:
39,254,110159,1,0,0:0:0:0:
61,280,110250,5,0,0:0:0:0:
107,255,110341,1,0,0:0:0:0:
160,248,110432,1,0,0:0:0:0:
213,259,110523,1,0,0:0:0:0:
256,290,110613,5,4,0:0:0:0:
