osu file format v9

[General]
AudioFilename: If Heaven Were To Fall (Nightcore Mix).mp3
AudioLeadIn: 0
PreviewTime: 52075
Countdown: 1
SampleSet: Normal
StackLeniency: 0.7
Mode: 0
LetterboxInBreaks: 1

[Editor]
Bookmarks: 184229
DistanceSpacing: 0.8
BeatDivisor: 2
GridSize: 8

[Metadata]
Title:If Heaven Were to Fall (Nightcore Mix)
Artist:E-Type
Creator:ztrot
Version:Alpha
Source:
Tags:Trance Remix Angels jericho2442

[Difficulty]
HPDrainRate:3
CircleSize:4
OverallDifficulty:3
ApproachRate:3
SliderMultiplier:1.3
SliderTickRate:2

[Events]
//Background and Video events
0,0,"E-Type.jpg"
//Break Periods
2,102550,112252
2,151297,161760
//Storyboard Layer 0 (Background)
//Storyboard Layer 1 (Fail)
//Storyboard Layer 2 (Pass)
//Storyboard Layer 3 (Foreground)
//Storyboard Sound Samples
//Background Colour Transformations
3,100,163,162,255

[TimingPoints]
284,380.831482069184,4,1,1,100,1,0
52081,-100,4,1,1,100,0,1
76454,-100,4,1,1,100,0,0
114537,-100,4,1,1,100,0,1
138910,-100,4,1,1,100,0,0
163283,-100,4,1,1,100,0,1
187657,-100,4,1,1,100,0,0
187841,-100,4,2,0,11,0,0

[Colours]
Combo1 : 255,193,100
Combo2 : 255,155,205
Combo3 : 218,182,182
Combo4 : 255,255,176

[HitObjects]
256,56,13993,2,0,B|120:56|48:192,1,260,4|0
24,290,15136,1,8
125,268,15517,2,0,B|397:268,1,260
488,288,16659,1,8
448,192,17040,2,0,B|176:192,2,260
448,88,18944,5,8
344,88,19325,1,0
240,88,19706,1,8
136,88,20087,1,4
64,280,20848,5,0
256,200,21610,1,0
448,280,22372,1,0
448,72,23133,5,0
256,144,23895,1,0
64,72,24657,1,0
64,176,25038,6,0,B|24:240|64:312,1,130,8|4
144,248,25799,2,0,B|176:312|136:384,1,130,8|0
256,200,26942,5,0
464,200,27703,2,0,B|392:208|368:280,1,130
256,104,28846,5,0
256,104,29227,1,0
256,104,29608,1,0
256,312,30369,6,0,B|128:312,1,130
72,224,31131,2,0,B|200:224,1,130
256,136,31893,2,0,B|112:136,1,130
400,288,33416,5,0
400,184,33797,1,0
400,80,34178,1,0
192,80,34939,5,0
192,184,35320,1,0
192,288,35701,1,0
376,192,36462,6,0,B|376:64,1,130
464,128,37224,2,0,B|464:256,1,130
376,320,37986,2,0,B|376:184,1,130
88,64,39509,5,0
88,168,39890,2,0,B|88:240|152:296,2,130,4|8|0
192,168,41032,2,0,B|328:168,3,130,8|0|8|0
152,56,42937,5,0
256,56,43317,1,8
360,56,43698,1,0
386,156,44079,2,0,B|258:156,1,130,8|0
256,368,45222,1,0
256,264,45602,6,0,B|128:264,1,130,8|4
128,160,46364,2,0,B|256:160,1,130,8|0
256,56,47126,2,0,B|392:56,1,130,8|0
384,160,47887,2,0,B|256:160,1,130,8|0
256,368,49030,5,0
256,368,49411,1,8
256,264,49792,1,0
256,264,50172,1,8
256,160,50553,1,4
256,32,52077,5,0
256,32,52457,1,8
256,32,52838,1,0
256,136,53219,1,8
256,240,53600,2,0,B|192:240|160:320,1,130,0|8
256,368,54362,2,0,B|320:368|352:288,1,130,0|8
368,168,55123,5,0
144,168,55885,1,0
256,344,56647,1,0
256,136,57408,1,0
256,32,57789,1,4
256,32,58170,1,4
56,80,58932,6,0,B|56:208,1,130,0|8
136,144,59693,2,0,B|136:72|216:48,1,130,0|8
240,152,60455,2,0,B|232:224|152:256,1,130,0|8
256,296,61217,2,0,B|320:320|376:272,1,130,0|8
424,176,61978,1,0
424,176,62359,1,0
424,176,62740,6,0,B|344:64|192:72,1,260
256,272,64263,1,4
256,168,64644,6,0,B|184:192|160:256,1,130,8|0
256,168,65406,2,0,B|328:192|352:256,1,130,8|0
160,248,66548,1,0
352,248,67310,1,4
256,64,68072,5,0
256,272,68833,1,4
152,88,69595,1,0
256,64,69976,1,4
360,88,70356,1,4
360,296,71118,6,0,B|296:256|240:304,1,130,0|8
264,200,71880,2,0,B|200:240|144:192,1,130,0|8
200,104,72641,2,0,B|136:64|80:112,1,130,0|8
48,208,73403,6,0,B|0:263|40:327,1,130,0|8
128,272,74165,1,0
128,272,74546,1,8
128,272,74926,2,4,B|400:272,1,260
320,72,76450,6,0,B|184:72,1,130,4|8
256,272,77592,1,8
96,136,78354,1,8
96,136,78735,1,0
96,136,79116,1,8
256,272,79877,6,0,B|256:352|184:368,2,130,8|0|8
376,96,81401,1,8
376,96,81781,1,0
376,96,82162,1,8
368,304,82924,5,8
144,304,83686,1,8
256,128,84447,1,8
256,128,84828,1,0
256,128,85209,1,8
56,192,85971,6,0,B|168:144|248:256|320:176,1,260,8|8
144,56,87494,1,8
144,56,87875,1,4
144,56,88256,1,4
144,56,88636,5,0
208,136,89017,1,0
256,232,89398,1,0
256,336,89779,1,0
344,288,90160,5,4
344,288,90541,1,8
256,104,91302,5,8
152,104,91683,1,0
48,104,92064,1,8
152,280,92826,5,8
256,280,93206,1,0
360,280,93587,1,8
256,104,94349,5,8
256,208,94730,1,0
256,312,95111,1,8
168,264,95491,1,0
104,64,96253,5,4
104,168,96634,1,8
256,32,97396,2,0,B|256:160,2,130,8|0|8
448,104,98919,6,0,B|448:240,1,130,8|0
368,168,99681,2,0,B|368:296,1,130,8|0
288,240,100442,2,0,B|288:112,1,130,8|0
208,176,101204,1,8
208,176,101585,1,0
104,176,101966,1,8
104,176,102346,1,4
256,48,114533,5,4
256,256,115295,1,0
256,256,115675,1,8
256,256,116056,2,0,B|120:256,1,130,0|8
128,152,116818,2,0,B|40:152|40:224,1,130,0|8
128,288,117580,2,0,B|256:288,1,130,0|8
192,208,118341,2,0,B|328:208,1,130,0|8
424,208,119103,1,0
256,88,119865,5,0
256,192,120245,1,4
256,192,120626,1,4
80,304,121388,5,0
80,200,121769,1,8
80,96,122150,1,0
256,208,122911,1,0
432,96,123673,1,0
432,200,124054,5,8
432,200,124435,1,0
432,200,124815,1,8
432,304,125196,2,0,B|312:360|176:320,1,260
256,128,126720,5,4
256,336,127481,1,0
256,232,127862,1,8
160,280,128243,6,0,B|96:312|88:384,2,130,0|8|0
352,280,129766,2,0,B|416:312|424:384,2,130,0|8|0
256,96,131290,5,0
256,304,132051,1,0
256,200,132432,1,4
256,200,132813,1,4
72,104,133575,5,0
176,104,133955,1,8
256,40,134336,1,0
336,104,134717,1,8
440,104,135098,1,0
256,192,135860,1,4
256,192,136240,5,0
256,192,136621,1,0
256,192,137002,1,0
256,88,137383,1,0
256,296,138144,1,0
72,192,138906,5,0
72,88,139287,1,8
160,144,139668,1,0
256,192,140049,1,8
352,144,140429,1,0
256,96,140810,1,8
344,40,141191,1,0
440,80,141572,1,8
352,264,142334,6,0,B|296:312|320:384,2,130,8|0|8
144,264,143857,2,0,B|200:312|176:384,2,130,8|0|8
256,80,145380,5,8
256,288,146142,1,8
144,112,146904,5,8
144,216,147284,1,0
144,320,147665,1,8
256,144,148427,5,8
256,248,148808,1,0
256,352,149189,1,8
256,192,149569,12,0,151093
256,352,163279,5,0
256,248,163660,1,8
256,144,164041,2,0,B|320:144|352:64,1,130,0|8
256,16,164803,2,0,B|192:16|161:92,1,130,0|8
160,224,165564,6,0,B|160:360,1,130,0|8
240,280,166326,2,0,B|240:144,1,130,0|8
320,216,167088,2,0,B|320:88,1,130,0|8
240,152,167849,1,0
136,152,168230,1,12
184,64,168611,1,4
376,112,169373,6,0,B|376:240,1,130,0|8
280,288,170134,2,0,B|280:360|200:384,1,130,0|8
184,280,170896,2,0,B|192:208|272:176,1,130,0|8
256,80,171658,2,0,B|192:56|136:104,1,130,0|12
88,200,172419,1,4
88,200,172800,1,0
88,200,173181,6,0,B|168:312|320:304,1,260
256,112,174704,1,4
256,216,175085,6,0,B|328:192|352:128,1,130,8|0
256,216,175847,2,0,B|184:192|160:128,2,130,8|0|8
256,112,176989,2,0,B|256:40|344:32,2,130,0|8|0
256,320,178513,5,4
256,112,179274,1,4
360,296,180036,1,0
256,320,180417,1,12
152,296,180798,1,4
152,88,181559,6,0,B|216:128|272:80,1,130,0|8
248,184,182321,2,0,B|312:144|368:192,1,130,0|8
312,280,183083,2,0,B|376:320|432:272,1,130,0|8
464,176,183844,6,0,B|511:120|471:56,1,130,0|8
384,112,184606,1,0
384,112,184987,1,0
384,112,185368,2,4,B|112:112,2,260
256,272,187653,1,0
256,192,188033,12,0,190699
