osu file format v5

[General]
AudioFilename: DoItAllNightERotic.mp3
AudioLeadIn: 0
PreviewTime: -1
Countdown: 1
SampleSet: Normal
StackLeniency: 0.7
Mode: 0
LetterboxInBreaks: 1
EditorBookmarks: 15576,143758

[Metadata]
Title:Do It All Night
Artist:E-Rotic
Creator:osu_CN_yaya
Version:Normal
Source:
Tags:

[Difficulty]
HPDrainRate:1
CircleSize:4
OverallDifficulty:5
SliderMultiplier:1.3
SliderTickRate:2

[Events]
//Background and Video events
0,0,"img200801280034540832.jpg"
//Break Periods
2,42625,44582
2,84164,96610
//Storyboard Layer 0 (Background)
//Storyboard Layer 1 (Failing)
//Storyboard Layer 2 (Passing)
//Storyboard Layer 3 (Foreground)
//Storyboard Sound Samples
//Background Colour Transformations
3,100,163,162,255

[TimingPoints]
2150,419.58041958042,4,1,0,69,1

[Colours]
Combo1 : 254,118,132
Combo2 : 255,0,128
Combo3 : 255,0,255
Combo4 : 251,79,79

[HitObjects]
136,96,15572,1,0
288,96,15992,1,0
216,232,16412,2,2,B|216:160,2,65
360,184,17251,5,0
360,336,17670,1,0
224,264,18090,2,2,B|304:264,2,65
376,248,18929,5,0
376,169,19139,2,0,B|288:169|288:169,1,65
152,160,19768,1,0
73,160,19978,2,0,B|73:88|73:88,1,65
224,56,20607,6,0,B|320:56,1,65
248,120,21027,2,0,B|160:120,1,65
224,184,21447,2,2,B|320:184,2,65
376,144,22286,5,0
424,200,22495,1,0
280,264,22915,2,0,B|232:184|232:184,1,65
184,256,23335,2,0,B|104:304,1,65
168,136,23964,5,0
216,192,24174,1,0
352,120,24593,2,0,B|304:48,1,65
392,56,25013,2,0,B|464:56|464:56,1,65
456,208,25642,5,8
416,272,25852,1,0
368,336,26062,1,0
344,184,26481,1,8
304,248,26691,1,0
264,312,26901,1,0
144,208,27321,5,0
204,158,27530,1,0
262,209,27740,1,0
205,263,27950,1,0
144,312,28160,1,0
144,312,28370,1,0
144,312,28579,1,0
48,176,28999,5,8
105,120,29209,1,0
182,124,29419,2,0,B|298:124,1,97.5,8|0
279,125,29838,1,8
280,203,30048,2,0,B|280:291|280:291,1,65,0|8
127,302,30677,5,8
205,304,30887,1,0
283,304,31097,2,0,B|411:304,1,97.5,8|0
380,304,31516,1,0
456,304,31726,1,0
416,232,31936,1,0
408,72,32356,6,0,B|488:72,2,65,8|0|8
328,72,32985,1,0
280,128,33195,1,8
232,72,33405,1,0
184,128,33614,1,8
136,272,34034,5,8
192,216,34244,1,0
240,272,34454,2,0,B|343:272,1,97.5,8|0
336,272,34873,1,8
416,272,35083,1,0
376,208,35293,1,8
313,89,35712,5,8
234,89,35922,1,0
277,154,36132,1,8
355,155,36342,1,0
432,153,36551,2,0,B|432:97,2,32.5,8|8|0
437,231,36971,1,8
322,337,37391,5,8
271,278,37600,1,0
224,341,37810,1,8
179,276,38020,1,0
228,215,38230,2,0,B|299:215|299:215,1,65,8|0
364,212,38649,1,8
274,100,39069,6,0,B|210:100,4,32.5,0|0|0|0|8
342,116,39698,1,0
396,162,39908,1,8
449,209,40118,1,0
500,258,40328,1,8
367,310,40747,5,0
277,177,41167,1,0
217,320,41586,2,0,B|191:283|191:283,1,32.5,8|0
152,230,41901,2,0,B|124:184|124:184,1,32.5,0|8
59,181,42216,2,0,B|59:261|59:261,1,65
61,206,45782,5,0
116,151,45992,1,0
168,209,46202,2,2,B|240:209,1,65
280,147,46621,1,0
324,211,46831,1,0
370,148,47041,2,2,B|370:92,2,32.5
414,212,47461,1,0
459,148,47670,1,0
365,273,48090,1,0
324,212,48300,1,0
279,275,48509,1,0
231,212,48719,1,0
89,144,49139,5,8
89,144,49558,1,8
89,145,49978,1,8
173,146,50188,1,0
257,146,50398,1,8
425,147,50817,5,8
425,147,51237,1,8
424,147,51656,1,8
424,231,51866,1,0
425,315,52076,1,8
257,298,52495,6,0,B|315:240,1,65,8|0
234,201,52915,2,0,B|175:142,1,65,8|0
248,95,53335,1,8
300,29,53544,1,8
354,93,53754,1,8
457,227,54174,6,0,B|397:167,1,65,8|0
358,247,54593,2,0,B|307:298|307:298,1,65,8|0
244,240,55013,1,8
195,170,55223,1,8
246,103,55433,1,8
256,192,55852,12,0,57530
83,101,57950,5,0
252,101,58370,2,2,B|328:65|409:108|409:108,1,130
378,96,59209,1,0
434,159,59419,1,0
384,226,59628,1,0
220,183,60048,6,2,B|132:183|132:183,1,65
70,185,60468,2,0,C|68:278|128:286|128:286,1,130,8|0
270,290,61307,1,8
423,220,61726,5,8
371,153,61936,1,0
324,223,62146,1,0
169,155,62565,1,8
116,221,62775,1,0
60,157,62985,1,0
214,88,63405,6,2,B|214:40,2,32.5
215,172,63824,1,8
361,88,64244,1,2
354,256,64663,1,8
209,314,65083,6,2,B|209:274,2,32.5
287,314,65502,1,0
384,191,65922,1,8
222,191,66342,1,0
66,180,66761,6,0,B|196:98|196:98,1,130
317,43,67600,2,0,B|405:163|405:163|413:163,1,130
260,279,68440,2,2,B|185:279|185:279,1,65
110,278,68859,1,8
153,205,69069,1,4
464,80,69908,6,2,C|448:64|432:80|416:64|400:80|384:64|368:80|368:80,1,130
288,72,70537,1,0
344,232,70957,2,8,B|424:232,2,65
297,302,71586,6,2,C|238:343|189:292|184:287|184:287,1,130
248,235,72216,1,0
250,66,72635,2,8,B|251:133,2,65
108,158,73474,5,2
186,307,73894,1,0
213,140,74314,1,8
288,290,74733,1,0
129,230,75153,6,0,B|220:220,3,65,2|2|8|8
277,210,75992,1,0
469,45,76621,6,2,C|460:98|408:71|391:103|391:102|391:102,1,130
334,138,77251,1,0
171,183,77670,2,8,B|171:320|171:320,1,130
238,260,78300,6,2,B|382:260|382:260,1,130
314,194,78929,1,0
483,201,79349,2,8,B|483:64|483:64,1,130
313,69,80188,5,8
262,128,80398,1,0
215,68,80607,1,0
208,233,81027,1,8
260,165,81237,1,0
313,230,81447,1,0
206,361,81866,1,8
259,295,82076,1,8
313,359,82286,1,8
366,293,82495,1,8
312,230,82705,2,2,B|312:166,6,32.5
235,193,83544,5,4
235,193,83753,5,4
235,193,83964,5,4
53,333,97810,5,4
109,85,98440,1,0
193,82,98649,2,2,C|256:35|313:92|313:92,1,130
422,175,99488,1,8
377,247,99698,1,0
331,175,99908,1,0
161,175,100328,1,8
211,233,100537,1,0
254,177,100747,1,0
155,320,101167,5,4
323,320,101586,2,2,C|288:304|288:304|256:240|256:240,1,130
144,192,102426,1,0
270,124,102845,1,8
346,161,103055,1,0
273,204,103265,1,0
414,112,103684,1,8
345,162,103894,1,0
272,205,104104,1,0
166,73,104523,5,8
103,129,104733,1,0
170,179,104943,2,2,B|170:280|170:280,1,97.5
170,277,105363,1,0
231,333,105572,1,0
297,280,105782,1,0
460,235,106202,5,8
375,238,106412,1,0
412,162,106621,2,2,B|356:58|356:58,1,97.5
365,76,107041,1,0
288,112,107251,1,0
211,149,107461,1,0
64,232,107880,5,8
64,232,108300,1,8
65,232,108719,1,2
135,279,108929,1,2
204,231,109139,1,2
204,231,109558,5,8
204,231,109978,1,8
205,231,110398,1,2
270,177,110607,1,2
333,232,110817,1,2
256,192,111237,12,0,112915
